osu file format v5

[General]
AudioFilename: Namie Amuro - Hide Seek.mp3
AudioLeadIn: 0
PreviewTime: -1
Countdown: 1
SampleSet: Normal
StackLeniency: 0.7
Mode: 0
LetterboxInBreaks: 1
EditorBookmarks: 199452

[Metadata]
Title:Hide & Seek
Artist:Namie Amuro
Creator:Cidwel
Version:Easy
Source:
Tags:hide seek namie amuro wow warcraft

[Difficulty]
HPDrainRate:1
CircleSize:4
OverallDifficulty:3
SliderMultiplier:1.4
SliderTickRate:1

[Events]
//Background and Video events
1,0,"blind-compress.avi"
//Break Periods
2,71335,77936
2,119336,133936
2,199336,213936
//Storyboard Layer 0 (Background)
//Storyboard Layer 1 (Failing)
//Storyboard Layer 2 (Passing)
//Storyboard Layer 3 (Foreground)
//Storyboard Sound Samples
//Background Colour Transformations
3,100,0,0,0

[TimingPoints]
136,500,4,1,0,100,1

[HitObjects]
256,192,29136,1,2
256,192,29636,1,2
256,192,30136,1,2
256,192,30636,1,2
160,96,31636,5,8
224,96,32136,1,0
320,96,32636,2,8,B|384:96|384:160,2,70
96,192,33636,5,8
160,192,34136,1,0
224,192,34636,2,8,B|288:128,2,70
384,64,35636,5,8
384,160,36136,1,0
224,224,36636,2,8,B|278:147|214:179,2,70
160,160,37636,5,4
160,160,37886,1,4
160,160,38136,1,4
352,160,38636,1,4
352,160,38886,1,4
352,160,39136,1,4
128,64,39636,6,8,B|256:128|192:192|192:224,1,140
224,128,40636,1,0
224,128,40886,1,0
224,128,41136,1,0
384,128,41636,6,8,B|256:224,1,140
288,256,42636,1,8
288,256,42886,1,8
288,256,43136,1,8
224,64,43636,6,8,B|384:96|352:192|320:160,1,140
352,192,44636,1,0
320,256,44886,1,0
224,128,45136,5,8
224,128,45636,1,0
288,128,46136,2,0,B|288:224,4,70,8|8|0|0|8
256,224,47636,5,0
160,224,48136,1,0
64,224,48636,1,0
128,160,49136,1,0
352,96,50136,5,8
416,160,50636,1,0
192,64,51136,2,8,B|96:128|128:224,1,140
160,160,52136,2,8,B|256:160,1,70
288,160,52636,2,8,B|384:160,1,70
96,128,53136,2,8,B|96:192|224:256,1,140
224,256,54136,2,8,B|352:256|352:160,1,140
96,64,55386,6,0,B|192:64,1,70
224,64,55886,2,0,B|352:64,1,70
352,64,56386,2,0,B|448:64,1,70
456,117,56886,1,0
416,192,57136,2,8,B|256:256,1,140
160,192,58136,1,0
96,128,58636,1,0
64,64,59136,2,8,B|256:32,1,140
192,64,60136,1,0
237,112,60386,1,0
192,161,60636,1,0
150,212,60886,1,0
194,263,61136,6,8,B|352:320|320:192,1,140
352,192,62136,2,8,B|256:64|192:128,1,140
96,160,63386,1,0
96,160,63636,1,0
192,160,63886,1,0
192,160,64136,1,0
256,96,64386,2,8,B|384:128|320:224,1,140
256,288,65386,2,0,B|256:192,1,70
256,160,65886,2,0,B|256:64,1,70
256,32,66386,2,8,B|96:32|128:128,1,140
128,128,67386,2,0,B|416:128,1,280
384,192,68886,2,8,B|192:192,1,140
192,192,69636,2,0,B|128:192|96:128,1,70
128,115,70136,1,0
179,72,70386,1,0
242,57,70636,1,8
302,67,70886,2,8,B|398:131,1,70
160,128,79136,5,12
288,128,79636,1,12
384,192,80136,1,0
321,285,80636,2,12,B|128:352|64:128,1,280
96,96,82136,5,0
160,96,82386,1,0
224,96,82636,1,0
288,96,82886,1,0
352,160,83136,2,12,B|416:224,1,140
128,128,84136,5,0
224,288,84636,1,0
288,288,84886,1,0
352,288,85136,2,8,B|416:256|416:160|416:128,1,140
384,128,86136,2,8,B|288:96|192:160,1,140
64,96,87136,5,12
128,96,87636,1,8
256,96,88136,1,0
256,160,88636,1,0
256,224,89136,2,12,B|416:128,1,140
384,96,90136,5,0
330,56,90386,1,0
279,95,90636,1,0
234,53,90886,1,0
187,102,91136,2,12,B|96:224,1,140
96,96,92136,5,0
256,192,92636,2,0,B|320:256,1,70
354,187,93136,2,8,B|416:96,1,140
288,64,94136,2,8,B|192:96|160:160,1,140
64,192,95136,5,12
224,128,95386,1,0
224,128,95636,1,0
288,128,96136,1,0
288,128,96386,1,0
448,128,96636,2,12,B|448:224|384:160,2,70
320,192,97386,5,8
320,192,97636,1,0
256,192,98136,1,0
256,192,98386,1,0
192,192,98636,2,12,B|128:160|160:128|128:128,2,70
96,96,99386,6,8,B|192:96,1,70
224,96,100136,2,12,B|352:96,1,70
342,95,100636,1,4
384,96,100886,1,12
428,147,101136,1,12
384,224,101386,1,4
384,224,101636,1,4
384,224,101886,1,4
320,224,102136,2,4,B|160:224,1,140
288,64,103386,5,0
288,64,103636,1,0
224,32,104136,1,0
227,35,104386,1,0
175,75,104636,2,12,B|224:128,2,70
160,160,105386,5,0
160,160,105636,1,0
256,96,106136,2,0,B|256:192,1,70
256,192,106636,2,8,B|192:224,1,70
128,224,107136,1,12
224,256,107386,5,0
224,256,107636,1,0
256,192,108136,1,0
256,192,108386,1,0
320,192,108636,2,12,B|416:96|352:96,2,70
128,64,109386,5,0
128,64,109636,1,0
128,64,109886,1,0
72,95,110136,2,8,B|0:224|192:288,1,210
193,265,111136,1,12
128,192,111636,5,0
192,192,111886,1,0
256,192,112136,1,0
252,89,112636,1,0
188,87,112886,2,8,B|110:87,1,70
160,160,113636,1,4
352,160,114136,1,4
256,192,114636,12,4,119136
128,96,135136,5,4
384,128,135636,1,0
352,192,135886,1,0
320,256,136136,1,0
224,224,136636,1,0
224,160,136886,1,0
256,96,137136,2,4,B|288:32|416:32,1,140
448,224,138136,5,0
448,224,138386,1,0
448,224,138636,1,0
448,320,139136,2,4,B|384:352|256:352,1,140
256,288,140136,5,0
192,224,140386,1,0
256,160,140636,2,0,B|160:64,1,70
160,96,141136,2,0,B|192:192|64:192,1,140
96,160,142136,2,0,B|160:96|256:128,1,140
320,224,143386,5,4
320,224,143636,1,0
320,224,143886,1,0
378,176,144136,1,0
393,115,144386,1,0
350,66,144636,1,0
288,64,144886,2,4,B|256:128|320:160,1,70,0|0
448,224,145636,1,4
384,224,146136,6,0,B|224:256|160:192,1,210
179,138,147136,1,0
385,139,147636,1,4
384,224,148136,2,0,B|352:288|288:256,1,70
288,256,148636,2,0,B|212:246|244:150,1,70
236,144,149136,1,0
288,128,149636,2,0,B|416:96|320:224|320:224|416:128|448:288,1,350
416,256,151386,5,0
352,256,151636,1,0
288,256,151886,1,0
192,160,152386,2,4,B|96:128|64:256,1,140
288,288,153386,5,0
288,288,153636,1,0
288,288,153886,1,0
320,224,154386,2,0,B|256:160|192:192,1,140
142,184,155386,6,0,B|96:128,1,70
118,111,155886,2,0,B|192:50,1,70
239,63,156386,1,0
320,64,156886,6,0,B|416:160,1,70
352,192,157386,1,0
352,192,157636,1,0
352,192,157886,1,0
272,136,158136,1,0
233,189,158386,1,0
199,243,158636,1,0
160,192,158886,2,4,B|96:192|95:259,1,70
128,96,159386,1,0
192,96,159636,1,0
256,96,159886,1,0
320,128,160136,1,0
427,76,160636,1,0
466,134,160886,1,0
448,192,161136,2,0,B|384:224|288:192,1,140
286,147,162136,5,0
192,147,162636,2,0,B|146:203,2,70
241,106,163636,1,4
359,80,164136,6,0,B|416:128,1,70
416,192,164636,2,0,B|348:262,1,70
352,192,165136,1,0
288,192,165636,1,0
224,192,166136,1,0
160,192,166636,1,0
256,64,167136,1,4
256,64,167636,5,4
416,128,168136,2,0,B|384:192,1,70
336,160,168636,2,4,B|288:96,2,70
288,224,169636,1,4
224,160,170136,5,0
96,160,170636,2,0,B|160:224,1,70
224,224,171136,2,4,B|320:224|352:128,1,140
352,96,172136,1,4
141,98,172636,5,0
195,138,172886,1,0
224,224,173136,5,0
224,224,173636,1,0
224,96,174136,2,4,B|288:96,8,35
352,96,175636,1,4
416,256,176136,5,0
320,256,176636,1,0
256,256,176886,1,0
192,256,177136,2,4,B|64:256|64:128,1,140
96,128,178136,5,0
160,128,178386,1,0
224,128,178636,1,0
352,96,179136,1,4
410,137,179636,1,4
418,203,180136,1,0
352,256,180636,5,0
320,192,180886,1,0
320,128,181136,2,0,B|128:128,3,140
192,64,183386,5,0
192,64,183636,1,0
96,64,184136,1,0
96,64,184386,1,0
32,128,184636,2,4,B|32:288,1,140
256,256,185386,5,0
256,256,185636,1,0
341,256,186136,1,0
341,256,186386,1,0
416,256,186636,2,4,B|512:192|384:96,1,140
320,96,187386,6,0,B|288:160|288:160|256:96|256:96|224:160|224:160|192:96,1,280
128,64,188636,1,0
128,64,188886,1,0
128,64,189136,1,4
256,192,189386,5,0
256,192,189636,1,0
256,192,189886,1,0
256,192,190136,1,0
256,192,190386,1,0
320,192,190636,2,4,B|320:288,2,70
320,64,191386,6,0,B|416:64,2,70
192,64,192386,1,0
192,64,192636,1,0
128,64,192886,2,4,B|96:96|96:128,1,70
64,224,193386,6,0,B|96:288,1,70
160,256,194636,1,0
160,256,194886,1,0
160,256,195136,1,4
96,64,195386,2,0,B|224:64,1,70
224,64,195886,2,0,B|320:64,1,70
352,64,196386,2,0,B|448:64,1,70
256,192,197386,12,12,199136
128,128,215136,6,0,B|256:0|256:256|416:128,1,280
425,119,216386,1,0
373,75,216636,1,0
306,68,216886,2,0,B|256:0|160:64,1,140
192,192,217636,1,0
192,192,217886,1,0
288,192,218636,2,0,B|384:192,1,70
96,128,219136,6,8,B|160:64|288:128,1,140
256,128,219886,2,8,B|352:128,1,70
416,96,220386,1,8
416,96,220636,1,12
416,192,221136,6,8,B|320:192,3,70
256,192,222386,1,8
256,192,222636,1,12
32,160,223136,6,0,B|96:96|224:64|192:224|352:96,1,280
340,89,224386,1,0
379,140,224636,1,0
396,206,224886,1,4
352,256,225386,6,0,B|288:288,1,70
239,257,225886,2,0,B|192:192,1,70
224,160,226386,2,0,B|320:96,2,70
160,128,227136,1,0
352,128,227886,1,0
256,128,228386,1,8
256,128,228636,1,12
352,256,229136,5,0
160,256,229886,1,0
256,256,230386,1,8
256,256,230636,1,12
256,192,231136,12,0,232886
128,96,233636,5,0
128,96,233886,1,0
124,189,234136,1,0
128,192,234386,1,0
127,279,234636,1,0
245,338,235136,2,4,B|352:320|256:224|384:160,1,210
320,128,237136,2,4,B|288:96|128:32|64:192|192:352|384:288|384:192|224:160,1,490,4|4
128,96,239136,5,8
128,96,239386,1,0
128,96,239636,1,0
307,156,240136,2,12,B|320:192|384:192,1,70
384,96,240886,6,8,B|224:96,2,140
448,96,242136,1,8
448,176,242386,1,12
224,192,242886,5,0
289,192,243386,1,0
256,128,243886,2,0,B|256:64|352:96,1,70,0|0
352,128,244386,1,12
352,224,244886,5,0
352,224,245136,1,0
256,224,245386,1,0
256,224,245636,1,0
160,224,245886,1,0
160,224,246136,1,12
160,224,246386,1,0
64,96,246886,5,0
112,50,247136,2,0,B|192:32|256:86,1,140
288,96,248136,1,8
288,96,248386,1,12
352,96,248886,2,0,B|384:256,1,140
346,289,249886,1,0
224,288,250136,1,12
128,192,250886,5,0
128,192,251136,1,0
224,192,251636,1,0
224,192,251886,1,0
288,160,252136,2,12,B|334:224,1,70
416,128,252886,5,0
416,128,253136,1,0
416,128,253386,1,0
339,80,253636,2,0,B|259:30,1,70
217,79,254136,1,0
217,79,254386,1,0
191,150,254636,2,0,B|288:224,1,70
160,192,255136,5,12
352,192,255636,1,4
256,192,256136,1,0
256,192,256386,1,0
256,192,256636,1,0
256,320,257136,2,12,B|128:192,1,140
320,160,258136,5,0
320,160,258386,1,0
320,160,258636,1,0
416,160,259136,2,12,B|256:288,1,140
256,288,260136,1,0
192,96,260636,5,0
320,96,260886,1,0
192,192,261136,1,0
192,192,261636,1,0
320,192,262136,1,0
320,192,262636,1,0
192,128,263136,5,12
320,128,263636,1,4
256,224,264136,1,0
256,224,264386,1,0
319,306,264636,1,0
319,306,264886,1,0
384,256,265136,2,12,B|386:170|290:138,1,140
128,96,266136,5,0
151,211,266636,1,0
95,264,266886,1,0
146,311,267136,2,12,B|256:320|256:224|256:224,1,140
256,160,268136,1,0
211,84,268636,5,0
285,84,268886,1,0
357,100,269136,2,8,B|416:128|448:256,1,140
402,283,270136,2,8,B|320:288|128:160,1,280
128,96,271386,5,0
128,96,271636,1,0
192,96,272136,1,0
192,96,272386,1,0
192,32,272636,2,12,B|288:32,2,70
288,160,273386,5,0
288,160,273636,1,0
288,224,274136,1,0
288,224,274386,1,0
352,224,274636,2,12,B|448:224,2,70
384,96,275386,5,0
384,96,275636,1,0
320,32,276136,1,0
320,32,276386,1,0
256,32,276636,2,12,B|160:32,2,70
160,128,277386,5,0
160,128,277636,1,0
160,128,277886,1,0
352,128,278136,1,0
352,128,278386,1,0
352,128,278636,1,0
352,192,278886,2,12,B|256:288,1,70
160,160,279636,5,0
224,160,279886,1,0
288,160,280136,1,0
371,201,280636,1,0
281,301,281136,2,12,B|192:256|288:192,1,140
256,192,282636,12,4,284636
224,160,285136,5,8
224,160,285386,1,0
224,160,285636,1,0
288,160,286136,1,8
352,160,286386,2,0,B|480:64|256:32,1,210
160,128,287636,5,8
160,192,288136,1,0
160,128,288636,1,8
160,128,288886,1,8
352,192,289136,5,0
352,128,289636,1,8
352,192,290136,1,0
352,128,290636,1,8
352,128,290886,1,8
160,224,291136,6,8,B|288:96,1,140
320,192,292136,1,0
384,160,292636,1,8
384,160,292886,1,8
384,160,293136,5,0
192,128,293636,1,8
192,128,293886,1,0
192,128,294136,1,0
320,128,294636,1,8
320,128,294886,1,8
320,128,295136,1,0
