osu file format v9

[General]
AudioFilename: One Piece - Opening 14 (Japanese).mp3
AudioLeadIn: 1000
PreviewTime: 60792
Countdown: 0
SampleSet: Soft
StackLeniency: 0.7
Mode: 0
LetterboxInBreaks: 0

[Editor]
DistanceSpacing: 0.9
BeatDivisor: 4
GridSize: 4

[Metadata]
Title:Fight Together (TV Size)
Artist:Namie Amuro
Creator:tutuhaha
Version:Normal
Source:One Piece
Tags:AngelHoney spboxer3 opening

[Difficulty]
HPDrainRate:3
CircleSize:3
OverallDifficulty:3
ApproachRate:4
SliderMultiplier:1.4
SliderTickRate:1

[Events]
//Background and Video events
Video,0,"One Piece14.flv"
0,0,"BG.jpg"
//Break Periods
//Storyboard Layer 0 (Background)
//Storyboard Layer 1 (Fail)
//Storyboard Layer 2 (Pass)
//Storyboard Layer 3 (Foreground)
//Storyboard Sound Samples
//Background Colour Transformations
3,100,163,162,255

[TimingPoints]
2420,465.116279069767,4,2,1,80,1,0
9856,-100,4,1,1,90,0,0
17298,-100,4,2,1,60,0,0
17419,-100,4,1,1,40,0,0
29379,-100,4,2,1,50,0,0
32171,-100,4,1,1,70,0,0
46131,-100,4,1,2,70,0,0
47071,-100,4,1,2,80,0,0
61954,-100,4,1,1,90,0,1
76838,-100,4,1,1,50,0,1
84513,-100,4,2,1,80,0,1
86838,-100,4,2,1,60,0,1
88001,-100,4,2,1,70,0,0
104047,-100,4,2,1,60,0,0
116140,-100,4,2,1,20,0,0
118466,-100,4,2,1,60,0,0
119396,-100,4,2,1,80,0,0
127071,-100,4,1,1,80,0,1
134513,-100,4,1,1,60,0,1
141722,-100,4,2,1,80,0,1
144745,-100,4,2,1,10,0,0

[Colours]
Combo1 : 168,81,255
Combo2 : 255,128,0
Combo3 : 17,177,255

[HitObjects]
72,152,2420,2,0,B|96:84|192:56,1,140,2|0
212,112,3117,2,0,B|240:180|324:196,2,140
324,52,4513,2,0,B|408:52,1,70,2|0
412,112,4978,2,0,B|484:148|504:216,2,140
336,212,6373,6,0,B|324:248|288:272,2,70,2|0|0
212,180,7303,2,0,B|180:148|128:148,2,70
252,60,8233,2,0,B|320:40,1,70,2|0
380,60,8699,2,0,B|392:136|460:168,1,140
404,280,9629,6,0,B|324:280,1,70,0|4
212,256,10326,1,8
144,152,10792,2,0,B|156:112|192:92,1,70
228,52,11257,2,0,B|256:88|300:100,1,70,8|0
344,100,11722,6,0,B|424:120|464:192,1,140,0|8
452,304,12652,2,0,B|380:304,1,70
336,260,13117,2,0,B|256:260,1,70,8|0
216,224,13582,6,0,B|176:288|88:308,1,140,0|8
104,176,14513,2,0,B|112:96|184:48,1,140,0|8
292,88,15443,2,0,B|340:156|424:176,1,140,0|8
440,220,16140,1,0
420,280,16373,2,0,B|408:328|372:348,2,70,0|0|8
300,240,17303,5,4
300,240,17768,1,0
176,248,18233,2,0,B|140:312|52:328,1,140
48,264,18931,1,0
60,204,19164,6,0,B|60:132|4:76,1,140
132,96,20094,2,0,B|156:128|188:136,1,70
248,152,20559,2,0,B|288:164|308:196,1,70
364,212,21024,6,0,B|448:204|492:132,1,140
432,32,21954,2,0,B|348:40|304:112,1,140
188,116,22885,2,0,B|156:180|68:200,1,140
36,240,23582,2,0,B|112:264|160:340,2,140
52,116,24978,6,0,B|112:56,1,70
228,56,25675,2,0,B|272:60|296:92,2,70
220,120,26373,2,0,B|192:192|104:220,1,140
64,240,27071,2,0,B|140:256|188:344,1,140
284,264,28001,2,0,B|336:260|372:232,1,70
404,280,28466,6,0,B|472:248|484:160,1,140
392,84,29396,1,4
392,84,29861,1,2
324,188,30326,2,0,B|252:168|224:80,1,140,4|2
108,132,31257,2,0,B|64:144|40:184,1,70,4|0
64,232,31722,2,0,B|108:252|128:296,1,70,2|0
164,320,32187,5,4
288,324,32652,1,8
400,268,33117,2,0,B|472:232|504:140,1,140,0|8
456,116,33815,1,0
400,92,34047,6,0,B|320:96|248:32,1,140,0|8
164,120,34978,2,0,B|120:132|92:180,1,70
104,220,35443,2,0,B|80:252|44:264,2,70,8|0|0
216,276,36373,5,8
340,292,36838,1,0
460,252,37303,2,0,B|428:232|416:176,1,70,8|0
444,136,37768,6,0,B|408:64|304:56,1,140,0|8
268,56,38466,2,0,B|244:120|156:156,2,140
144,56,39861,2,0,B|56:56,1,70,0|8
20,172,40559,2,0,B|100:172,2,70,0|0|8
36,232,41257,6,0,B|104:256|144:344,1,140
196,336,41954,1,8
256,224,42420,2,0,B|256:180|288:148,1,70
340,172,42885,2,0,B|384:160|400:112,1,70,8|0
360,76,43350,6,0,B|312:28|220:40,2,140,0|8|0
464,148,44745,2,0,B|488:180|484:228,1,70,0|2
368,260,45443,2,0,B|284:260,2,70,0|0|0
356,200,46140,2,0,B|336:128|252:88,1,140,8|2
212,72,46838,1,0
148,60,47071,6,0,B|112:128|28:156,1,140,4|2
56,276,48001,2,0,B|104:260|128:228,1,70,8|0
160,196,48466,2,0,B|200:204|228:232,1,70,2|0
248,284,48931,2,0,B|304:332|400:324,1,140,4|2
432,292,49629,2,0,B|440:216|508:160,1,140,0|2
416,72,50559,2,0,B|340:72,1,70,0|4
220,56,51257,6,0,B|200:100|152:124,1,70,2|0
160,172,51722,2,0,B|160:212|180:252,1,70,8|0
164,304,52187,2,0,B|232:272|328:284,2,140,2|4|2
60,232,53582,1,8
44,172,53815,1,0
44,108,54047,1,2
152,44,54513,6,0,B|320:36|408:152,1,280,4|8
384,204,55675,2,0,B|428:216|456:252,2,70,0|2|0
344,252,56373,2,0,B|284:308|200:308,1,140,4|2
176,352,57071,2,0,B|160:280|84:236,1,140
32,228,57768,2,0,B|68:156|148:144,1,140,2|4
212,44,58699,5,2
316,112,59164,2,0,B|352:96|376:60,2,70,8|0|2
320,176,59861,2,0,B|240:184|184:248,1,140,0|2
88,168,60792,2,0,B|64:196|60:236,2,70,0|8|0
148,184,61489,6,0,B|184:260|284:280,1,140,0|4
376,252,62420,1,8
420,132,62885,2,0,B|388:100|380:60,2,70,0|0|8
372,172,63582,2,0,B|292:160|248:80,1,140,0|2
140,140,64513,2,0,B|64:164|36:232,1,140
84,272,65210,1,8
136,308,65443,6,0,B|216:284|252:204,1,140,0|2
344,148,66373,2,0,B|424:148|480:192,2,140,0|0|2
220,120,67768,2,0,B|192:160|144:176,2,70,0|8|0
276,92,68466,2,0,B|292:56|328:40,2,70,0|0|8
324,132,69164,6,0,B|408:140|464:212,1,140,0|2
420,316,70094,2,0,B|384:344|352:352,1,70
256,280,70792,1,8
196,288,71024,6,0,B|180:216|88:168,2,140,0|2|0
224,164,72419,2,0,B|236:120|256:96,1,70,0|8
272,40,72885,6,0,B|320:96|416:112,1,140,0|2
472,204,73815,1,0
388,300,74280,2,0,B|364:336|316:340,1,70,0|8
268,328,74745,6,0,B|248:260|160:224,1,140,0|2
80,148,75675,2,0,B|104:76|176:40,2,140,0|0|2
132,184,76838,6,0,B|272:184,1,140
312,64,77768,2,0,B|452:64,1,140
480,120,78466,1,0
500,180,78699,6,0,B|468:252|388:280,1,140
284,232,79629,2,0,B|208:248|168:324,1,140
112,300,80326,1,0
60,268,80559,6,0,B|60:116,1,140
152,40,81489,2,0,B|152:184,1,140
196,224,82187,2,0,B|248:164|344:148,2,140
296,300,83582,2,0,B|376:300,1,70
428,284,84047,2,0,B|488:228|496:140,1,140,0|2
408,68,84978,6,0,B|324:68,1,70,0|2
300,120,85443,2,0,B|212:120,1,70,0|0
176,88,85908,2,0,B|140:160|52:192,1,140,0|4
80,308,86838,5,0
140,292,87071,2,0,B|264:216|416:260,1,280,2|4
468,148,88466,5,0
416,32,88931,2,0,B|340:68|320:152,1,140,2|0
200,152,89861,2,0,B|124:136|88:64,1,140
36,100,90559,1,0
28,164,90792,2,0,B|76:220|68:300,1,140,2|0
192,280,91722,6,0,B|348:344|472:252,1,280,0|2
472,200,92885,2,0,B|460:152|416:132,1,70
412,84,93350,2,0,B|376:100|328:88,1,70
220,72,94047,1,0
104,124,94513,2,0,B|44:152|16:236,1,140,2|0
116,308,95443,6,0,B|160:308|196:276,1,70
212,232,95908,2,0,B|240:272|280:288,1,70
316,312,96373,2,0,B|360:248|448:236,1,140,2|0
428,112,97303,1,0
316,52,97768,1,0
252,48,98001,2,0,B|224:112|120:136,1,140,2|0
112,252,98931,6,0,B|236:224|304:312,1,210,4|2
356,196,100094,2,0,B|396:192|432:160,2,70,0|0|2
308,152,100792,2,0,B|296:80|212:48,1,140,0|2
196,176,101722,2,0,B|160:240|72:264,1,140
56,204,102419,2,0,B|40:164|4:140,2,70,2|0|4
352,100,104047,5,0
404,136,104280,2,0,B|464:180|472:256,1,140,2|0
352,292,105210,1,2
228,272,105675,2,0,B|208:240|160:224,1,70
112,228,106140,2,0,B|76:212|64:172,1,70,2|0
112,132,106606,2,0,B|232:120|300:16,1,210,0|2
404,80,107768,6,0,B|452:88|472:116,2,70,0|2|0
384,140,108466,2,0,B|364:208|288:240,1,140,0|2
400,304,109396,2,0,B|344:352|260:348,1,140,0|2
212,320,110094,1,0
188,260,110326,2,0,B|156:152|36:116,1,210,0|2
152,52,111489,5,0
268,100,111954,2,0,B|304:168|376:184,1,140,2|0
392,244,112652,2,0,B|348:308|256:320,1,140,2|0
56,192,114047,6,0,B|68:112|152:72,1,140,4|2
180,40,114745,2,0,B|212:108|288:128,1,140
328,172,115443,2,0,B|360:136|400:136,1,70,2|0
256,192,116140,12,0,117768
48,176,118466,5,0
48,176,118699,2,0,B|72:112|160:76,1,140,0|2
200,48,119396,2,0,B|244:128|320:144,1,140,0|2
336,260,120326,2,0,B|384:248|408:216,1,70
384,104,121024,5,2
384,104,121257,2,0,B|304:120|260:188,1,140,0|2
184,272,122187,2,0,B|96:264|48:184,1,140
52,84,123117,1,2
172,116,123582,6,0,B|208:96|236:56,1,70,0|2
276,36,124047,2,0,B|320:132|444:156,1,210,0|2
492,192,124978,2,0,B|408:216|364:292,1,140,0|2
264,324,125908,1,0
160,252,126373,2,0,B|112:264|72:228,2,70
160,188,127071,6,0,B|112:128|108:32,1,140,4|8
236,52,128001,1,0
272,172,128466,1,8
308,224,128699,6,0,B|388:228|460:168,2,140,0|2|0
216,308,130094,2,0,B|188:272|144:272,1,70,0|8
108,312,130559,2,0,B|136:244|80:160,2,140,0|2|0
20,224,131954,2,0,B|0:188|8:144,1,70,0|8
28,96,132419,6,0,B|80:44|164:44,1,140,0|2
188,96,133117,1,0
228,144,133350,2,0,B|304:152|368:104,2,140,0|0|2
196,196,134513,5,4
108,288,134978,1,0
224,340,135443,1,0
316,252,135908,2,0,B|340:204|380:192,1,70
424,196,136373,6,0,B|412:120|332:72,1,140
224,56,137303,2,0,B|184:52|148:68,1,70
92,56,137768,2,0,B|88:100|56:132,1,70
44,180,138233,6,0,B|76:248|168:260,1,140
256,180,139164,2,0,B|276:144|316:132,2,70
276,240,139861,2,0,B|316:304|416:324,1,140
416,196,140792,2,0,B|416:128|348:68,1,140
300,44,141489,1,0
236,36,141722,6,0,B|188:88|84:100,1,140,4|2
92,220,142652,2,0,B|132:240|152:268,1,70,0|2
160,324,143117,2,0,B|200:300|252:304,1,70,0|2
272,348,143582,2,0,B|348:348|404:288,1,140,0|4
256,192,144745,12,0,146606
