osu file format v9

[General]
AudioFilename: One Piece - Opening 14 (Japanese).mp3
AudioLeadIn: 1000
PreviewTime: 60792
Countdown: 0
SampleSet: Normal
StackLeniency: 0.7
Mode: 0
LetterboxInBreaks: 0

[Editor]
DistanceSpacing: 1
BeatDivisor: 4
GridSize: 4

[Metadata]
Title:Fight Together (TV Size)
Artist:Namie Amuro
Creator:tutuhaha
Version:Easy
Source:One Piece
Tags:AngelHoney spboxer3 opening

[Difficulty]
HPDrainRate:2
CircleSize:3
OverallDifficulty:2
ApproachRate:3
SliderMultiplier:1.2
SliderTickRate:1

[Events]
//Background and Video events
Video,0,"One Piece14.flv"
0,0,"BG.jpg"
//Break Periods
//Storyboard Layer 0 (Background)
//Storyboard Layer 1 (Fail)
//Storyboard Layer 2 (Pass)
//Storyboard Layer 3 (Foreground)
//Storyboard Sound Samples
//Background Colour Transformations
3,100,163,162,255

[TimingPoints]
2420,465.116279069767,4,2,1,80,1,0
9856,-100,4,1,1,90,0,0
17298,-100,4,2,1,50,0,0
17419,-100,4,1,1,40,0,0
29379,-100,4,2,1,40,0,0
32171,-100,4,1,1,60,0,0
46131,-100,4,1,2,70,0,0
47071,-100,4,1,2,80,0,0
61954,-100,4,1,1,90,0,1
76838,-100,4,2,1,90,0,1
76954,-100,4,1,1,40,0,1
84280,-100,4,2,1,90,0,1
86838,-100,4,2,1,50,0,1
88001,-100,4,2,1,60,0,0
98932,-100,4,2,1,70,0,0
104047,-100,4,2,1,60,0,0
116140,-100,4,2,1,20,0,0
118699,-100,4,2,1,60,0,0
119396,-100,4,2,1,70,0,0
127071,-100,4,1,1,90,0,1
134513,-100,4,1,1,70,0,1
141954,-100,4,2,1,70,0,1
144745,-100,4,2,1,10,0,0

[Colours]
Combo1 : 168,81,255
Combo2 : 255,128,0
Combo3 : 17,177,255

[HitObjects]
96,192,2420,2,0,B|140:72|288:68,1,240,2|0
384,132,3815,2,0,B|428:128|452:108,2,60,0|0|2
276,188,4745,2,0,B|252:252|172:280,2,120
256,68,6140,5,2
372,108,6606,2,0,B|432:136|448:208,1,120
348,272,7536,2,0,B|268:272,2,60,0|0|2
292,168,8466,1,0
184,112,8931,2,0,B|132:156|48:164,2,120,0|0|4
288,52,10326,5,8
404,76,10792,1,0
440,188,11257,1,8
388,296,11722,2,0,B|316:296|272:236,1,120,0|8
164,252,12652,2,0,B|124:268|104:300,2,60,0|0|8
108,148,13582,6,0,B|124:88|204:48,2,120,0|8|0
228,164,14978,2,0,B|264:220|336:240,1,120,8|0
428,180,15908,1,8
436,60,16373,2,0,B|504:60,2,60,0|0|8
324,100,17303,6,0,B|192:44|100:136,1,240,4|0
64,248,18699,1,0
180,224,19164,2,0,B|240:340|396:344,1,240
372,224,20559,2,0,B|408:220|432:204,2,60
336,108,21489,6,0,B|312:52|236:28,2,120
220,144,22885,2,0,B|80:116|20:248,1,240
124,304,24280,2,0,B|148:332|180:336,2,60
232,252,25210,6,0,B|352:252,2,120
260,136,26606,2,0,B|352:48|492:92,1,240
488,208,28001,2,0,B|460:240|428:244,2,60
368,192,28931,1,0
256,236,29396,6,0,B|228:300|148:320,1,120,4|2
56,268,30326,2,0,B|80:204|148:180,1,120,4|2
200,80,31257,2,0,B|276:188|424:132,1,240,4|4
456,248,32652,5,8
360,316,33117,2,0,B|320:320|292:348,2,60,0|0|8
260,252,34047,2,0,B|184:252|144:300,1,120,0|8
40,248,34978,2,0,B|28:184|76:124,1,120,0|8
152,48,35908,6,0,B|228:48|272:92,2,120,0|8|0
172,168,37303,1,8
192,288,37768,2,0,B|328:288|400:144,1,240
324,68,39164,6,0,B|348:44|392:40,2,60,8|0|0
208,100,40094,1,8
120,184,40559,2,0,B|104:248|40:288,2,120,0|8|0
220,248,41954,1,8
336,284,42420,1,0
444,236,42885,6,0,B|440:172|384:132,1,120,8|0
304,48,43815,1,8
188,76,44280,2,0,B|168:108|128:120,2,60,0|0|8
232,188,45210,6,0,B|156:288|12:288,1,240,0|8
64,176,46606,2,0,B|32:176|4:152,2,60,8|0|4
136,80,47536,5,2
256,60,48001,1,8
376,76,48466,1,2
464,156,48931,2,0,B|408:240|308:248,2,180,4|2|2
344,144,50792,6,0,B|280:124|252:52,1,120,4|2
144,108,51722,2,0,B|80:124|32:184,2,120,8|2|4
144,228,53117,1,2
240,300,53582,2,0,B|240:368,2,60,8|0|2
360,284,54513,5,4
448,204,54978,1,2
472,88,55443,2,0,B|436:48|344:56,1,120,8|2
244,88,56373,2,0,B|220:176|120:220,2,180,4|2|2
124,72,58233,5,4
36,152,58699,1,2
48,272,59164,1,8
152,336,59629,2,0,B|196:280|280:268,2,120,2|2|0
144,216,61024,2,0,B|276:184|316:40,1,240,8|4
416,112,62420,6,0,B|460:112|488:144,2,60,8|0|0
392,228,63350,2,0,B|368:288|288:316,1,120,8|0
192,336,64280,2,0,B|172:276|100:240,2,120,8|0|8
220,220,65675,6,0,B|232:152|308:116,1,120,0|8
368,36,66606,2,0,B|384:124|472:184,2,180,0|0|8
248,44,68466,5,0
132,80,68931,2,0,B|104:128|76:136,2,60,8|0|4
164,196,69861,2,0,B|164:324,1,120,8|0
280,292,70792,6,0,B|324:236|392:216,2,120,8|0|8
256,176,72187,1,0
176,84,72652,1,8
60,48,73117,6,0,B|60:184,1,120,0|8
156,240,74047,2,0,B|180:304|256:320,1,120,0|8
272,200,74978,2,0,B|304:112|424:96,2,180,0|0|8
196,108,76838,5,4
80,144,77303,1,0
84,264,77768,1,0
200,296,78233,2,0,B|224:332|268:340,2,60,0|0|0
196,176,79164,5,0
304,124,79629,1,0
400,196,80094,2,0,B|432:184|456:152,2,60
292,252,81024,6,0,B|232:240|184:160,1,120
144,76,81954,2,0,B|72:88|40:168,2,120
264,96,83350,2,0,B|340:200|484:192,1,240,0|4
240,256,85210,6,0,B|168:248|108:304,1,120,2|2
112,348,85908,2,0,B|88:296|16:268,1,120,4|0
140,132,87071,2,0,B|276:132,2,120,2|2|4
28,88,88466,5,0
44,208,88931,2,0,B|56:244|88:256,2,60,2|0|0
164,208,89861,2,0,B|304:208,1,120
388,148,90792,2,0,B|424:148|448:176,2,60,2|0|0
324,48,91722,6,0,B|184:48,1,120
136,148,92652,2,0,B|116:208|40:248,1,120,2|0
116,344,93582,2,0,B|184:240|340:244,1,240,0|2
404,156,94978,6,0,B|340:156,2,60
352,48,95908,2,0,B|280:48,2,60,0|0|2
472,48,96838,1,0
492,164,97303,2,0,B|496:228|440:292,1,120
436,332,98001,2,0,B|408:280|324:264,1,120,2|2
236,204,98931,6,0,B|200:116|80:84,1,180,4|2
108,212,100094,2,0,B|88:272|24:300,2,120,0|2|0
180,116,101489,1,2
276,40,101954,2,0,B|316:40|340:60,2,60,0|0|2
312,156,102885,1,4
56,312,104047,6,0,B|24:212|88:120,1,180,2|0
176,68,105210,1,2
172,188,105675,2,0,B|196:240|276:260,1,120,0|2
332,160,106606,2,0,B|432:192|464:280,1,180,0|2
508,164,107768,6,0,B|472:72|352:52,1,180,0|0
256,36,108931,1,2
164,112,109396,2,0,B|140:180|80:212,1,120,0|2
176,288,110326,2,0,B|240:216|352:224,1,180,0|2
420,136,111489,5,0
336,52,111954,2,0,B|272:56|232:104,1,120,2|0
236,164,112652,2,0,B|196:104|112:104,1,120,2|2
256,312,114047,6,0,B|364:332|424:260,1,180,4|2
348,168,115210,2,0,B|328:124|304:116,2,60,0|2|0
256,192,116140,12,0,117768
48,184,118699,6,0,B|96:64|248:40,1,240,0|2
264,160,120094,2,0,B|280:200|320:212,2,60,2|0|0
368,100,121024,6,0,B|440:100|480:152,2,120,2|0|2
256,56,122419,1,0
152,120,122885,2,0,B|132:160|92:176,2,60,2|0|0
180,236,123815,6,0,B|260:332|408:308,2,240,2|2|2
92,152,126140,2,0,B|112:96|184:72,1,120,0|2
296,44,127071,5,4
408,92,127536,1,8
452,204,128001,1,0
332,196,128466,6,0,B|312:252|236:284,2,120,8|0|8
256,104,129861,2,0,B|116:104,1,120,0|8
16,116,130792,6,0,B|60:200|184:220,2,180,0|0|8
120,60,132652,2,0,B|248:60,1,120,0|8
324,144,133582,2,0,B|396:144,2,60,0|0|8
256,244,134513,6,0,B|220:296|144:308,1,120,0|0
156,184,135443,2,0,B|132:120|68:88,2,120
240,96,136838,1,0
352,52,137303,2,0,B|424:52,2,60
332,172,138233,6,0,B|364:228|440:248,1,120
308,272,139164,2,0,B|256:264|184:300,1,120
128,196,140094,1,0
188,92,140559,1,0
300,52,141024,2,0,B|360:32,2,60
284,172,141954,6,0,B|360:288|504:288,1,240,4|0
460,168,143350,2,0,B|432:80|316:32,1,180,2|4
256,192,144745,12,0,146606
