osu file format v9

[General]
AudioFilename: One Piece Opening 14 -Fight Together HD _ mp3_mp4 Download.mp3
AudioLeadIn: 0
PreviewTime: 60666
Countdown: 0
SampleSet: Normal
StackLeniency: 0.7
Mode: 0
LetterboxInBreaks: 1

[Editor]
DistanceSpacing: 0.8
BeatDivisor: 4
GridSize: 8

[Metadata]
Title:Fight Together (TV Size)
Artist:Namie Amuro
Creator:OuendanLuver
Version:Normal+
Source:One Piece
Tags:

[Difficulty]
HPDrainRate:3
CircleSize:4
OverallDifficulty:5
ApproachRate:5
SliderMultiplier:1.4
SliderTickRate:1

[Events]
//Background and Video events
0,0,"one-piece.jpg"
Video,0,"One Piece Opening 14 -Fight Together HD.flv"
//Break Periods
//Storyboard Layer 0 (Background)
//Storyboard Layer 1 (Fail)
//Storyboard Layer 2 (Pass)
//Storyboard Layer 3 (Foreground)
//Storyboard Sound Samples
//Background Colour Transformations
3,100,163,162,255

[TimingPoints]
9852.20300427746,465.116279069767,4,1,1,100,1,0
17410,-100,4,2,1,100,0,0
25201,-100,4,2,0,100,0,0
26014,-100,4,2,1,100,0,0
32061,-100,4,1,1,100,0,0
40201,-100,4,2,0,100,0,0
40898,-100,4,1,1,100,0,0
46014,-100,4,1,2,100,0,0
47061,-100,4,1,2,100,0,1
47119,-100,4,1,2,100,0,0
60666,-100,4,2,0,100,0,0
61945,-100,4,1,1,100,0,1
84270,-100,4,1,2,5,0,1
85038,-100,4,1,2,100,0,1
85898,-100,4,1,1,100,0,0
86596,-100,4,2,0,100,0,0
87875,-100,4,1,1,100,0,0
103921,-100,4,2,0,100,0,0
127061,-100,4,1,1,100,0,1
143573,-100,4,1,1,100,0,0
144270,-100,4,2,0,100,0,0
145549,-100,4,2,0,5,0,0

[Colours]
Combo1 : 193,193,132
Combo2 : 0,217,217
Combo3 : 0,128,192
Combo4 : 128,0,0

[HitObjects]
112,80,9852,2,0,B|112:224,1,140,0|8
224,216,10782,2,0,B|224:72,1,140,0|8
320,144,11712,1,0
416,80,12177,1,8
416,192,12642,1,0
320,240,13108,1,8
208,208,13573,6,0,B|64:208,2,140,0|8|0
208,96,14968,1,8
144,176,15433,6,0,B|80:208,2,70
144,176,16131,2,0,B|224:224,2,70
144,176,16828,2,0,B|144:320,1,140
208,320,17526,5,2
208,256,17759,2,0,B|352:256,1,140,0|2
400,256,18456,1,0
368,208,18689,2,0,B|496:144,1,140,0|2
416,64,19619,1,2
416,64,19852,2,0,B|352:64|352:64|368:96|320:144|304:128,1,140,0|2
384,224,20782,1,2
384,224,21014,6,0,B|336:224|336:224|320:256|288:272|256:272,1,140,0|2
144,272,21945,2,0,B|96:288|64:224|64:224|16:224,1,140,0|2
80,128,22875,1,0
176,192,23340,1,2
224,160,23573,2,0,B|272:208|320:208|352:208|384:192|416:176,2,210,2|2|2
112,208,25433,5,2
112,320,25898,1,2
224,344,26363,6,0,B|272:328|320:344|336:360|368:344,2,140,2|2|2
184,304,27526,1,2
176,192,27991,1,0
184,136,28224,2,0,B|208:112|240:96|288:96|320:120|344:160|352:184|344:192,1,210,0|2
400,272,29387,5,4
288,272,29852,1,0
176,272,30317,1,4
176,160,30782,2,0,B|176:64,2,70,0|2|4
280,112,31712,1,2
336,112,31945,1,2
312,160,32177,6,0,B|312:288|312:320,1,140,0|8
208,320,33108,2,0,B|208:160,1,140,0|8
208,128,33805,1,0
208,64,34038,1,0
320,64,34503,1,8
320,128,34735,1,0
320,176,34968,2,0,B|320:256,2,70,0|0|8
320,128,35666,1,0
320,64,35898,1,0
208,64,36363,5,8
144,160,36828,1,0
144,272,37294,2,0,B|64:272,2,70,8|0|0
256,272,38224,1,8
368,272,38689,1,0
368,272,38921,1,0
368,272,39154,1,8
368,272,39387,2,0,B|368:112,1,140
256,96,40317,2,2,B|256:256,1,140
208,240,41014,5,0
128,160,41480,1,8
208,80,41945,1,0
288,160,42410,2,0,B|368:160,2,70,8|0|0
256,192,43108,12,4,44735
256,64,45433,5,0
256,128,45666,2,0,B|256:240|256:240|224:256|224:336,1,210
288,320,46596,1,8
336,288,46828,1,0
368,240,47061,5,12
368,240,47294,2,0,B|368:144|352:128|320:80,1,140
337,105,47991,1,8
288,112,48224,1,0
240,112,48456,1,0
144,192,48921,5,8
144,192,49154,1,0
144,192,49387,2,0,B|144:304|144:304|176:336|240:352,1,210,0|8
288,352,50317,1,0
320,304,50549,1,0
304,256,50782,1,4
256,224,51014,6,0,B|256:304,2,70,0|8|0
256,160,51712,1,0
144,144,52177,1,8
144,240,52642,2,0,B|112:256|96:288|96:288|96:336|96:368,1,140,0|8
208,320,53573,1,0
320,320,54038,1,8
320,208,54503,5,4
320,208,54735,2,0,B|416:208,2,70
256,208,55433,1,8
256,96,55898,1,0
160,144,56363,2,0,B|64:144,3,70,8|0|0|0
144,240,57526,6,0,B|144:336|224:352,1,140,8|0
320,336,58456,1,8
320,336,58689,1,0
320,336,58921,2,0,B|384:320|400:288|416:256|416:224,1,140,8|0
416,192,59619,5,0
416,192,59852,2,0,B|272:192,1,140,0|8
208,112,60782,5,0
208,160,61014,2,0,B|208:240,3,70,8|0|2|0
208,288,61945,5,4
320,288,62410,1,8
256,192,62875,2,0,B|256:48,1,140,0|8
208,80,63573,1,0
160,112,63805,1,0
160,224,64270,2,0,B|160:336|176:352|192:368,1,140,8|0
256,272,65201,1,8
256,160,65666,6,0,B|272:128|304:80|336:48|368:32,1,140,0|8
256,160,66596,2,0,B|240:128|208:80|176:48|144:32,1,140,0|8
256,160,67526,1,0
256,272,67991,1,8
256,336,68224,5,0
208,336,68456,2,0,B|128:336,1,70
80,336,68921,1,8
80,288,69154,2,0,B|96:192|48:128,1,140
112,176,69852,2,0,B|112:96|144:32|160:32,1,140,8|0
192,80,70549,1,0
208,128,70782,5,8
208,240,71247,1,0
272,336,71712,1,8
336,240,72177,2,0,B|336:96,2,140,0|8|0
336,304,73340,5,0
224,304,73805,1,2
176,208,74270,1,0
288,208,74735,2,0,B|288:144|288:144|256:112|240:80,1,140,2|4
288,208,75666,2,0,B|288:144|288:144|320:112|336:80,1,140,2|4
288,64,76363,1,0
240,32,76596,1,0
144,64,77061,6,0,B|144:224,1,140,0|4
256,224,77991,2,0,B|256:80,1,140,0|4
368,96,78921,2,0,B|368:240,1,140,0|4
432,240,79619,1,0
480,224,79852,2,0,B|480:64,1,140,0|4
432,80,80549,1,0
384,80,80782,6,0,B|384:144|384:144|432:192|416:224,1,140,0|4
320,160,81712,2,0,B|320:224|320:224|272:272|288:304,1,140,0|4
208,208,82642,1,0
208,96,83108,1,4
160,112,83340,1,0
112,144,83573,2,0,B|112:256|112:368,1,210,0|4
336,320,85201,5,0
336,320,85433,1,0
336,320,85666,1,0
336,320,85898,2,0,B|336:176,1,140
256,192,86828,12,0,87991
256,80,88456,5,8
144,112,88921,2,0,B|144:176|144:176|176:208|176:256,2,140,0|8|0
96,208,90317,1,8
96,320,90782,1,0
208,320,91247,1,8
288,240,91712,6,0,B|384:240|384:240|416:224|416:208,1,140,0|8
288,288,92642,2,0,B|384:288|384:288|416:304|416:320,1,140,0|8
512,256,93573,1,0
416,192,94038,1,8
320,128,94503,6,0,B|288:64|224:48|160:64|112:64|96:96|80:128,2,280,0|8|0
272,160,96596,1,0
224,192,96828,1,8
224,240,97061,1,0
240,288,97294,1,0
352,304,97759,2,0,B|432:304|432:304|448:272|464:240,1,140,8|0
336,208,98689,1,8
288,208,98921,5,2
240,208,99154,1,0
128,208,99619,1,0
288,64,100549,1,8
320,288,101480,1,0
208,288,101945,1,8
96,288,102410,1,0
160,192,102875,6,0,B|160:128|192:96|224:64|272:32|368:96,1,280,8|0
304,304,104735,1,2
192,304,105201,1,0
80,304,105666,1,2
80,192,106131,1,2
80,144,106363,1,0
80,96,106596,2,0,B|192:96|192:96|272:192,1,210,0|2
224,256,107759,6,0,B|128:256,2,70,0|2|0
272,256,108456,1,2
272,144,108921,1,0
368,208,109387,1,2
368,96,109852,1,0
320,112,110084,1,0
272,144,110317,2,2,B|256:128|256:128|240:144|240:144|224:128|224:128|208:144|208:144|192:128|192:128|176:144|176:144|160:128|160:128|144:144|144:144|128:128|128:128|112:144|112:144|96:128|96:128|64:160,1,280
240,304,112177,5,2
400,144,113108,1,2
352,144,113340,1,0
192,48,114038,1,6
112,128,114503,1,0
80,176,114735,2,4,B|80:320,1,140
128,304,115433,1,0
176,272,115666,1,4
256,192,116131,12,2,117759
256,64,118456,5,0
256,64,118689,1,0
256,64,118921,1,0
256,64,119154,2,0,B|240:80|240:80|272:96|272:96|240:112|240:112|272:128|272:128|240:144|240:144|272:160|272:160|240:176|240:176|272:192|272:192|240:208|240:208|272:224|272:224|256:240|256:240|256:320,1,420
144,304,121014,6,0,B|144:208,1,70,0|2
64,160,121712,1,0
128,64,122177,1,2
208,144,122642,1,4
240,96,122875,1,0
272,48,123108,1,6
336,144,123573,6,0,B|336:240,2,70,0|0|2
240,96,124503,2,0,B|144:96,2,70,0|0|2
352,96,125433,1,4
256,192,125898,12,0,127061
256,80,127526,6,0,B|256:224,1,140,8|0
176,144,128456,2,0,B|176:288,1,140,8|0
256,208,129387,2,0,B|256:64,1,140,8|0
304,96,130084,1,0
352,112,130317,2,0,B|352:256,1,140,8|0
256,192,131247,1,8
176,112,131712,1,0
96,192,132177,1,8
192,240,132642,6,0,B|256:240|256:240|288:272|336:256,1,140,0|8
320,144,133573,2,0,B|368:160|400:112|400:112|464:112,1,140,0|8
416,64,134270,1,0
352,48,134503,5,4
240,48,134968,1,8
288,144,135433,1,4
288,256,135898,1,8
192,208,136363,1,4
112,128,136828,1,8
64,224,137294,2,0,B|64:304,2,70
112,256,137991,1,0
112,320,138224,5,4
224,336,138689,1,8
224,224,139154,2,0,B|224:144|224:144|256:112|288:96,1,140,4|8
224,224,140084,2,0,B|144:224|144:224|96:176,1,140,4|8
224,224,141014,2,0,B|320:224|320:224|336:208|352:176,1,140,6|8
224,224,141945,1,6
336,80,142875,5,0
336,240,143573,1,4
336,240,144038,1,0
224,240,144503,5,2
176,240,144735,2,0,B|96:240,2,70,0|2|0
256,192,145433,12,0,146596
