osu file format v5

[General]
AudioFilename: Yokuderu2000.mp3
AudioLeadIn: 0
PreviewTime: -1
Countdown: 1
SampleSet: None
StackLeniency: 0.7
Mode: 0
LetterboxInBreaks: 1

[Metadata]
Title:Yokuderu2000
Artist:Namco
Creator:rafas287
Version:Oni
Source:
Tags:

[Difficulty]
HPDrainRate:5
CircleSize:6
OverallDifficulty:6
SliderMultiplier:1.7
SliderTickRate:1

[Events]
//Background and Video events
//Break Periods
//Storyboard Layer 0 (Background)
//Storyboard Layer 1 (Failing)
//Storyboard Layer 2 (Passing)
//Storyboard Layer 3 (Foreground)
//Storyboard Sound Samples
//Background Colour Transformations
3,100,163,162,255

[TimingPoints]
4600,272.727272727273,4,0,0,100,1

[HitObjects]
96,96,2409,1,0
192,96,2725,1,0
288,96,3076,1,0
384,96,3362,1,0
384,160,4409,1,0
256,192,4885,1,0
128,160,5361,1,0
192,160,6543,1,0
160,128,6713,1,0
160,96,6884,1,0
192,64,7054,1,0
224,64,7225,1,0
192,128,7600,5,2
192,128,7924,1,2
256,192,8452,5,0
288,192,8622,1,0
320,160,8793,1,0
320,128,8963,1,0
288,96,9134,1,0
256,128,9509,5,2
256,128,9833,1,2
96,64,10156,5,0
192,64,10442,1,0
288,64,10727,1,0
384,64,11013,1,0
384,160,12100,1,0
288,160,12577,1,0
288,160,12747,1,0
192,160,13100,1,0
256,192,14037,1,0
320,192,14323,1,0
384,192,14608,1,0
384,128,14894,1,0
320,128,15287,5,2
320,128,15440,1,2
320,128,15577,1,2
256,128,15953,5,0
192,128,16239,5,2
192,128,16395,1,2
192,128,16531,1,2
128,128,16906,5,0
192,224,17537,1,0
224,224,17633,1,0
256,224,17730,1,0
288,224,17825,1,0
288,192,17921,5,2
256,192,18018,1,2
224,192,18114,1,2
192,192,18210,1,2
238,164,18306,5,0
416,256,18781,1,0
480,256,19293,5,2
447,211,19497,1,2
352,256,19770,5,0
352,224,19873,1,0
352,192,19975,1,0
352,160,20077,1,0
147,268,20725,1,0
182,227,21237,5,2
216,269,21441,1,2
288,288,21713,5,0
288,256,21816,1,0
288,224,21918,1,0
288,192,22020,1,0
192,32,22702,1,0
228,72,23214,5,2
262,31,23418,1,2
320,32,23690,5,0
320,64,23793,1,0
320,96,23895,1,0
320,128,23997,1,0
448,128,24337,1,0
448,96,24440,1,0
448,64,24543,1,0
448,32,24645,1,0
352,160,25156,5,2
416,160,25327,1,2
448,288,25634,5,0
416,288,25736,1,0
384,288,25838,1,0
352,288,25940,1,0
288,288,26111,1,0
288,288,26281,1,0
160,288,26622,1,0
160,192,26963,1,0
192,160,27134,5,2
224,192,27270,1,2
288,192,27577,5,0
320,160,27679,1,0
352,128,27781,1,0
384,96,27884,1,0
416,160,28054,1,0
416,192,28225,1,0
416,288,28565,1,0
320,288,29077,5,2
320,224,29247,1,2
128,64,29554,5,0
160,96,29656,1,0
192,128,29758,1,0
224,160,29861,1,0
320,129,30031,1,0
320,160,30202,1,0
320,192,30372,1,0
320,224,30543,1,0
320,288,30850,5,2
320,224,31020,1,2
256,64,31361,5,0
214,127,31634,1,0
261,125,31736,1,0
309,125,31838,1,0
214,181,32009,1,0
261,179,32111,1,0
309,179,32213,1,0
160,256,32520,2,0,B|192:282|259:296|339:271|349:263|349:263,3,191.25
241,307,33474,5,2
273,307,33577,1,2
224,352,33679,5,0
256,352,33781,1,0
288,352,33883,1,0
64,64,34327,1,0
64,96,34498,5,2
160,96,34668,5,0
128,128,34770,1,0
96,160,34872,1,0
192,192,35043,5,2
192,224,35213,1,2
288,256,35384,5,0
256,192,35554,5,0
384,288,35725,1,2
416,256,35827,1,2
352,320,35929,5,0
448,160,36100,1,0
416,160,36202,1,0
384,160,36304,1,0
320,160,36475,1,0
288,160,36645,5,2
224,160,36816,5,0
192,160,36918,1,0
160,160,37020,1,0
256,192,37190,5,2
96,160,37361,1,2
32,160,37531,5,0
211,253,37668,5,2
243,253,37737,1,2
275,253,37805,1,2
307,253,37873,1,2
192,288,37941,5,0
224,288,38009,1,0
256,288,38077,1,0
288,288,38146,1,0
320,288,38213,1,0
416,288,38384,5,2
416,224,38554,5,0
416,192,38657,1,0
416,160,38759,1,0
352,128,38929,5,2
320,96,39100,1,2
256,96,39270,5,0
192,128,39441,5,2
160,192,39611,5,0
180,221,39951,1,0
202,177,40020,1,0
229,225,40088,5,2
251,181,40156,1,2
276,220,40223,5,0
296,175,40292,1,0
320,224,40360,5,2
344,181,40429,1,2
367,217,40497,5,0
148,317,40838,1,0
170,273,40907,1,0
197,321,40975,5,2
219,277,41043,1,2
244,316,41110,5,0
264,271,41179,1,0
288,320,41247,5,2
312,277,41316,1,2
335,313,41384,5,0
64,64,41725,1,0
64,96,41896,5,2
160,96,42066,5,0
128,128,42168,1,0
96,160,42270,1,0
192,192,42441,5,2
192,224,42611,1,2
288,256,42782,5,0
256,192,42952,5,0
384,288,43123,1,2
416,256,43225,1,2
352,320,43327,5,0
448,160,43498,1,0
416,160,43600,1,0
384,160,43702,1,0
320,160,43873,1,0
288,160,44043,5,2
224,160,44214,5,0
192,160,44316,1,0
160,160,44418,1,0
256,192,44588,5,2
96,160,44759,1,2
32,160,44929,5,0
211,253,45168,5,2
243,253,45237,1,2
275,253,45305,1,2
307,253,45373,1,2
192,288,45441,5,0
224,288,45509,1,0
256,288,45577,1,0
288,288,45646,1,0
320,288,45713,1,0
256,192,45850,1,0
256,192,45953,1,0
256,192,46055,1,0
256,192,46225,5,2
256,192,46396,1,2
256,192,46566,5,0
256,192,46737,5,2
256,192,46907,5,0
64,64,47452,1,0
96,96,47622,5,2
160,96,47860,5,0
192,96,47929,1,0
224,96,47997,1,0
256,128,48065,5,2
288,128,48133,1,2
320,128,48201,1,2
352,160,48270,5,0
384,160,48338,1,0
416,160,48406,1,0
416,224,48577,5,2
448,256,48747,5,4
384,288,48918,5,2
416,320,49088,5,4
128,192,49770,1,0
256,96,50690,1,0
384,192,51577,1,0
160,96,52531,1,0
224,96,52702,1,0
256,96,52804,1,0
288,96,52906,1,0
256,160,53077,5,2
256,224,53247,1,2
256,288,53418,1,2
384,96,53588,5,0
384,160,53759,1,0
384,192,53861,1,0
384,224,53963,1,0
384,288,54134,5,2
352,288,54236,1,2
320,288,54338,1,2
256,288,54509,1,2
128,128,54679,5,0
128,192,54850,1,0
128,224,54952,1,0
128,256,55054,1,0
256,192,55225,5,2
256,192,55395,1,2
256,192,55566,1,2
256,128,55736,5,0
64,64,56043,5,2
128,64,56111,1,2
192,64,56179,1,2
256,64,56247,1,2
320,64,56315,5,0
384,64,56384,1,0
448,64,56452,1,0
256,192,56588,1,4
160,192,56895,1,4
256,192,57236,1,4
352,192,57543,1,0
160,320,57884,5,2
192,320,57952,1,2
224,320,58020,1,2
256,320,58088,1,2
288,288,58156,5,0
320,288,58225,1,0
352,288,58293,1,0
384,288,58429,1,4
448,256,58736,1,4
448,192,59077,1,4
448,128,59384,1,0
384,64,59725,5,2
384,64,59793,1,2
384,64,59861,1,2
384,64,59929,1,2
320,64,59998,5,0
320,64,60066,1,0
320,64,60134,1,0
320,64,60202,1,0
320,64,60270,1,0
192,64,60440,1,0
160,96,60543,1,0
128,128,60645,1,0
160,192,60815,5,2
192,224,60985,1,2
224,256,61156,1,2
320,192,61326,5,0
384,192,61497,1,0
416,192,61599,1,0
448,192,61701,1,0
352,256,61872,5,2
384,256,61974,1,2
416,256,62076,1,2
480,256,62247,1,2
416,320,62417,5,0
352,320,62588,1,0
320,320,62690,1,0
288,320,62792,1,0
224,256,62963,5,2
224,192,63133,1,2
224,128,63304,1,2
288,128,63474,5,0
352,128,63747,1,0
416,128,64020,1,0
480,128,64293,1,0
480,64,64531,5,2
416,64,64736,1,2
384,64,64838,1,2
352,64,64940,1,2
256,64,65213,5,0
192,64,65486,5,2
128,64,65691,1,2
96,64,65793,1,2
64,64,65895,1,2
96,160,66201,5,0
96,192,66269,1,0
96,224,66338,1,0
160,192,66509,5,2
224,160,66678,5,0
224,192,66746,1,0
224,224,66815,1,0
288,192,66986,5,2
352,128,67157,5,0
352,160,67225,1,0
352,192,67293,1,0
352,224,67361,1,0
352,256,67429,1,0
352,288,67498,1,0
448,192,67872,5,2
384,192,68213,5,0
320,160,68656,1,0
320,224,68827,1,0
256,192,69134,1,0
192,192,69406,5,2
128,224,69713,5,0
128,160,69918,5,2
64,192,70088,5,0
64,96,70497,1,0
64,96,70668,1,0
128,96,71009,1,0
224,96,71622,1,0
288,96,71997,1,0
352,96,72440,1,0
384,96,72577,1,0
448,96,72918,1,0
448,160,73293,5,2
384,160,73634,5,0
352,160,73804,5,2
320,160,73975,5,0
256,160,74486,1,0
256,160,74622,1,0
192,160,74929,1,0
32,128,75440,1,0
32,160,75543,1,0
32,192,75645,1,0
70,150,75747,1,0
69,175,75850,1,0
160,160,76020,1,0
224,160,76191,5,2
160,160,76361,5,0
160,160,76532,1,0
224,160,76702,5,2
160,160,76872,5,0
160,160,77043,1,0
224,160,77213,5,2
224,160,77384,1,2
160,160,77554,5,0
160,160,77725,1,0
160,160,77895,1,0
160,160,78065,1,0
224,160,78236,5,2
160,160,78406,5,0
160,160,78577,1,0
224,160,78747,5,2
160,160,78918,5,0
160,160,79089,1,0
224,160,79259,5,2
224,160,79429,1,2
160,160,79599,5,0
160,160,79770,1,0
160,160,79940,1,0
160,160,80111,1,0
160,160,80281,1,0
160,160,80452,1,0
160,160,80622,1,0
160,160,80793,1,0
160,160,80793,1,0
160,160,80895,1,0
320,96,80997,1,0
320,96,81100,1,0
224,96,81202,1,0
224,96,81304,1,0
224,96,81406,1,0
128,96,81508,1,0
128,96,81610,1,0
96,160,81781,2,0,B|192:256|320:224|384:160,2,318.75
256,192,83690,1,0
256,192,83861,1,0
214,127,84032,1,0
261,125,84134,1,0
309,125,84236,1,0
256,192,84406,5,2
256,192,84577,1,2
257,266,84747,5,0
257,266,84918,1,0
209,320,85089,1,0
256,318,85191,1,0
304,318,85293,1,0
214,127,85463,1,0
261,125,85565,1,0
309,125,85667,1,0
352,192,85838,1,0
352,192,86009,1,0
256,192,86179,5,2
160,192,86350,1,2
160,256,86520,5,0
352,256,86691,1,0
81,66,86862,5,2
128,64,86964,1,2
176,64,87066,1,2
224,64,87168,5,0
256,64,87270,1,0
288,64,87373,1,0
320,64,87475,1,0
96,128,87645,1,0
96,192,87816,1,0
96,256,87987,1,0
143,254,88089,1,0
191,254,88191,1,0
256,256,88361,5,2
256,256,88497,1,2
320,256,88634,5,0
320,256,88770,5,2
384,256,88906,5,0
224,192,89213,1,0
288,192,89383,5,2
160,192,89553,5,0
128,160,89622,1,0
129,111,89690,1,0
162,75,89759,1,0
207,62,89827,5,2
255,60,89895,1,2
297,83,89963,1,2
325,117,90032,1,2
339,160,90100,5,0
317,222,90270,5,2
289,274,90440,5,0
263,305,90509,1,0
238,326,90577,1,0
197,330,90646,1,0
158,324,90714,5,2
120,297,90782,1,2
82,269,90850,1,2
54,229,90919,1,2
41,183,90987,5,0
120,66,91156,5,0
149,99,91327,5,0
186,132,91498,1,0
219,160,91669,1,0
255,196,91771,1,0
291,232,91873,1,0
320,263,92043,5,2
350,292,92213,1,2
256,192,92384,5,0
256,192,92555,1,0
214,127,92726,1,0
261,125,92828,1,0
309,125,92930,1,0
172,248,93100,1,0
212,278,93202,1,0
254,302,93304,1,0
297,278,93475,1,0
336,257,93646,1,0
256,231,93816,5,2
256,192,93987,1,2
256,192,94157,5,0
256,192,94328,1,0
214,127,94499,5,2
261,125,94601,1,2
309,125,94703,1,2
214,127,94805,5,0
261,125,94907,1,0
214,127,95010,1,0
261,125,95112,1,0
256,192,95282,1,0
256,192,95453,1,0
214,127,95624,1,0
261,125,95726,1,0
309,125,95828,1,0
180,269,95998,5,2
230,270,96134,1,2
265,304,96271,5,0
295,266,96406,5,2
325,300,96543,5,0
256,192,96850,1,0
256,192,97020,5,2
160,96,97190,5,0
192,96,97259,1,0
224,128,97327,5,2
256,96,97396,5,0
288,96,97463,1,2
320,128,97532,5,2
352,96,97600,5,0
384,96,97669,1,0
320,128,97736,5,2
352,96,97804,5,0
384,96,97873,1,0
416,160,98009,1,4
416,192,98145,5,2
416,224,98282,5,0
160,288,98759,5,2
256,288,98828,1,2
352,288,98896,1,2
352,288,99032,5,0
352,224,99543,5,2
352,224,99713,1,2
160,224,100054,1,2
96,160,100600,5,0
96,128,100770,5,2
192,160,100940,5,0
224,128,101043,5,2
256,96,101145,1,2
320,192,101316,5,0
352,224,101486,5,2
320,288,101656,5,0
288,256,101826,5,2
288,288,101997,5,0
256,256,102100,5,2
256,288,102202,5,0
224,256,102305,5,2
224,288,102407,5,0
192,256,102509,5,2
192,288,102611,1,2
128,160,102782,5,0
160,128,102952,5,2
224,128,103122,5,0
256,128,103225,5,2
256,128,103327,1,2
320,128,103498,5,0
352,160,103668,5,2
352,256,103838,5,0
320,288,104009,5,2
256,288,104179,5,0
192,288,104350,1,0
128,288,104520,1,0
64,288,104691,5,2
64,64,104861,5,0
128,64,104963,1,0
192,64,105066,5,2
256,64,105168,5,0
320,64,105270,1,0
384,64,105373,1,0
448,64,105475,5,2
256,128,105645,5,2
256,192,105816,5,2
448,288,105986,5,0
384,288,106088,1,0
320,288,106191,5,2
256,288,106293,5,0
192,288,106395,1,0
128,288,106498,1,0
64,288,106600,5,2
224,64,106770,5,0
288,64,106941,5,2
288,128,107111,5,0
224,128,107282,5,2
96,64,107452,5,0
128,96,107554,5,2
160,128,107657,5,0
352,160,107827,1,0
320,192,107929,1,0
384,128,108032,1,0
128,192,108202,1,0
224,256,108373,5,2
288,256,108543,5,0
416,192,108713,5,2
256,320,108884,5,0
256,96,109054,5,2
256,160,109157,5,0
128,288,109327,1,0
224,288,109497,5,2
320,288,109668,5,0
416,288,109838,5,2
128,96,110009,5,0
96,160,110112,5,2
96,224,110214,5,0
160,256,110317,5,2
224,256,110419,5,0
288,224,110521,5,2
320,160,110623,1,2
288,128,110793,5,0
288,96,110895,1,0
320,64,110997,5,2
352,64,111134,5,0
384,64,111236,1,0
416,96,111338,5,2
416,128,111475,5,0
416,160,111577,1,0
384,192,111679,5,2
352,224,111815,5,0
352,256,111917,1,0
352,288,112019,5,2
352,352,112157,5,0
224,352,112259,1,0
224,288,112361,5,2
224,256,112463,5,0
224,224,112565,1,0
224,192,112667,5,2
224,160,112770,1,2
224,128,112873,5,0
224,96,112975,1,0
224,64,113077,5,2
128,64,113179,5,0
128,96,113281,1,0
128,128,113383,1,0
128,160,113485,5,2
128,192,113588,1,2
128,224,113690,5,0
128,256,113792,1,0
128,288,113894,5,2
128,320,113996,5,0
128,352,114098,1,0
192,128,114611,1,4
256,192,114918,5,2
320,128,115225,5,4
384,192,115532,5,2
448,128,115838,5,4
