osu file format v6

[General]
AudioFilename: 01-MainThemeOriginal.mp3
AudioLeadIn: 0
PreviewTime: -1
Countdown: 1
SampleSet: Soft
StackLeniency: 0.7
Mode: 0
LetterboxInBreaks: 1

[Editor]
Bookmarks: 36281,40281
DistanceSpacing: 0.800000011920929
BeatDivisor: 4
GridSize: 16

[Metadata]
Title:Starfox Assault Intro
Artist:Namco
Creator:Mifune24
Version:Hard
Source:
Tags:

[Difficulty]
HPDrainRate:6
CircleSize:5
OverallDifficulty:8
SliderMultiplier:2.4
SliderTickRate:1

[Events]
//Background and Video events
0,0,"starfoxassault2.jpg"
//Break Periods
//Storyboard Layer 0 (Background)
//Storyboard Layer 1 (Fail)
//Storyboard Layer 2 (Pass)
//Storyboard Layer 3 (Foreground)
//Storyboard Sound Samples
//Background Colour Transformations
3,100,163,162,255

[TimingPoints]
4281.69111570248,500,4,2,0,100,1,0

[HitObjects]
32,288,4281,5,0
112,352,4531,1,0
112,352,4656,1,0
112,352,4781,1,0
192,288,5031,1,0
112,224,5281,1,0
32,288,5531,1,0
112,352,5781,2,0,B|240:352,1,120
336,352,6281,5,0
256,288,6531,1,0
256,288,6656,1,0
256,288,6781,1,0
336,224,7031,1,0
416,288,7281,1,0
336,352,7531,1,0
256,288,7781,2,0,B|256:160,1,120
256,64,8281,5,0
176,112,8531,1,0
176,112,8656,1,0
176,112,8781,1,0
96,64,9031,1,0
96,160,9281,2,0,B|96:288,2,120
96,64,10031,1,0
96,64,10156,1,0
96,64,10281,2,0,B|240:64,1,120
304,64,10781,1,0
304,160,11031,5,0
384,224,11281,1,0
304,288,11531,1,0
224,224,11781,1,2
144,160,12031,1,2
64,224,12281,1,2
144,288,12531,1,2
144,288,12656,1,2
144,288,12781,2,2,B|256:384,1,120
336,368,13281,2,2,B|432:272,1,120
496,224,13781,1,2
432,160,14031,1,2
368,224,14281,2,2,B|272:224|256:144|304:80|384:96,1,240
464,96,15031,1,2
464,96,15156,1,2
464,96,15281,1,2
368,96,15531,5,2
288,160,15781,1,4
208,224,16031,1,0
288,160,16281,1,0
208,96,16531,1,0
208,96,16656,1,0
208,96,16781,1,0
128,160,17031,1,0
48,96,17281,2,0,B|16:160|48:224,1,120
64,304,17781,1,0
160,304,18031,1,0
160,304,18156,1,0
160,304,18281,2,0,B|284:375|365:250|353:216,2,240
224,224,19531,1,0
295,168,19781,5,2
227,100,20031,1,2
295,32,20281,1,2
363,100,20531,1,2
363,100,20656,1,2
363,100,20781,1,2
431,32,21031,1,2
499,100,21281,1,2
431,32,21531,1,2
363,100,21781,1,2
363,100,21906,1,0
363,100,22031,2,0,B|271:103|281:184,1,120
280,262,22531,1,0
280,262,22656,1,0
280,262,22781,2,0,B|281:336|206:373|123:338|133:247,2,240
211,194,24031,1,0
279,126,24281,5,0
211,58,24531,1,0
211,58,24656,1,0
211,58,24781,1,0
144,126,25031,1,0
211,194,25281,2,0,B|305:290,1,120
363,348,25781,1,0
431,280,26031,1,0
431,280,26156,1,0
431,280,26281,2,0,B|429:141,2,120
335,280,27031,1,0
267,212,27281,1,0
335,144,27531,1,0
402,212,27781,5,2
335,144,28031,1,2
267,212,28281,1,2
199,144,28531,1,2
199,144,28656,1,2
199,144,28781,1,2
267,212,29031,2,2,B|267:356,1,120
266,212,29531,1,2
199,144,29781,1,2
199,144,29906,1,2
199,144,30031,2,2,B|199:16,2,120
199,240,30781,2,2,B|199:320|311:352|375:288|359:192,1,240
368,144,31531,5,2
432,224,31781,1,4
496,144,32031,1,0
432,64,32281,1,0
368,144,32531,1,0
368,144,32656,1,0
368,144,32781,1,0
304,64,33031,1,0
240,144,33281,2,0,B|112:144,1,120
32,144,33781,2,0,B|32:272,1,120
32,352,34281,2,0,B|160:352,1,120
240,352,34781,2,0,B|240:208,1,120
240,144,35281,2,0,B|304:192|336:48|416:32|400:192,1,240
400,256,36031,1,0
400,352,36281,6,0,B|320:288|256:384|192:336|176:272,1,240,4|0
144,208,37031,1,0
128,112,37281,2,0,B|176:32|272:192|352:128,1,240
416,80,38031,1,0
448,176,38281,2,0,B|480:272|384:336|272:256,1,240
224,224,39031,1,0
176,144,39281,2,0,B|128:64|32:96|64:256,1,240
80,336,40031,1,0
144,256,40281,5,2
208,336,40531,1,2
208,336,40656,1,2
208,336,40781,1,2
272,256,41031,1,2
208,176,41281,1,2
144,256,41531,1,2
208,176,41781,1,2
272,96,42031,1,2
272,96,42156,1,2
272,96,42281,2,2,B|368:96|352:192,1,120
352,256,42781,2,2,B|432:256|432:176,1,120
336,144,43281,1,2
432,112,43531,1,2
336,80,43781,5,2
432,64,44031,2,2,B|496:64|512:112|464:176,1,120
448,224,44531,1,2
448,224,44656,1,2
448,224,44781,1,2
352,224,45031,2,2,B|352:352,1,120
354,223,45531,1,2
352,128,45781,1,2
352,128,45906,1,2
352,128,46031,2,2,B|352:48|256:64,1,120
272,160,46531,2,2,B|272:240|192:240,1,120
112,240,47031,1,2
112,240,47156,1,2
112,240,47281,2,2,B|112:320|208:320,1,120
240,240,47781,1,2
288,320,48031,1,6
240,240,48281,5,2
240,240,48406,1,2
240,240,48531,1,2
32,128,49156,1,2
32,128,49281,1,2
32,128,49406,1,2
32,272,49781,1,2
32,272,49906,1,2
32,272,50031,1,2
32,272,50156,1,2
32,272,50281,1,2
32,272,50406,1,2
256,192,50531,12,4,54906
