osu file format v9

[General]
AudioFilename: Hello!Halloween.mp3
AudioLeadIn: 0
PreviewTime: 47960
Countdown: 1
SampleSet: Normal
StackLeniency: 0.7
Mode: 0
LetterboxInBreaks: 1
SkinPreference:taiko

[Editor]
Bookmarks: 48769,62147,75289,77200,86589,107105
DistanceSpacing: 0.8
BeatDivisor: 4
GridSize: 8

[Metadata]
Title:Hello! Halloween
Artist:Namco
Creator:Rikers
Version:Easy
Source:Taiko no Tatsujin Wii: Do Don to 2 Daime!
Tags:Taiko no Tatsujin Wii 2 Arcade 12

[Difficulty]
HPDrainRate:2
CircleSize:3
OverallDifficulty:1
ApproachRate:2
SliderMultiplier:1.4
SliderTickRate:2

[Events]
//Background and Video events
0,0,"osubg.jpg"
//Break Periods
2,40772,42594
2,60472,60952
2,69876,75280
2,106749,111045
//Storyboard Layer 0 (Background)
//Storyboard Layer 1 (Fail)
//Storyboard Layer 2 (Pass)
//Storyboard Layer 3 (Foreground)
//Storyboard Sound Samples
//Background Colour Transformations
3,100,214,254,223

[TimingPoints]
2065,447.761194029851,4,1,0,100,1,0
48632,-100,4,1,0,100,0,0
55348,447.761194029851,4,1,0,100,1,0
60721,-133.333333333333,4,1,0,100,0,0
62512,-100,4,1,0,100,0,0
85795,428.571428571429,4,1,0,100,1,0
86652,428.571428571429,4,1,0,100,1,0
93080,428.571428571429,4,1,0,100,1,1
93509,-100,4,1,0,100,0,1
98222,410.958904109589,4,1,0,100,1,1
98222,-133.333333333333,4,1,0,100,0,1
106441,-133.333333333333,4,1,0,100,0,0
112194,-133.333333333333,4,1,0,100,0,0
112400,-100,4,1,0,100,0,0

[Colours]
Combo1 : 100,208,198
Combo2 : 241,61,35

[HitObjects]
400,296,11020,1,0
320,224,11467,1,0
400,144,11915,2,0,B|240:144,1,140,0|8
184,64,12811,5,0
112,152,13259,1,0
192,232,13706,2,0,B|332:232,1,140,0|8
392,136,14602,5,0
464,224,15050,1,0
464,336,15497,2,0,B|320:336,1,140,0|8
264,240,16393,5,0
152,240,16841,1,0
152,128,17288,2,0,B|296:128,1,140,0|8
360,216,18184,6,0,B|516:216|516:216|516:336|516:336|372:336,1,420,0|8
256,336,19975,5,0
184,248,20423,1,0
272,176,20870,2,0,B|392:288,2,140,0|8|0
272,64,22214,2,0,B|412:64,1,140
416,176,23109,1,8
304,176,23557,5,0
192,176,24005,2,0,B|90:77,1,140,0|0
88,192,24900,1,8
160,280,25348,1,0
240,360,25796,1,8
320,280,26244,1,0
400,360,26691,1,8
472,280,27139,6,0,B|360:168,1,140,0|0
448,96,28035,1,8
240,184,28930,6,0,B|100:184,1,140
104,72,29826,1,8
328,72,30721,6,0,B|368:128|328:212,1,140
216,208,31617,1,8
152,296,32065,1,0
264,296,32512,2,0,B|432:296|432:296|432:176,1,280,0|0
368,88,33856,1,0
288,160,34303,6,0,B|224:200|144:152,1,140
224,72,35199,1,8
152,280,36094,6,0,B|216:256|304:280,1,140
224,368,36990,1,8
184,144,37885,2,0,B|110:116|110:116|46:140,1,140,0|0
136,216,38781,2,0,B|192:241|192:241|272:209,1,140,0|8
176,144,39676,2,0,B|239:117|239:117|303:149,1,140
304,152,40572,1,8
416,64,44154,6,0,B|416:208,1,140
408,320,45050,2,0,B|304:216,1,140,0|8
200,216,45945,2,0,B|96:320,1,140,0|8
216,312,46841,1,0
152,112,47736,1,4
256,80,48184,5,12
360,112,48632,1,0
256,80,49079,1,8
152,112,49527,1,0
120,216,49975,1,8
256,200,50423,6,0,B|424:200,1,140,0|8
312,280,51318,1,0
256,200,52214,6,8,B|256:40,1,140,0|8
344,128,53109,2,0,B|484:128,1,140,0|8
424,224,54005,1,0
496,304,54453,1,0
424,224,54900,1,8
312,216,55348,6,0,B|416:112,1,140,0|8
328,40,56243,2,0,B|216:152,1,140,0|8
312,216,57139,1,0
256,312,57586,1,8
192,216,58034,1,0
416,216,58930,6,0,B|416:64,1,140,0|8
304,72,59825,2,0,B|144:72,1,140,0|8
112,40,62512,6,0,B|32:96|112:184,1,140,0|8
192,104,63407,1,0
408,168,64303,6,0,B|456:96|408:24,1,140,0|8
328,104,65198,1,0
192,288,66094,6,0,B|256:336|328:280,1,140,0|8
256,200,66989,1,0
32,200,67885,5,0
144,200,68333,1,8
256,200,68780,1,8
368,200,69228,1,0
480,200,69676,1,0
256,192,76840,21,0
328,104,77288,1,8
400,192,77736,2,0,B|400:360,1,140,0|8
256,200,78631,5,0
256,312,79079,2,0,B|104:312|104:312|104:176,1,280,0|8
256,192,80422,5,0
328,104,80870,1,0
408,24,81318,1,0
328,104,81765,1,8
408,184,82213,6,0,B|408:336,1,140,0|8
304,272,83109,1,0
192,272,83556,1,8
144,152,84004,2,0,B|304:152|304:152|304:288,1,280
248,192,86652,5,0
432,64,87509,1,0
432,288,88366,1,0
320,288,88794,1,0
376,192,89223,1,0
264,192,89652,1,0
192,104,90080,6,0,B|24:104,1,140,0|8
120,192,90937,2,0,B|280:192,1,140,0|8
304,296,91794,1,0
192,296,92223,1,0
304,296,92652,1,8
416,296,93080,6,0,B|416:152,1,140,0|8
328,88,93937,2,0,B|328:256,1,140,0|8
248,304,94794,1,0
176,224,95222,1,0
112,128,95651,2,0,B|280:128,1,140
328,208,96508,5,0
400,120,96937,1,8
320,40,97365,1,0
400,120,97794,1,8
152,192,99043,6,0,B|264:192,1,104.999996870756
336,232,99865,1,0
400,288,100276,1,8
448,216,100687,1,0
400,152,101098,2,0,B|400:32,1,104.999996870756
320,56,101920,6,0,B|320:112,1,52.4999984353781,0|8
232,104,102537,2,0,B|232:51,1,52.4999984353781,0|8
152,48,103153,2,0,B|152:100,1,52.4999984353781,0|8
72,43,103769,2,0,B|72:96,1,52.4999984353781,0|8
72,184,104386,6,0,B|128:184,1,52.4999984353781,0|8
208,192,105002,2,0,B|272:192,1,52.4999984353781,0|8
344,192,105619,2,0,B|344:256,4,52.4999984353781
184,192,112605,6,0,B|344:192,1,140
