osu file format v14

[General]
AudioFilename: Namaste ft. Tiana Khasi - Signs.mp3
AudioLeadIn: 0
PreviewTime: 25499
Countdown: 0
SampleSet: Normal
StackLeniency: 0.7
Mode: 0
LetterboxInBreaks: 0
WidescreenStoryboard: 0

[Editor]
Bookmarks: 25588,35823,42529,53117,65117,104647,115941,121588,138529,141352,159705,163941,166235,178058,185117
DistanceSpacing: 1.5
BeatDivisor: 4
GridSize: 8
TimelineZoom: 1.9

[Metadata]
Title:Signs (Radio Edit)
TitleUnicode:Signs (Radio Edit)
Artist:Namaste ft. Tiana Khasi
ArtistUnicode:Namaste ft. Tiana Khasi
Creator:Xellie
Version:Insane
Source:
Tags:asphyxia moo-chan moochan DnB pishifat gero
BeatmapID:628747
BeatmapSetID:277479

[Difficulty]
HPDrainRate:7
CircleSize:4
OverallDifficulty:8
ApproachRate:9
SliderMultiplier:1.8
SliderTickRate:1

[Events]
//Background and Video events
0,0,"BG.jpg",0,0
//Break Periods
2,65317,75811
2,79435,87105
//Storyboard Layer 0 (Background)
//Storyboard Layer 1 (Fail)
//Storyboard Layer 2 (Pass)
//Storyboard Layer 3 (Foreground)
//Storyboard Sound Samples

[TimingPoints]
3000,352.941176470588,4,1,1,60,1,0
25588,-100,4,1,1,70,0,1
42529,-100,4,1,1,70,0,0
76411,-100,4,2,0,70,0,0
79235,-100,4,1,1,70,0,0
121588,-100,4,1,1,70,0,1
138529,-100,4,1,1,70,0,0
139941,-100,4,1,1,20,0,0
140294,-100,4,1,1,70,0,0
163941,-100,4,1,1,70,0,1
178058,-100,4,1,1,70,0,0
180970,-100,4,1,1,20,0,0

[Colours]
Combo1 : 128,64,64
Combo2 : 255,128,192
Combo3 : 0,128,192
Combo4 : 255,255,128

[HitObjects]
72,320,2999,6,0,P|118:326|169:309,1,90,4|0,0:0|0:0,0:0:0:0:
232,152,3352,1,0,0:0:0:0:
104,192,3529,1,0,0:0:0:0:
152,66,3705,2,0,P|105:57|57:67,1,90,2|0,0:0|0:0,0:0:0:0:
144,208,4058,1,0,0:0:0:0:
272,176,4235,1,2,0:0:0:0:
227,320,4411,6,0,P|267:328|331:312,1,90
359,174,4764,2,0,P|315:166|272:176,1,90
315,320,5117,1,8,0:0:0:0:
424,376,5294,1,0,0:0:0:0:
408,248,5470,1,0,0:0:0:0:
315,320,5647,1,0,0:0:0:0:
359,174,5823,6,0,P|320:151|276:151,1,90,4|0,0:0|0:0,0:0:0:0:
112,168,6176,1,0,0:0:0:0:
177,281,6352,1,0,0:0:0:0:
355,234,6529,2,0,L|363:145,1,90,2|0,0:0|0:0,0:0:0:0:
384,344,6882,2,0,P|341:352|301:334,1,90,0|2,0:0|0:0,0:0:0:0:
273,179,7235,6,0,P|242:140|204:121,1,90
112,168,7588,2,0,P|196:204|241:293,1,180,0|8,0:0|0:0,0:0:0:0:
102,307,8117,1,0,0:0:0:0:
112,168,8294,1,0,0:0:0:0:
239,278,8470,1,0,0:0:0:0:
399,295,8647,6,0,P|367:327|326:343,1,90,4|0,0:0|0:0,0:0:0:0:
160,240,8999,1,0,0:0:0:0:
200,368,9176,1,0,0:0:0:0:
304,232,9352,2,0,P|376:192|496:232,1,180,2|0,0:0|0:0,0:0:0:0:
376,104,9882,1,2,0:0:0:0:
256,24,10058,6,0,B|200:48|248:160|152:184,1,180
48,232,10588,1,0,0:0:0:0:
56,95,10764,2,0,P|100:95|142:110,1,90,8|0,0:0|0:0,0:0:0:0:
224,232,11117,1,0,0:0:0:0:
143,111,11294,1,0,0:0:0:0:
200,327,11470,6,0,P|245:327|300:290,1,90,4|0,0:0|0:0,0:0:0:0:
292,92,11823,2,0,L|332:212,1,90
496,304,12176,2,0,P|447:300|412:276,1,90,2|0,0:0|0:0,0:0:0:0:
328,200,12529,1,0,0:0:0:0:
256,296,12705,1,2,0:0:0:0:
166,228,12882,6,0,P|197:197|239:183,1,90
216,48,13235,2,0,P|147:103|58:108,1,180,0|8,0:0|0:0,0:0:0:0:
8,232,13764,1,0,0:0:0:0:
32,368,13941,1,0,0:0:0:0:
32,368,14117,1,0,0:0:0:0:
136,312,14294,6,0,P|216:256|192:176,1,180,2|0,0:0|0:0,0:0:0:0:
184,48,14823,1,2,0:0:0:0:
352,48,14999,2,0,P|277:89|286:174,1,180,2|0,0:0|0:0,0:0:0:0:
336,304,15529,1,0,0:0:0:0:
440,224,15705,6,0,L|360:128,1,90,2|0,0:0|0:0,0:0:0:0:
457,86,16058,2,0,P|352:56|288:112,1,180,2|8,0:0|0:0,0:0:0:0:
200,184,16588,1,0,0:0:0:0:
288,256,16764,2,0,P|312:208|304:160,1,90
96,280,17117,6,0,P|140:309|189:307,1,90,2|0,0:0|0:0,0:0:0:0:
200,184,17470,1,0,0:0:0:0:
288,288,17647,1,2,0:0:0:0:
368,176,17823,2,0,P|392:192|472:176,2,90,2|0|0,0:0|0:0|0:0,0:0:0:0:
304,56,18352,1,0,0:0:0:0:
256,304,18529,2,0,B|232:248|256:208|280:160|256:112,1,180,2|2,0:0|0:0,0:0:0:0:
128,128,19058,2,0,B|146:160|122:208|98:248|122:304,1,180
121,303,19588,1,0,0:0:0:0:
144,79,19941,5,0,0:0:0:0:
232,184,20117,1,0,0:0:0:0:
280,80,20294,1,8,0:0:0:0:
368,184,20470,1,0,0:0:0:0:
400,80,20646,1,0,0:0:0:0:
487,199,20823,1,0,0:0:0:0:
488,56,20999,1,8,0:0:0:0:
400,176,21176,1,0,0:0:0:0:
392,312,21352,5,0,0:0:0:0:
256,312,21529,1,0,0:0:0:0:
336,208,21705,1,8,0:0:0:0:
324,344,21882,1,0,0:0:0:0:
256,228,22058,1,0,0:0:0:0:
128,272,22235,1,0,0:0:0:0:
32,176,22411,1,8,0:0:0:0:
32,312,22588,1,0,0:0:0:0:
32,176,22764,5,0,0:0:0:0:
57,158,22852,1,0,0:0:0:0:
87,150,22941,1,0,0:0:0:0:
118,153,23029,1,0,0:0:0:0:
146,167,23117,1,8,0:0:0:0:
166,193,23205,1,0,0:0:0:0:
179,219,23294,1,0,0:0:0:0:
196,244,23382,1,0,0:0:0:0:
224,257,23470,1,0,0:0:0:0:
255,261,23558,1,0,0:0:0:0:
284,252,23647,1,0,0:0:0:0:
309,233,23735,1,0,0:0:0:0:
325,206,23823,1,8,0:0:0:0:
329,174,23911,1,0,0:0:0:0:
320,143,23999,1,0,0:0:0:0:
302,116,24088,1,0,0:0:0:0:
274,100,24176,5,0,0:0:0:0:
242,94,24264,1,0,0:0:0:0:
211,102,24352,1,0,0:0:0:0:
185,121,24441,1,0,0:0:0:0:
169,148,24529,1,8,0:0:0:0:
149,172,24617,1,0,0:0:0:0:
121,187,24705,1,0,0:0:0:0:
89,191,24794,1,0,0:0:0:0:
58,182,24882,1,0,0:0:0:0:
32,163,24970,1,0,0:0:0:0:
16,135,25058,1,0,0:0:0:0:
11,103,25147,1,0,0:0:0:0:
20,72,25235,1,4,0:0:0:0:
280,248,25588,6,0,P|296:280|352:304,1,90
384,184,25941,1,8,0:0:0:0:
264,352,26117,1,0,0:0:0:0:
173,201,26294,2,0,P|164:151|187:117,2,90,0|0|8,0:0|0:0|0:0,0:0:0:0:
384,184,26823,1,0,0:0:0:0:
216,56,26999,6,0,L|312:120,1,90
184,0,27352,2,0,L|272:56,1,90,8|0,0:0|0:0,0:0:0:0:
405,98,27705,2,0,P|403:142|384:183,1,90
320,304,28058,1,8,0:0:0:0:
312,120,28235,1,0,0:0:0:0:
224,224,28411,5,0,0:0:0:0:
128,128,28588,2,0,L|16:176,1,90,0|8,0:0|0:0,0:0:0:0:
104,40,28941,2,0,L|203:-3,1,90
128,128,29294,1,0,0:0:0:0:
144,152,29382,1,0,0:0:0:0:
168,168,29470,1,8,0:0:0:0:
280,240,29647,1,0,0:0:0:0:
432,80,29823,6,0,P|384:127|390:173,1,90,2|0,0:0|0:0,0:0:0:0:
368,168,30088,2,0,P|320:128|232:160,1,135,2|0,0:0|0:0,0:0:0:0:
108,306,30529,2,0,P|144:281|157:239,1,90,2|0,0:0|0:0,0:0:0:0:
172,218,30794,2,0,P|223:258|287:246,1,135,2|0,0:0|0:0,0:0:0:0:
304,112,31235,6,0,P|348:135|369:205,2,90,0|0|8,0:0|0:0|0:0,0:0:0:0:
152,96,31764,1,0,0:0:0:0:
64,168,31941,2,0,P|65:212|93:245,1,90
269,217,32294,2,0,L|258:128,1,90,8|0,0:0|0:0,0:0:0:0:
224,304,32647,6,0,P|277:309|317:285,1,90
296,280,32911,2,0,P|320:264|336:192,1,90
336,176,33176,1,0,0:0:0:0:
448,184,33352,2,0,L|472:96,2,90,0|0|8,0:0|0:0|0:0,0:0:0:0:
416,312,33882,1,0,0:0:0:0:
352,184,34058,5,0,0:0:0:0:
400,56,34235,1,0,0:0:0:0:
352,185,34411,2,0,P|330:145|294:121,1,90,8|0,0:0|0:0,0:0:0:0:
226,250,34764,2,0,P|192:279|178:321,1,90
309,357,35117,2,0,P|345:330|363:280,1,90,8|0,0:0|0:0,0:0:0:0:
505,36,35470,6,0,L|497:156,1,90,2|0,0:0|0:0,0:0:0:0:
457,100,35735,2,0,L|481:204,1,90,2|0,0:0|0:0,0:0:0:0:
481,220,35999,1,2,0:0:0:0:
275,313,36176,2,0,P|319:316|361:300,1,90
296,168,36529,2,0,P|251:164|209:180,1,90,8|0,0:0|0:0,0:0:0:0:
72,216,36882,5,0,0:0:0:0:
16,80,37058,1,0,0:0:0:0:
210,180,37235,1,8,0:0:0:0:
272,56,37411,2,0,P|301:89|343:106,1,90
456,32,37764,1,0,0:0:0:0:
464,168,37941,1,8,0:0:0:0:
352,256,38117,1,0,0:0:0:0:
224,208,38294,6,0,P|168:208|120:160,1,90
272,184,38647,2,0,P|216:184|168:136,1,90,8|0,0:0|0:0,0:0:0:0:
288,32,38999,2,0,L|240:120,1,90
128,176,39352,1,8,0:0:0:0:
245,111,39529,1,0,0:0:0:0:
232,248,39705,5,0,0:0:0:0:
50,116,39882,2,0,P|90:84|162:84,1,90,0|8,0:0|0:0,0:0:0:0:
256,112,40235,1,0,0:0:0:0:
280,128,40323,1,0,0:0:0:0:
296,152,40411,1,0,0:0:0:0:
104,312,40588,1,0,0:0:0:0:
8,216,40764,2,0,P|43:172|84:160,1,90,8|0,0:0|0:0,0:0:0:0:
200,200,41117,6,0,L|266:272,1,90,2|0,0:0|0:0,0:0:0:0:
288,288,41382,2,0,P|345:255|411:263,1,135,2|0,0:0|0:0,0:0:0:0:
432,168,41823,2,0,L|366:96,1,90,2|0,0:0|0:0,0:0:0:0:
344,80,42088,2,0,P|286:112|220:104,1,135,2|0,0:0|0:0,0:0:0:0:
267,17,42529,5,0,0:0:0:0:
264,288,42882,1,8,0:0:0:0:
344,32,43235,1,0,0:0:0:0:
195,257,43588,1,8,0:0:0:0:
408,88,43941,5,0,0:0:0:0:
320,192,44117,1,0,0:0:0:0:
272,64,44294,1,8,0:0:0:0:
249,42,44382,1,0,0:0:0:0:
219,31,44470,1,0,0:0:0:0:
187,31,44558,1,0,0:0:0:0:
158,45,44647,1,0,0:0:0:0:
136,67,44735,1,0,0:0:0:0:
125,96,44823,1,0,0:0:0:0:
123,127,44911,1,0,0:0:0:0:
135,155,44999,1,8,0:0:0:0:
155,179,45088,1,0,0:0:0:0:
183,191,45176,1,0,0:0:0:0:
272,296,45352,5,0,0:0:0:0:
352,200,45529,1,0,0:0:0:0:
416,336,45705,1,8,0:0:0:0:
200,168,45882,2,0,L|232:72,2,90
136,328,46411,1,8,0:0:0:0:
184,200,46588,1,0,0:0:0:0:
216,0,46764,6,0,P|174:14|146:49,1,90
136,80,47029,1,0,0:0:0:0:
136,112,47117,1,8,0:0:0:0:
291,139,47294,2,0,L|224:80,1,90
352,224,47647,1,0,0:0:0:0:
224,256,47823,1,8,0:0:0:0:
320,352,47999,1,0,0:0:0:0:
136,192,48176,5,0,0:0:0:0:
184,64,48352,1,0,0:0:0:0:
72,144,48529,1,8,0:0:0:0:
256,256,48705,2,0,P|288:224|352:216,1,90
330,213,49058,1,0,0:0:0:0:
184,64,49235,1,8,0:0:0:0:
136,192,49411,1,0,0:0:0:0:
248,112,49588,6,0,P|296:104|352:136,1,90
280,240,49941,2,0,P|238:255|194:247,1,90,8|0,0:0|0:0,0:0:0:0:
72,144,50294,2,0,L|120:56,2,90,0|0|8,0:0|0:0|0:0,0:0:0:0:
24,272,50823,1,0,0:0:0:0:
160,248,50999,6,0,L|160:144,1,90
232,40,51352,2,0,L|232:152,1,90,8|0,0:0|0:0,0:0:0:0:
311,318,51705,2,0,L|311:228,1,90
368,0,52058,2,0,L|368:90,1,90,8|0,0:0|0:0,0:0:0:0:
448,200,52411,5,0,0:0:0:0:
248,96,52588,1,0,0:0:0:0:
328,272,52764,1,8,0:0:0:0:
232,72,52941,1,0,0:0:0:0:
184,272,53117,1,0,0:0:0:0:
216,40,53294,1,0,0:0:0:0:
64,200,53470,1,8,0:0:0:0:
200,8,53647,1,0,0:0:0:0:
96,96,53823,6,0,P|70:127|78:213,2,90,0|0|8,0:0|0:0|0:0,0:0:0:0:
232,72,54352,1,0,0:0:0:0:
312,176,54529,1,0,0:0:0:0:
192,240,54705,1,0,0:0:0:0:
161,232,54794,1,0,0:0:0:0:
143,205,54882,1,8,0:0:0:0:
232,72,55058,1,0,0:0:0:0:
368,72,55235,6,0,P|400:96|432:160,2,90,0|0|8,0:0|0:0|0:0,0:0:0:0:
232,72,55764,1,0,0:0:0:0:
136,168,55941,1,0,0:0:0:0:
160,304,56117,1,0,0:0:0:0:
188,316,56205,1,0,0:0:0:0:
219,312,56294,1,8,0:0:0:0:
312,208,56470,1,0,0:0:0:0:
216,112,56647,5,0,0:0:0:0:
248,232,56823,1,0,0:0:0:0:
120,207,56999,1,8,0:0:0:0:
152,328,57176,1,0,0:0:0:0:
184,344,57264,1,0,0:0:0:0:
216,344,57352,1,0,0:0:0:0:
336,296,57529,2,0,P|376:272|400:208,1,90,0|8,0:0|0:0,0:0:0:0:
320,128,57882,1,0,0:0:0:0:
192,184,58058,5,0,0:0:0:0:
72,120,58235,1,0,0:0:0:0:
88,96,58323,1,0,0:0:0:0:
112,80,58411,1,8,0:0:0:0:
176,200,58588,1,0,0:0:0:0:
146,75,58764,1,0,0:0:0:0:
156,210,58941,1,0,0:0:0:0:
124,213,59029,1,0,0:0:0:0:
95,199,59117,1,8,0:0:0:0:
184,304,59294,1,0,0:0:0:0:
136,144,59470,5,0,0:0:0:0:
272,160,59647,1,0,0:0:0:0:
304,176,59735,1,0,0:0:0:0:
328,200,59823,1,8,0:0:0:0:
224,288,59999,1,0,0:0:0:0:
232,152,60176,1,0,0:0:0:0:
328,200,60353,1,0,0:0:0:0:
360,192,60441,1,0,0:0:0:0:
392,200,60529,1,8,0:0:0:0:
376,336,60705,1,0,0:0:0:0:
261,255,60882,6,0,L|194:315,1,90
208,184,61235,1,8,0:0:0:0:
360,192,61411,1,0,0:0:0:0:
392,200,61499,1,0,0:0:0:0:
418,218,61588,1,0,0:0:0:0:
304,328,61764,1,0,0:0:0:0:
328,200,61941,1,8,0:0:0:0:
192,272,62117,1,0,0:0:0:0:
72,336,62294,6,0,P|56:288|80:240,2,90,0|0|8,0:0|0:0|0:0,0:0:0:0:
72,336,62823,1,0,0:0:0:0:
192,272,62999,1,0,0:0:0:0:
80,184,63176,1,0,0:0:0:0:
200,128,63352,2,0,P|176:88|120:64,1,90,8|0,0:0|0:0,0:0:0:0:
80,184,63705,6,0,P|128:248|240:240,1,180,0|8,0:0|0:0,0:0:0:0:
247,232,64147,1,0,0:0:0:0:
276,221,64235,1,0,0:0:0:0:
306,214,64323,1,0,0:0:0:0:
336,219,64411,1,0,0:0:0:0:
364,232,64499,1,0,0:0:0:0:
390,252,64588,1,0,0:0:0:0:
406,280,64676,1,0,0:0:0:0:
417,309,64764,1,8,0:0:0:0:
306,328,64941,1,0,0:0:0:0:
360,128,65117,5,4,0:0:0:0:
104,96,76411,5,0,0:0:0:0:
352,200,76764,2,0,P|374:238|366:281,2,90
256,104,77294,2,0,B|200:168|256:224|312:272|256:328,1,225
264,344,77823,6,0,P|208:360|160:320,2,90
376,344,78352,2,0,B|421:279|386:218|386:218|430:176|419:83|366:66,1,270
287,277,79235,5,4,0:0:0:0:
64,296,87705,6,0,P|100:259|102:203,1,90,4|0,0:0|0:0,0:0:0:0:
88,88,88058,1,0,0:0:0:0:
216,120,88235,1,0,0:0:0:0:
352,96,88411,2,0,P|335:58|280:16,1,90,2|0,0:0|0:0,0:0:0:0:
168,32,88764,1,0,0:0:0:0:
232,136,88941,1,2,0:0:0:0:
96,160,89117,6,0,P|56:185|-3:182,1,90
149,237,89470,2,0,P|188:262|248:259,1,90
357,235,89823,1,8,0:0:0:0:
380,214,89911,1,0,0:0:0:0:
410,204,89999,1,0,0:0:0:0:
441,206,90088,1,0,0:0:0:0:
469,220,90176,1,0,0:0:0:0:
248,64,90529,5,4,0:0:0:0:
128,120,90705,1,0,0:0:0:0:
248,192,90882,2,0,P|288:192|328:256,1,90
240,328,91235,2,0,P|196:326|164:295,1,90,2|0,0:0|0:0,0:0:0:0:
144,160,91588,1,0,0:0:0:0:
216,48,91764,1,2,0:0:0:0:
272,168,91941,6,0,L|336:88,1,90
328,232,92294,2,0,L|271:302,1,90
134,339,92647,1,8,0:0:0:0:
116,312,92735,1,0,0:0:0:0:
110,281,92823,1,0,0:0:0:0:
116,250,92911,1,0,0:0:0:0:
132,223,92999,1,0,0:0:0:0:
183,111,93352,5,4,0:0:0:0:
304,48,93529,1,0,0:0:0:0:
288,184,93705,2,0,P|288:232|328:280,1,90
448,264,94058,2,0,P|470:225|469:181,1,90,2|0,0:0|0:0,0:0:0:0:
352,120,94411,1,0,0:0:0:0:
232,56,94588,1,2,0:0:0:0:
183,267,94764,6,0,P|214:235|216:192,1,90
41,111,95117,2,0,P|48:154|84:181,1,90
184,267,95470,1,8,0:0:0:0:
213,257,95558,1,0,0:0:0:0:
238,239,95646,1,0,0:0:0:0:
258,215,95735,1,0,0:0:0:0:
265,185,95823,1,0,0:0:0:0:
440,352,96176,6,0,L|463:265,1,90,4|0,0:0|0:0,0:0:0:0:
488,128,96529,2,0,P|432:112|384:160,1,90
326,250,96882,2,0,P|280:264|238:239,1,90,2|0,0:0|0:0,0:0:0:0:
136,152,97235,1,0,0:0:0:0:
136,288,97411,1,2,0:0:0:0:
16,224,97588,6,0,P|32:168|16:120,1,90
80,16,97941,2,0,P|120:0|165:25,1,90,0|0,0:3|0:3,0:3:0:0:
278,84,98294,1,8,0:0:0:0:
310,81,98382,1,0,0:0:0:0:
337,67,98470,1,0,0:0:0:0:
360,46,98558,1,0,0:0:0:0:
376,19,98647,1,0,0:0:0:0:
208,304,98999,6,0,P|236:270|242:226,1,90,4|0,0:0|0:0,0:0:0:0:
192,104,99352,1,0,0:0:0:0:
146,231,99529,1,0,0:0:0:0:
240,328,99705,2,0,P|268:294|274:250,1,90,2|0,0:0|0:0,0:0:0:0:
216,128,100058,1,0,0:0:0:0:
170,255,100235,1,2,0:0:0:0:
272,342,100411,6,0,P|300:308|306:264,1,90,2|0,0:0|0:0,0:0:0:0:
438,237,100764,2,0,P|399:214|377:176,1,90
269,97,101117,1,8,0:0:0:0:
246,118,101205,1,0,0:0:0:0:
216,128,101293,1,0,0:0:0:0:
185,126,101382,1,0,0:0:0:0:
157,112,101470,1,0,0:0:0:0:
320,328,101823,5,4,0:0:0:0:
192,280,101999,1,0,0:0:0:0:
112,176,102176,2,0,P|80:145|36:143,1,90
32,280,102529,2,0,P|63:310|107:312,1,90,2|0,0:0|0:0,0:0:0:0:
240,344,102882,1,0,0:0:0:0:
280,216,103058,1,2,0:0:0:0:
408,256,103235,6,0,L|464:185,1,90
416,56,103588,2,0,P|368:80|360:128,1,90
88,112,104117,1,0,0:0:0:0:
69,87,104205,1,0,0:0:0:0:
60,57,104293,1,0,0:0:0:0:
104,336,104647,5,0,0:0:0:0:
104,156,104999,1,0,0:0:0:0:
284,156,105352,1,0,0:0:0:0:
284,336,105705,1,0,0:0:0:0:
224,272,105882,1,0,0:0:0:0:
309,245,106058,6,0,P|350:273|408:280,1,90
392,184,106411,2,0,B|336:131|269:158|269:158|240:120,1,180
104,8,107117,1,0,0:0:0:0:
64,88,107294,1,0,0:0:0:0:
120,160,107470,6,0,P|160:184|224:144,1,90
289,184,107823,2,0,P|255:104|171:88,1,180
16,176,108529,1,0,0:0:0:0:
64,248,108705,1,0,0:0:0:0:
8,328,108882,6,0,P|48:344|104:336,1,90
152,272,109235,2,0,P|240:248|320:320,1,180
384,128,109941,1,0,0:0:0:0:
304,176,110117,1,0,0:0:0:0:
310,91,110294,6,0,P|265:77|212:84,1,90
176,176,110647,2,0,P|264:152|344:224,1,180
200,320,111352,1,0,0:0:0:0:
136,256,111528,1,0,0:0:0:0:
112,344,111705,6,0,P|72:360|16:352,1,90
56,255,112058,2,0,P|36:165|112:89,1,180
264,56,112764,1,0,0:0:0:0:
320,128,112941,1,0,0:0:0:0:
350,222,113117,6,0,P|305:226|264:209,1,90
208,288,113470,2,0,P|280:328|392:312,1,180
416,144,114176,1,0,0:0:0:0:
384,64,114352,1,0,0:0:0:0:
320,128,114529,6,0,P|280:144|224:136,1,90
139,147,114882,2,0,P|176:68|267:53,1,180
352,216,115588,1,0,0:0:0:0:
256,312,115764,1,0,0:0:0:0:
216,168,115941,5,0,0:0:0:0:
156,48,116117,1,0,0:0:0:0:
96,168,116294,1,8,0:0:0:0:
224,96,116470,1,0,0:0:0:0:
88,96,116647,1,0,0:0:0:0:
156,216,116823,1,0,0:0:0:0:
220,336,116999,1,8,0:0:0:0:
84,336,117176,1,0,0:0:0:0:
220,260,117352,5,0,0:0:0:0:
152,372,117529,1,0,0:0:0:0:
92,260,117705,1,8,0:0:0:0:
144,128,117882,1,0,0:0:0:0:
239,32,118058,1,0,0:0:0:0:
334,127,118235,1,0,0:0:0:0:
238,222,118411,1,8,0:0:0:0:
333,317,118588,1,0,0:0:0:0:
483,200,118764,5,0,0:0:0:0:
503,175,118852,1,0,0:0:0:0:
509,144,118940,1,0,0:0:0:0:
505,113,119028,1,0,0:0:0:0:
488,86,119117,1,8,0:0:0:0:
464,66,119205,1,0,0:0:0:0:
434,58,119293,1,0,0:0:0:0:
403,61,119381,1,0,0:0:0:0:
374,75,119470,1,0,0:0:0:0:
355,99,119558,1,0,0:0:0:0:
346,129,119646,1,0,0:0:0:0:
347,160,119734,1,0,0:0:0:0:
360,188,119822,1,8,0:0:0:0:
384,209,119911,1,0,0:0:0:0:
413,221,119999,5,0,0:0:0:0:
445,222,120087,1,0,0:0:0:0:
474,233,120175,1,0,0:0:0:0:
498,255,120264,1,0,0:0:0:0:
511,283,120352,1,0,0:0:0:0:
512,314,120440,1,0,0:0:0:0:
502,343,120528,1,8,0:0:0:0:
482,367,120617,1,0,0:0:0:0:
455,381,120705,1,0,0:0:0:0:
424,384,120793,1,0,0:0:0:0:
394,377,120881,1,0,0:0:0:0:
368,358,120970,1,0,0:0:0:0:
352,331,121058,1,0,0:0:0:0:
346,299,121147,1,0,0:0:0:0:
354,268,121235,1,4,0:0:0:0:
192,112,121588,6,0,L|128:192,1,90
24,336,121941,1,8,0:0:0:0:
192,272,122117,2,0,P|232:280|272:320,2,90
88,184,122647,1,8,0:0:0:0:
200,104,122823,1,0,0:0:0:0:
332,79,122999,6,0,L|260:167,1,90
388,47,123352,2,0,L|316:135,1,90,8|0,0:0|0:0,0:0:0:0:
192,272,123705,2,0,P|232:304|296:296,1,90
400,272,124058,1,8,0:0:0:0:
456,152,124235,1,0,0:0:0:0:
339,48,124411,5,0,0:0:0:0:
152,184,124588,2,0,P|192:200|248:184,1,90,0|8,0:0|0:0,0:0:0:0:
192,64,124941,2,0,P|148:55|107:71,1,90
72,200,125294,1,0,0:0:0:0:
83,233,125382,1,0,0:0:0:0:
105,256,125470,1,8,0:0:0:0:
237,192,125647,1,0,0:0:0:0:
264,320,125823,6,0,P|296:288|360:288,1,90,2|0,0:0|0:0,0:0:0:0:
368,280,126088,2,0,P|424:312|512:280,1,135,2|0,0:0|0:0,0:0:0:0:
432,176,126529,2,0,P|400:144|336:144,1,90,2|0,0:0|0:0,0:0:0:0:
328,136,126794,2,0,P|272:168|184:136,1,135,2|0,0:0|0:0,0:0:0:0:
14,61,127235,5,0,0:0:0:0:
168,176,127411,2,0,P|124:160|79:165,1,90,0|8,0:0|0:0,0:0:0:0:
104,296,127764,1,0,0:0:0:0:
168,176,127941,1,0,0:0:0:0:
176,40,128117,1,0,0:0:0:0:
280,120,128294,2,0,P|328:112|376:144,1,90,8|0,0:0|0:0,0:0:0:0:
456,32,128647,6,0,L|440:128,1,90
464,104,128911,2,0,L|432:192,1,90
424,216,129176,1,0,0:0:0:0:
336,312,129352,2,0,P|310:284|296:224,2,90,0|0|8,0:0|0:0|0:0,0:0:0:0:
352,120,129882,1,0,0:0:0:0:
296,235,130058,1,0,0:0:0:0:
160,264,130235,6,0,L|195:181,1,90,0|8,0:0|0:0,0:0:0:0:
288,88,130588,2,0,P|256:56|192:48,2,90
269,223,131117,2,0,P|226:213|195:182,1,90,8|0,0:0|0:0,0:0:0:0:
0,48,131470,6,0,B|40:88|8:168,1,90,2|0,0:0|0:0,0:0:0:0:
48,128,131735,2,0,B|0:168|24:232,1,90,2|0,0:0|0:0,0:0:0:0:
24,240,131999,1,2,0:0:0:0:
160,232,132176,2,0,P|200:216|272:232,1,90
312,336,132529,2,0,P|270:352|225:348,1,90,8|0,0:0|0:0,0:0:0:0:
160,232,132882,5,0,0:0:0:0:
72,128,133058,1,0,0:0:0:0:
40,256,133235,1,8,0:0:0:0:
160,232,133411,2,0,P|200:216|240:160,1,90
296,64,133764,1,0,0:0:0:0:
368,184,133941,1,8,0:0:0:0:
280,288,134117,1,0,0:0:0:0:
144,272,134294,6,0,L|216:192,1,90
96,288,134647,2,0,L|168:208,1,90,8|0,0:0|0:0,0:0:0:0:
216,104,134999,2,0,P|264:120|296:168,1,90
280,288,135352,1,8,0:0:0:0:
368,184,135529,1,0,0:0:0:0:
392,320,135705,5,0,0:0:0:0:
368,184,135882,1,0,0:0:0:0:
408,56,136058,2,0,P|360:40|312:56,1,90,8|0,0:0|0:0,0:0:0:0:
194,169,136411,2,0,P|236:184|280:176,1,90
432,248,136764,2,0,L|368:184,1,90,8|0,0:0|0:0,0:0:0:0:
272,88,137117,6,0,P|224:96|176:48,1,90,2|0,0:0|0:0,0:0:0:0:
160,72,137382,2,0,P|128:144|40:176,1,135,2|0,0:0|0:0,0:0:0:0:
240,296,137823,2,0,P|288:288|336:336,1,90,2|0,0:0|0:0,0:0:0:0:
352,312,138088,2,0,P|384:240|472:208,1,135,2|0,0:0|0:0,0:0:0:0:
368,56,138529,6,0,P|320:64|256:24,1,90
208,0,138882,1,8,0:0:0:0:
152,72,139058,1,0,0:0:0:0:
168,96,139147,1,0,0:0:0:0:
192,112,139235,1,0,0:0:0:0:
272,160,139411,1,0,0:0:0:0:
200,216,139588,2,0,P|152:224|88:184,1,90,8|0,0:0|0:0,0:0:0:0:
248,320,139941,2,0,L|296:296,1,45
304,320,140117,2,0,L|344:296,1,45
376,264,140294,5,0,0:0:0:0:
392,240,140382,1,0,0:0:0:0:
376,208,140470,1,0,0:0:0:0:
392,184,140558,1,0,0:0:0:0:
376,152,140647,1,0,0:0:0:0:
392,128,140735,1,0,0:0:0:0:
376,96,140823,1,0,0:0:0:0:
392,72,140911,1,0,0:0:0:0:
376,40,140999,1,4,0:0:0:0:
120,142,141352,6,0,P|80:152|8:136,2,90,0|0|8,0:0|0:0|0:0,0:0:0:0:
200,24,141882,1,0,0:0:0:0:
72,56,142058,1,0,0:0:0:0:
144,168,142235,2,0,L|216:248,1,90,0|8,0:0|0:0,0:0:0:0:
320,304,142588,1,0,0:0:0:0:
192,336,142764,6,0,P|150:322|112:264,1,90
120,160,143117,1,8,0:0:0:0:
200,48,143294,1,0,0:0:0:0:
72,80,143470,1,0,0:0:0:0:
128,200,143647,2,0,P|120:248|64:296,1,90,0|8,0:0|0:0,0:0:0:0:
208,344,143999,1,0,0:0:0:0:
328,280,144176,5,0,0:0:0:0:
208,216,144352,1,0,0:0:0:0:
128,112,144529,1,8,0:0:0:0:
253,141,144705,1,0,0:0:0:0:
373,205,144881,1,0,0:0:0:0:
453,309,145058,1,0,0:0:0:0:
469,186,145235,2,0,P|453:146|381:114,1,90,8|0,0:0|0:0,0:0:0:0:
224,56,145588,6,0,P|272:48|312:64,1,90
376,208,145941,1,8,0:0:0:0:
256,144,146117,1,0,0:0:0:0:
120,176,146294,2,0,P|131:218|184:268,1,90
296,272,146647,1,8,0:0:0:0:
328,144,146823,1,0,0:0:0:0:
191,119,146999,6,0,P|152:98|108:92,1,90
96,224,147352,1,8,0:0:0:0:
191,319,147529,1,0,0:0:0:0:
286,223,147705,1,0,0:0:0:0:
384,320,147882,1,0,0:0:0:0:
392,192,148058,2,0,P|348:167|318:118,1,90,8|0,0:0|0:0,0:0:0:0:
440,56,148411,5,0,0:0:0:0:
392,192,148588,1,0,0:0:0:0:
384,320,148764,1,8,0:0:0:0:
204,240,148941,2,0,L|248:320,1,90
128,208,149294,2,0,P|152:176|224:160,1,90,0|8,0:0|0:0,0:0:0:0:
312,232,149647,1,0,0:0:0:0:
136,288,149823,6,0,P|112:320|40:336,1,90
56,176,150176,1,8,0:0:0:0:
120,56,150352,2,0,P|160:64|200:112,1,90
208,232,150705,1,0,0:0:0:0:
336,184,150882,1,8,0:0:0:0:
448,264,151058,1,0,0:0:0:0:
328,328,151235,6,0,P|272:320|240:264,1,90
160,144,151588,1,8,0:0:0:0:
280,88,151764,2,0,P|320:72|384:88,1,90
448,184,152117,1,0,0:0:0:0:
336,256,152294,2,0,P|291:260|250:243,1,90,8|0,0:0|0:0,0:0:0:0:
144,328,152647,5,0,0:0:0:0:
128,240,152823,1,0,0:0:0:0:
144,128,152999,1,8,0:0:0:0:
112,16,153176,1,0,0:0:0:0:
248,64,153352,2,0,P|288:88|352:64,1,90
464,32,153705,1,8,0:0:0:0:
240,184,153882,2,0,P|280:208|344:184,1,90
456,152,154235,5,0,0:0:0:0:
232,304,154411,2,0,P|192:280|128:304,1,90,8|0,0:0|0:0,0:0:0:0:
16,336,154764,1,0,0:0:0:0:
240,184,154941,2,0,P|200:160|136:184,1,90,0|8,0:0|0:0,0:0:0:0:
24,216,155294,1,0,0:0:0:0:
96,88,155470,6,0,L|45:-5,2,90,0|0|8,0:0|0:0|0:0,0:0:0:0:
144,224,155999,1,0,0:0:0:0:
128,368,156176,1,0,0:0:0:0:
253,302,156352,2,0,P|294:313|348:291,1,90,0|8,0:0|0:0,0:0:0:0:
296,168,156705,1,0,0:0:0:0:
424,240,156882,6,0,P|446:202|439:145,1,90
296,144,157235,1,8,0:0:0:0:
408,56,157411,2,0,P|379:22|323:10,1,90
296,200,157764,1,0,0:0:0:0:
168,56,157941,1,8,0:0:0:0:
168,200,158117,1,0,0:0:0:0:
53,195,158294,6,0,P|61:243|101:291,2,90,0|0|8,0:0|0:0|0:0,0:0:0:0:
80,80,158823,1,0,0:0:0:0:
193,49,159000,1,0,0:0:0:0:
275,132,159176,1,0,0:0:0:0:
244,245,159353,1,8,0:0:0:0:
131,275,159529,1,0,0:0:0:0:
208,328,159705,5,0,0:0:0:0:
264,256,159881,1,0,0:0:0:0:
328,192,160058,1,0,0:0:0:0:
264,128,160235,1,0,0:0:0:0:
208,56,160411,1,0,0:0:0:0:
120,64,160588,2,0,P|134:106|167:136,1,90,0|8,0:0|0:0,0:0:0:0:
240,192,160941,1,0,0:0:0:0:
328,192,161117,6,0,L|361:108,1,90
448,128,161470,2,0,L|414:211,1,90,8|0,0:0|0:0,0:0:0:0:
360,280,161823,2,0,P|304:288|264:256,1,90
240,192,162176,1,8,0:0:0:0:
176,256,162352,1,0,0:0:0:0:
152,344,162529,6,0,P|200:328|248:376,1,90
320,360,162882,1,8,0:0:0:0:
351,359,162970,1,0,0:0:0:0:
380,348,163058,1,0,0:0:0:0:
406,330,163147,1,0,0:0:0:0:
397,299,163235,1,0,0:0:0:0:
379,273,163323,1,0,0:0:0:0:
371,244,163411,1,0,0:0:0:0:
369,212,163500,1,0,0:0:0:0:
384,184,163588,1,4,0:0:0:0:
66,24,163941,5,0,0:0:0:0:
189,78,164117,2,0,P|228:88|300:54,1,90,0|8,0:0|0:0,0:0:0:0:
384,184,164470,2,0,P|336:216|272:192,1,90
176,192,164823,1,0,0:0:0:0:
96,88,164999,1,8,0:0:0:0:
232,72,165176,1,0,0:0:0:0:
176,192,165352,6,0,L|136:304,1,90
168,144,165705,2,0,L|128:256,1,90,8|0,0:0|0:0,0:0:0:0:
104,360,166058,2,0,P|144:368|224:328,1,90
296,272,166411,1,8,0:0:0:0:
216,160,166588,1,0,0:0:0:0:
352,160,166764,6,0,P|384:176|416:240,1,90
504,120,167117,2,0,P|472:104|440:40,1,90,8|0,0:0|0:0,0:0:0:0:
272,72,167470,1,0,0:0:0:0:
248,96,167558,1,0,0:0:0:0:
240,128,167647,1,0,0:0:0:0:
208,296,167823,2,0,L|96:248,1,90,8|0,0:0|0:0,0:0:0:0:
32,168,168176,6,0,P|48:128|104:104,1,90,2|0,0:0|0:0,0:0:0:0:
120,112,168441,2,0,P|168:144|256:112,1,135,2|0,0:0|0:0,0:0:0:0:
480,168,168882,2,0,P|464:128|408:104,1,90,2|0,0:0|0:0,0:0:0:0:
392,112,169147,2,0,P|344:144|256:112,1,135,2|0,0:0|0:0,0:0:0:0:
192,240,169588,6,0,L|112:336,2,90,0|0|8,0:0|0:0|0:0,0:0:0:0:
272,128,170117,1,0,0:0:0:0:
392,112,170294,2,0,P|440:144|448:184,1,90
384,296,170647,1,8,0:0:0:0:
272,216,170823,1,0,0:0:0:0:
136,200,170999,6,0,P|111:158|88:120,1,90
120,136,171264,2,0,L|72:56,1,90
56,32,171529,1,0,0:0:0:0:
272,72,171705,2,0,P|272:112|320:160,1,90
440,152,172058,2,0,P|424:96|368:64,1,90,8|0,0:0|0:0,0:0:0:0:
300,153,172411,6,0,L|220:257,1,90
168,336,172764,1,8,0:0:0:0:
112,216,172941,1,0,0:0:0:0:
168,96,173117,1,0,0:0:0:0:
288,32,173294,2,0,P|328:24|392:56,1,90,0|8,0:0|0:0,0:0:0:0:
320,160,173647,1,0,0:0:0:0:
280,288,173823,6,0,L|384:272,1,90
344,296,174088,2,0,L|472:272,1,90
464,272,174352,1,0,0:0:0:0:
448,136,174529,2,0,P|402:103|403:34,1,90
256,71,174882,2,0,P|239:112|200:135,1,90,8|0,0:0|0:0,0:0:0:0:
128,24,175235,5,0,0:0:0:0:
201,135,175411,1,0,0:0:0:0:
128,256,175588,1,8,0:0:0:0:
232,344,175764,2,0,P|280:360|320:336,1,90
312,208,176117,1,0,0:0:0:0:
232,96,176294,2,0,P|191:79|150:96,1,90,8|0,0:0|0:0,0:0:0:0:
40,176,176647,6,0,L|104:256,1,90
40,240,176999,2,0,L|104:320,1,90,8|0,0:0|0:0,0:0:0:0:
232,344,177352,2,0,P|240:296|304:248,1,90
368,176,177705,1,8,0:0:0:0:
248,112,177882,1,0,0:0:0:0:
40,240,178235,6,0,P|40:288|96:328,2,90
40,144,178764,2,0,P|40:96|96:56,2,90
40,240,179294,1,0,0:0:0:0:
80,320,179470,6,0,P|120:304|184:320,1,90,2|0,0:0|0:0,0:0:0:0:
208,320,179735,2,0,P|264:344|360:304,1,135,2|0,0:0|0:0,0:0:0:0:
418,305,180176,2,0,P|397:267|338:238,1,90,2|0,0:0|0:0,0:0:0:0:
319,222,180441,2,0,P|260:204|212:112,1,135,2|0,0:0|0:0,0:0:0:0:
192,64,180882,5,4,0:0:0:0:
256,192,180970,12,0,183705,0:0:0:0:
