osu file format v14

[General]
AudioFilename: Namaste ft. Tiana Khasi - Signs.mp3
AudioLeadIn: 0
PreviewTime: 25499
Countdown: 0
SampleSet: Normal
StackLeniency: 0.7
Mode: 0
LetterboxInBreaks: 0
WidescreenStoryboard: 0

[Editor]
Bookmarks: 25588,42529,76411,104647,111705,121588,138529,141352,159705,163941,178058
DistanceSpacing: 1.3
BeatDivisor: 4
GridSize: 8
TimelineZoom: 1

[Metadata]
Title:Signs (Radio Edit)
TitleUnicode:Signs (Radio Edit)
Artist:Namaste ft. Tiana Khasi
ArtistUnicode:Namaste ft. Tiana Khasi
Creator:Xellie
Version:Advanced
Source:
Tags:asphyxia moo-chan moochan DnB pishifat gero
BeatmapID:684148
BeatmapSetID:277479

[Difficulty]
HPDrainRate:5
CircleSize:3.4
OverallDifficulty:5
ApproachRate:6
SliderMultiplier:1.2
SliderTickRate:2

[Events]
//Background and Video events
0,0,"BG.jpg",0,0
//Break Periods
2,65317,75361
2,104847,110655
2,159552,162891
//Storyboard Layer 0 (Background)
//Storyboard Layer 1 (Fail)
//Storyboard Layer 2 (Pass)
//Storyboard Layer 3 (Foreground)
//Storyboard Sound Samples

[TimingPoints]
3000,352.941176470588,4,1,1,70,1,0
19235,-100,4,1,2,70,0,0
19323,-100,4,1,1,70,0,0
25588,-100,4,1,1,70,0,1
42529,-100,4,1,1,55,0,0
54882,-100,4,1,2,55,0,0
54970,-100,4,1,1,55,0,0
76411,-100,4,2,1,55,0,0
87529,-100,4,2,1,5,0,0
87705,-100,4,1,1,70,0,0
121588,-100,4,1,1,70,0,1
138529,-100,4,1,1,70,0,0
163941,-100,4,1,1,70,0,1
178058,-100,4,1,1,70,0,0
180882,-100,4,1,1,5,0,0

[Colours]
Combo1 : 128,64,64
Combo2 : 255,128,192
Combo3 : 0,128,192
Combo4 : 255,255,128

[HitObjects]
86,67,3000,5,4,0:0:0:0:
153,207,3352,2,0,L|218:254,1,60
269,281,3705,1,2,0:0:0:0:
275,128,4058,1,0,0:0:0:0:
226,66,4235,1,2,0:0:0:0:
174,123,4411,2,0,P|149:59|181:2,2,120,0|0|8,0:0|0:0|0:0,0:0:0:0:
25,172,5470,1,0,0:0:0:0:
24,196,5647,1,0,0:0:0:0:
23,220,5823,6,0,P|62:260|127:254,1,120,4|0,0:0|0:0,0:0:0:0:
194,226,6352,1,0,0:0:0:0:
259,183,6529,2,0,B|327:133|327:133|364:128,1,120,2|0,0:0|0:0,0:0:0:0:
440,124,7058,1,2,0:0:0:0:
439,202,7235,2,0,P|417:248|336:272,2,120,0|0|8,0:0|0:0|0:0,0:0:0:0:
342,81,8294,1,0,0:0:0:0:
272,46,8470,1,0,0:0:0:0:
196,65,8647,5,4,0:0:0:0:
196,65,8823,2,0,L|154:3,2,60
240,128,9352,2,0,P|273:165|343:187,1,120,2|0,0:0|0:0,0:0:0:0:
400,232,9882,1,0,0:0:0:0:
336,272,10058,2,0,P|279:289|238:331,2,120,0|0|8,0:0|0:0|0:0,0:0:0:0:
463,180,11117,1,0,0:0:0:0:
463,156,11294,1,0,0:0:0:0:
463,132,11470,6,0,P|412:94|337:119,1,120,4|0,0:0|0:0,0:0:0:0:
287,133,11999,1,0,0:0:0:0:
217,165,12176,2,0,B|143:182|143:182|89:150,1,120,2|0,0:0|0:0,0:0:0:0:
49,104,12705,1,0,0:0:0:0:
84,34,12882,2,0,P|135:43|154:110,2,120,0|0|8,0:0|0:0|0:0,0:0:0:0:
7,170,13941,1,0,0:0:0:0:
7,194,14117,1,0,0:0:0:0:
7,218,14294,6,0,B|36:271|36:271|114:295,1,120,2|0,0:0|0:0,0:0:0:0:
170,294,14823,1,0,0:0:0:0:
244,270,14999,2,0,L|223:202,2,60,2|0|0,0:0|0:0|0:0,0:0:0:0:
265,345,15529,1,0,0:0:0:0:
336,314,15705,2,0,L|372:247,1,60,2|0,0:0|0:0,0:0:0:0:
447,211,16058,2,0,P|405:172|324:172,1,120,0|8,0:0|0:0,0:0:0:0:
266,172,16588,2,0,L|184:189,1,60
130,196,16941,1,0,0:0:0:0:
66,265,17117,6,0,P|38:219|58:138,1,120,2|0,0:0|0:0,0:0:0:0:
73,76,17647,1,0,0:0:0:0:
127,12,17823,2,0,P|155:69|137:131,1,120,2|0,0:0|0:0,0:0:0:0:
130,196,18352,1,0,0:0:0:0:
128,274,18529,2,0,B|198:311|198:311|259:294,1,120,2|0,0:0|0:0,0:0:0:0:
311,273,19058,2,0,B|350:262|350:262|420:299,1,120
491,332,19588,1,0,0:0:0:0:
430,188,19941,6,0,P|370:183|320:151,2,120,0|8|0,0:0|0:0|0:0,0:0:0:0:
266,5,20999,1,8,0:0:0:0:
410,61,21352,2,0,P|467:76|516:129,2,120,0|8|0,0:0|0:0|0:0,0:0:0:0:
150,15,22411,1,8,0:0:0:0:
101,163,22764,6,0,L|52:205,2,60,0|0|8,0:0|0:0|0:0,0:0:0:0:
157,217,23294,2,0,L|108:259,2,60
219,171,23823,1,0,0:0:0:0:
264,107,23999,1,0,0:0:0:0:
223,40,24176,1,0,0:0:0:0:
145,42,24352,2,0,L|126:-24,2,60,0|8|0,0:0|0:0|0:0,0:0:0:0:
158,119,24882,1,0,0:0:0:0:
219,171,25058,1,0,0:0:0:0:
258,238,25235,1,4,0:0:0:0:
411,124,25588,6,0,B|351:109|380:71|308:46,1,120,0|8,0:0|0:0,0:0:0:0:
243,35,26117,1,0,0:0:0:0:
169,8,26294,1,0,0:0:0:0:
97,39,26470,2,0,L|123:99,1,60,0|8,0:0|0:0,0:0:0:0:
94,167,26823,1,0,0:0:0:0:
150,242,26999,6,0,L|220:223,1,60
227,302,27352,2,0,L|297:283,1,60,8|0,0:0|0:0,0:0:0:0:
373,254,27705,2,0,P|338:207|273:193,1,120,0|8,0:0|0:0,0:0:0:0:
150,108,28411,5,0,0:0:0:0:
59,121,28588,1,0,0:0:0:0:
59,121,28764,2,0,L|99:198,1,60,8|0,0:0|0:0,0:0:0:0:
125,242,29117,2,0,L|165:319,1,60
190,363,29470,1,8,0:0:0:0:
263,334,29647,1,0,0:0:0:0:
327,290,29823,6,0,L|369:348,2,60,0|0|8,0:0|0:0|0:0,0:0:0:0:
287,222,30352,1,0,0:0:0:0:
352,179,30529,2,0,L|316:130,2,60,0|0|8,0:0|0:0|0:0,0:0:0:0:
397,242,31058,1,0,0:0:0:0:
435,315,31235,6,0,P|470:278|471:207,1,120,0|8,0:0|0:0,0:0:0:0:
458,134,31764,1,0,0:0:0:0:
410,71,31941,2,0,L|348:102,1,60
304,160,32294,1,8,0:0:0:0:
224,168,32470,1,0,0:0:0:0:
177,236,32647,6,0,P|194:264|226:278,1,60
284,315,32999,1,8,0:0:0:0:
361,325,33176,1,0,0:0:0:0:
436,311,33352,2,0,P|411:268|339:252,1,120,0|8,0:0|0:0,0:0:0:0:
238,154,34058,5,0,0:0:0:0:
204,83,34235,1,0,0:0:0:0:
127,67,34411,2,0,P|92:78|61:112,1,60,8|0,0:0|0:0,0:0:0:0:
131,145,34764,2,0,P|105:171|93:215,1,60
67,264,35117,1,8,0:0:0:0:
110,328,35294,1,0,0:0:0:0:
184,304,35470,6,0,B|220:269|234:298|278:260,1,90
303,258,35823,1,8,0:0:0:0:
357,202,35999,1,0,0:0:0:0:
434,194,36176,2,0,P|463:211|478:236,1,60
406,268,36529,2,0,P|418:299|414:328,1,60,8|0,0:0|0:0,0:0:0:0:
337,326,36882,6,0,P|271:328|233:285,1,120,0|8,0:0|0:0,0:0:0:0:
207,218,37411,1,0,0:0:0:0:
148,165,37588,2,0,L|106:218,1,60
35,189,37941,2,0,L|72:141,1,60,8|0,0:0|0:0,0:0:0:0:
115,77,38294,6,0,P|151:64|191:76,1,60
250,68,38647,2,0,L|314:67,1,60,8|0,0:0|0:0,0:0:0:0:
391,13,38999,2,0,P|405:58|381:134,1,120,0|8,0:0|0:0,0:0:0:0:
298,255,39705,5,0,0:0:0:0:
344,318,39882,1,0,0:0:0:0:
298,381,40058,2,0,P|270:365|241:328,1,60,8|0,0:0|0:0,0:0:0:0:
200,284,40411,2,0,L|159:224,1,60
137,161,40764,1,8,0:0:0:0:
175,92,40941,1,0,0:0:0:0:
244,56,41117,6,0,L|218:-17,2,60,0|0|8,0:0|0:0|0:0,0:0:0:0:
290,129,41647,1,0,0:0:0:0:
290,129,41823,2,0,L|310:185,2,60,0|0|8,0:0|0:0|0:0,0:0:0:0:
327,61,42352,1,0,0:0:0:0:
177,74,43941,6,0,L|226:128,3,60,0|0|8|0,0:0|0:0|0:0|0:0,0:0:0:0:
149,158,44647,2,0,L|198:212,3,60,0|0|8|0,0:0|0:0|0:0|0:0,0:0:0:0:
241,260,45352,5,0,0:0:0:0:
304,305,45529,1,0,0:0:0:0:
381,302,45705,2,0,P|384:272|361:227,1,60,8|0,0:0|0:0,0:0:0:0:
351,169,46058,1,0,0:0:0:0:
312,100,46235,1,0,0:0:0:0:
245,59,46411,1,8,0:0:0:0:
167,46,46588,1,0,0:0:0:0:
91,65,46764,6,0,P|56:92|43:124,1,60
123,139,47117,2,0,L|182:192,1,60,8|0,0:0|0:0,0:0:0:0:
288,280,47647,1,0,0:0:0:0:
340,222,47823,1,8,0:0:0:0:
386,159,47999,1,0,0:0:0:0:
451,118,48176,6,0,P|422:92|383:83,2,60,0|0|8,0:0|0:0|0:0,0:0:0:0:
506,173,48705,1,0,0:0:0:0:
434,226,48882,1,0,0:0:0:0:
386,159,49058,2,0,P|358:147|337:125,1,60,0|8,0:0|0:0,0:0:0:0:
241,2,49588,5,0,0:0:0:0:
185,56,49764,1,0,0:0:0:0:
129,111,49941,2,0,P|115:137|117:168,1,60,8|0,0:0|0:0,0:0:0:0:
142,241,50294,1,0,0:0:0:0:
198,187,50470,2,0,P|205:149|238:123,1,60,0|8,0:0|0:0,0:0:0:0:
367,180,50999,6,0,L|304:127,1,60
262,92,51352,2,0,L|207:143,1,60,8|0,0:0|0:0,0:0:0:0:
172,196,51705,2,0,L|89:203,1,60
35,208,52058,2,0,P|19:240|32:282,1,60,8|0,0:0|0:0,0:0:0:0:
99,309,52411,2,0,L|170:277,1,60
224,252,52764,1,8,0:0:0:0:
224,252,52941,1,0,0:0:0:0:
225,174,53117,2,0,L|296:142,1,60
347,111,53470,1,8,0:0:0:0:
347,111,53647,1,0,0:0:0:0:
426,31,53823,6,0,P|446:44|452:86,1,60
501,141,54176,1,8,0:0:0:0:
501,141,54352,2,0,L|473:207,1,60
441,283,54705,2,0,P|396:247|385:173,1,120
343,119,55235,6,0,L|373:60,2,60,0|0|8,0:0|0:0|0:0,0:0:0:0:
301,187,55764,2,0,P|288:244|243:282,1,120
166,299,56294,1,8,0:0:0:0:
91,161,56647,6,0,L|135:96,1,60
163,43,56999,1,8,0:0:0:0:
163,43,57176,1,0,0:0:0:0:
217,98,57352,2,0,L|270:149,2,60,0|0|8,0:0|0:0|0:0,0:0:0:0:
80,24,58058,6,0,P|43:41|20:71,1,60
1,127,58411,1,8,0:0:0:0:
21,202,58588,1,0,0:0:0:0:
69,263,58764,2,0,P|98:273|136:254,1,60
191,223,59117,1,8,0:0:0:0:
302,113,59470,6,0,L|367:160,2,60,0|0|8,0:0|0:0|0:0,0:0:0:0:
238,68,59999,1,0,0:0:0:0:
173,24,60176,1,0,0:0:0:0:
101,54,60352,2,0,P|81:88|46:109,1,60,0|8,0:0|0:0,0:0:0:0:
14,209,60882,6,0,P|28:245|56:266,1,60
112,295,61235,1,8,0:0:0:0:
166,350,61411,1,0,0:0:0:0:
239,376,61588,1,0,0:0:0:0:
316,367,61764,2,0,L|357:295,1,60,0|8,0:0|0:0,0:0:0:0:
281,172,62294,5,0,0:0:0:0:
237,107,62470,1,0,0:0:0:0:
195,40,62647,1,8,0:0:0:0:
166,193,62999,1,0,0:0:0:0:
208,260,63176,1,0,0:0:0:0:
252,325,63352,1,0,0:0:0:0:
256,192,63705,12,0,65117,0:0:0:0:
145,51,76411,5,0,0:0:0:0:
365,271,77117,1,0,0:0:0:0:
365,36,77647,1,0,0:0:0:0:
88,304,79235,5,0,0:0:0:0:
308,83,79941,1,0,0:0:0:0:
308,316,80470,1,0,0:0:0:0:
144,80,82058,5,0,0:0:0:0:
456,80,82764,1,0,0:0:0:0:
290,245,83294,1,0,0:0:0:0:
440,320,84882,5,0,0:0:0:0:
219,99,85588,1,0,0:0:0:0:
452,99,86117,1,0,0:0:0:0:
256,152,87705,6,0,L|176:128,1,60
124,109,88058,1,0,0:0:0:0:
47,123,88235,1,0,0:0:0:0:
1,183,88411,2,0,P|23:238|81:269,1,120
151,281,88941,1,0,0:0:0:0:
227,295,89117,2,0,P|266:299|300:276,1,60
356,260,89470,2,0,P|422:166|325:153,1,240
183,163,90529,6,0,P|121:163|74:130,1,120
29,68,91058,1,0,0:0:0:0:
75,131,91235,2,0,P|137:131|184:98,1,120
240,47,91764,1,0,0:0:0:0:
305,3,91941,2,0,P|331:61|397:99,2,120
429,289,93352,6,0,L|379:322,1,60
315,367,93705,1,0,0:0:0:0:
259,312,93882,1,0,0:0:0:0:
308,256,94058,2,0,P|253:237|195:272,1,120
145,316,94588,1,0,0:0:0:0:
65,331,94764,2,0,P|84:263|141:235,2,120
322,155,96176,6,0,L|378:133,1,60
451,107,96529,1,0,0:0:0:0:
414,38,96705,1,0,0:0:0:0:
339,63,96882,2,0,L|225:106,1,120
153,133,97411,1,0,0:0:0:0:
91,185,97588,2,0,P|135:212|215:187,2,120
393,109,98999,6,0,L|450:92,2,60
317,132,99529,1,0,0:0:0:0:
248,161,99705,2,0,P|247:103|289:62,1,120
361,32,100235,1,0,0:0:0:0:
393,109,100411,2,0,L|419:162,1,60
481,217,100764,2,0,P|422:243|359:220,2,120
393,109,101823,6,0,P|336:88|262:121,1,120
212,142,102352,1,0,0:0:0:0:
142,178,102529,2,0,P|81:193|30:173,1,120
88,104,103058,1,0,0:0:0:0:
153,61,103235,2,0,P|203:41|278:67,2,120
350,303,104647,5,0,0:0:0:0:
251,59,111705,5,0,0:0:0:0:
343,184,112058,1,0,0:0:0:0:
243,303,112411,1,0,0:0:0:0:
63,337,112764,2,0,P|52:300|64:259,1,60
129,300,113117,1,0,0:0:0:0:
29,181,113470,1,0,0:0:0:0:
121,56,113823,1,0,0:0:0:0:
273,24,114176,2,0,L|298:90,1,60
330,149,114529,6,0,P|272:163|193:140,2,120
479,96,115588,1,0,0:0:0:0:
344,249,115941,2,0,P|286:263|207:240,2,120
479,185,116999,1,8,0:0:0:0:
369,73,117352,6,0,B|293:46|293:46|256:73,2,120,0|8|0,0:0|0:0|0:0,0:0:0:0:
511,137,118411,1,8,0:0:0:0:
416,260,118764,6,0,L|364:296,2,60,0|0|8,0:0|0:0|0:0,0:0:0:0:
353,212,119294,2,0,L|301:248,2,60
420,173,119823,1,0,0:0:0:0:
480,124,119999,1,0,0:0:0:0:
492,46,120176,1,0,0:0:0:0:
417,67,120352,2,0,L|371:15,2,60,0|8|0,0:0|0:0|0:0,0:0:0:0:
480,124,120882,1,0,0:0:0:0:
507,196,121058,1,0,0:0:0:0:
485,271,121235,1,4,0:0:0:0:
401,369,121588,6,0,B|291:300,1,120,0|8,0:0|0:0,0:0:0:0:
233,262,122117,1,0,0:0:0:0:
173,211,122294,1,0,0:0:0:0:
134,143,122470,2,0,L|177:100,1,60,0|8,0:0|0:0,0:0:0:0:
238,51,122823,1,0,0:0:0:0:
315,58,122999,6,0,L|373:43,1,60
360,122,123352,2,0,L|418:107,1,60,8|0,0:0|0:0,0:0:0:0:
283,144,123705,2,0,P|315:189|380:200,1,120,0|8,0:0|0:0,0:0:0:0:
219,211,124411,5,0,0:0:0:0:
163,155,124588,1,0,0:0:0:0:
128,224,124764,2,0,L|168:301,1,60,8|0,0:0|0:0,0:0:0:0:
260,295,125117,2,0,L|233:242,1,60
299,362,125470,1,8,0:0:0:0:
373,336,125647,1,0,0:0:0:0:
445,362,125823,6,0,L|487:304,2,60,0|0|8,0:0|0:0|0:0,0:0:0:0:
373,336,126352,1,0,0:0:0:0:
326,273,126529,2,0,L|290:224,2,60,0|0|8,0:0|0:0|0:0,0:0:0:0:
373,336,127058,1,0,0:0:0:0:
420,273,127235,6,0,L|458:148,1,120,0|8,0:0|0:0,0:0:0:0:
477,83,127764,1,0,0:0:0:0:
416,33,127941,2,0,L|354:64,1,60
290,91,128294,1,8,0:0:0:0:
217,63,128470,1,0,0:0:0:0:
146,97,128647,6,0,P|163:125|195:139,1,60
258,166,128999,1,8,0:0:0:0:
331,194,129175,1,0,0:0:0:0:
411,174,129352,2,0,P|386:131|314:115,1,120,0|8,0:0|0:0,0:0:0:0:
164,119,130058,5,0,0:0:0:0:
93,153,130235,1,0,0:0:0:0:
98,234,130411,2,0,P|133:223|164:189,1,60,8|0,0:0|0:0,0:0:0:0:
196,272,130764,2,0,P|222:246|234:202,1,60
260,152,131117,1,8,0:0:0:0:
225,82,131294,1,0,0:0:0:0:
296,51,131470,6,0,P|344:45|387:87,1,90
414,94,131823,1,8,0:0:0:0:
430,170,131999,1,0,0:0:0:0:
402,246,132176,2,0,P|373:229|358:204,1,60
278,182,132529,6,0,P|276:212|288:240,1,60,8|0,0:0|0:0,0:0:0:0:
328,124,132882,2,0,P|272:107|220:133,1,120,0|8,0:0|0:0,0:0:0:0:
164,186,133411,1,0,0:0:0:0:
197,256,133588,2,0,L|155:309,1,60
100,251,133941,2,0,L|63:299,1,60,8|0,0:0|0:0,0:0:0:0:
159,303,134294,6,0,P|195:316|235:304,1,60
290,290,134647,2,0,L|347:256,1,60,8|0,0:0|0:0,0:0:0:0:
399,207,134999,2,0,B|423:151|375:151|399:87,1,120,0|8,0:0|0:0,0:0:0:0:
279,193,135705,5,0,0:0:0:0:
232,129,135882,1,0,0:0:0:0:
158,103,136058,2,0,L|101:50,1,60,8|0,0:0|0:0,0:0:0:0:
58,116,136411,2,0,L|101:156,1,60
164,204,136764,1,8,0:0:0:0:
228,248,136941,1,0,0:0:0:0:
304,232,137117,6,0,L|330:159,2,60,0|0|8,0:0|0:0|0:0,0:0:0:0:
273,304,137647,1,0,0:0:0:0:
350,312,137823,2,0,L|376:385,2,60,0|0|8,0:0|0:0|0:0,0:0:0:0:
350,312,138352,1,0,0:0:0:0:
332,235,138529,5,0,0:0:0:0:
312,159,138705,1,0,0:0:0:0:
336,84,138882,1,0,0:0:0:0:
401,42,139058,2,0,L|400:8,2,30
411,119,139411,1,0,0:0:0:0:
441,190,139588,1,0,0:0:0:0:
422,265,139764,1,0,0:0:0:0:
149,301,140294,6,0,L|76:319,2,60
162,224,140823,2,0,L|235:242,1,60
373,269,141352,5,0,0:0:0:0:
446,296,141529,1,0,0:0:0:0:
439,218,141705,2,0,P|442:188|419:143,1,60,8|0,0:0|0:0,0:0:0:0:
405,86,142058,1,0,0:0:0:0:
340,130,142235,1,0,0:0:0:0:
325,53,142411,1,8,0:0:0:0:
260,97,142588,1,0,0:0:0:0:
194,139,142764,6,0,L|130:193,1,60
91,231,143117,2,0,L|150:284,1,60,8|0,0:0|0:0,0:0:0:0:
265,357,143647,1,0,0:0:0:0:
253,280,143823,1,8,0:0:0:0:
209,215,143999,1,0,0:0:0:0:
142,173,144176,6,0,P|123:153|93:139,2,60,0|0|8,0:0|0:0|0:0,0:0:0:0:
209,215,144705,1,0,0:0:0:0:
253,280,144882,1,0,0:0:0:0:
325,250,145058,2,0,P|353:238|374:216,1,60,0|8,0:0|0:0,0:0:0:0:
474,97,145588,5,0,0:0:0:0:
411,50,145764,1,0,0:0:0:0:
332,48,145941,2,0,L|316:120,1,60,8|0,0:0|0:0,0:0:0:0:
306,183,146294,1,0,0:0:0:0:
343,250,146470,2,0,L|320:317,1,60,0|8,0:0|0:0,0:0:0:0:
167,310,146999,5,0,0:0:0:0:
104,263,147176,1,0,0:0:0:0:
87,187,147352,2,0,P|84:157|107:112,1,60,8|0,0:0|0:0,0:0:0:0:
130,60,147705,1,0,0:0:0:0:
193,14,147882,1,0,0:0:0:0:
235,79,148058,1,8,0:0:0:0:
303,115,148235,1,0,0:0:0:0:
366,160,148411,6,0,L|326:231,1,60
296,279,148764,1,0,0:0:0:0:
121,125,149294,1,0,0:0:0:0:
79,59,149470,1,8,0:0:0:0:
42,123,149646,1,0,0:0:0:0:
121,125,149823,6,0,P|140:145|170:159,2,60,0|0|8,0:0|0:0|0:0,0:0:0:0:
42,123,150352,1,0,0:0:0:0:
63,198,150529,1,0,0:0:0:0:
133,230,150705,2,0,P|161:242|182:264,1,60,0|8,0:0|0:0,0:0:0:0:
292,373,151235,5,0,0:0:0:0:
316,303,151411,1,0,0:0:0:0:
295,227,151588,2,0,L|279:155,1,60,8|0,0:0|0:0,0:0:0:0:
270,91,151941,1,0,0:0:0:0:
344,114,152117,2,0,L|360:184,1,60,0|8,0:0|0:0,0:0:0:0:
393,324,152647,6,0,L|409:394,2,60,0|0|8,0:0|0:0|0:0,0:0:0:0:
378,247,153176,1,0,0:0:0:0:
381,169,153352,2,0,P|401:138|431:124,1,60
489,88,153705,1,8,0:0:0:0:
429,36,153882,1,0,0:0:0:0:
355,62,154058,6,0,P|335:93|305:107,1,60
246,141,154411,1,8,0:0:0:0:
181,184,154588,2,0,P|201:215|231:229,1,60
290,263,154941,1,0,0:0:0:0:
345,317,155117,1,8,0:0:0:0:
386,383,155294,1,0,0:0:0:0:
440,318,155470,6,0,P|464:300|480:275,2,60,0|0|8,0:0|0:0|0:0,0:0:0:0:
404,246,155999,1,0,0:0:0:0:
419,169,156176,1,0,0:0:0:0:
474,113,156352,2,0,P|446:82|416:71,1,60,0|8,0:0|0:0,0:0:0:0:
282,127,156882,6,0,L|310:74,2,60,0|0|8,0:0|0:0|0:0,0:0:0:0:
241,194,157411,1,0,0:0:0:0:
168,223,157588,1,0,0:0:0:0:
90,222,157764,2,0,P|47:218|26:185,1,60,0|8,0:0|0:0,0:0:0:0:
114,72,158294,6,0,L|147:133,1,60
207,80,158647,2,0,L|240:141,1,60,8|0,0:0|0:0,0:0:0:0:
303,94,158999,2,0,L|336:155,1,60
370,214,159352,1,8,0:0:0:0:
84,70,163941,6,0,B|91:134|142:96|159:173,1,120,0|8,0:0|0:0,0:0:0:0:
177,234,164470,1,0,0:0:0:0:
237,284,164647,1,0,0:0:0:0:
308,315,164823,2,0,P|331:295|371:293,1,60,0|8,0:0|0:0,0:0:0:0:
437,295,165176,1,0,0:0:0:0:
405,223,165352,6,0,L|370:173,1,60
440,138,165705,2,0,L|406:88,1,60,8|0,0:0|0:0,0:0:0:0:
373,0,166058,2,0,P|325:35|309:92,1,120,0|8,0:0|0:0,0:0:0:0:
322,248,166764,5,0,0:0:0:0:
357,317,166941,1,0,0:0:0:0:
407,257,167117,2,0,L|447:180,1,60,8|0,0:0|0:0,0:0:0:0:
359,181,167470,2,0,L|332:128,1,60
279,69,167823,1,8,0:0:0:0:
203,47,168000,1,0,0:0:0:0:
130,75,168176,6,0,L|88:17,2,60,0|0|8,0:0|0:0|0:0,0:0:0:0:
182,133,168705,1,0,0:0:0:0:
119,179,168882,2,0,L|154:227,2,60,0|0|8,0:0|0:0|0:0,0:0:0:0:
68,119,169411,1,0,0:0:0:0:
130,75,169588,6,0,P|180:56|246:91,1,120,0|8,0:0|0:0,0:0:0:0:
291,138,170117,1,0,0:0:0:0:
346,193,170294,2,0,L|287:240,1,60
235,276,170647,1,8,0:0:0:0:
166,312,170823,1,0,0:0:0:0:
122,247,171000,6,0,L|80:204,1,60
27,146,171352,1,8,0:0:0:0:
83,92,171528,1,0,0:0:0:0:
160,85,171705,2,0,P|185:128|257:144,1,120,0|8,0:0|0:0,0:0:0:0:
402,112,172411,5,0,0:0:0:0:
467,68,172588,1,0,0:0:0:0:
480,144,172764,2,0,L|435:193,1,60,8|0,0:0|0:0,0:0:0:0:
497,240,173117,2,0,L|452:289,1,60
400,338,173470,1,8,0:0:0:0:
324,317,173647,1,0,0:0:0:0:
248,297,173823,6,0,P|203:275|189:217,1,90
178,204,174176,1,8,0:0:0:0:
238,155,174352,1,0,0:0:0:0:
309,123,174529,2,0,P|325:147|351:161,1,60
238,155,174882,2,0,P|226:124|230:95,1,60,8|0,0:0|0:0,0:0:0:0:
278,32,175235,6,0,P|219:19|145:56,1,120,0|8,0:0|0:0,0:0:0:0:
101,85,175764,1,0,0:0:0:0:
141,156,175941,2,0,L|178:204,1,60
238,155,176294,2,0,L|275:202,1,60,8|0,0:0|0:0,0:0:0:0:
325,259,176647,6,0,L|291:328,1,60
244,369,177000,2,0,P|207:359|187:335,1,60,8|0,0:0|0:0,0:0:0:0:
158,273,177352,2,0,P|165:212|114:158,1,120
337,54,178235,5,0,0:0:0:0:
397,102,178411,2,0,L|419:163,2,60
337,54,178941,1,0,0:0:0:0:
264,81,179117,2,0,L|212:132,1,60
159,170,179470,6,0,P|193:195|283:174,1,120
337,153,179999,1,0,0:0:0:0:
403,193,180176,2,0,P|460:205|511:175,1,120
256,192,180882,12,0,183705,0:0:0:0:
