osu file format v6

[General]
AudioFilename: Good Evening, Narvik.mp3
AudioLeadIn: 3000
PreviewTime: 60
Countdown: 0
SampleSet: Soft
StackLeniency: 0.7
Mode: 0
LetterboxInBreaks: 0
SkinPreference:Default

[Editor]
DistanceSpacing: 1
BeatDivisor: 8
GridSize: 8

[Metadata]
Title:Good evening, Narvik
Artist:Nam Goo-min
Creator:Jerrysr
Version:Hard
Source:TalesWeaver
Tags:Tales Weaver

[Difficulty]
HPDrainRate:5
CircleSize:5
OverallDifficulty:5
SliderMultiplier:0.8
SliderTickRate:2

[Events]
//Background and Video events
0,0,"TW.jpg"
//Break Periods
2,163936,165183
//Storyboard Layer 0 (Background)
//Storyboard Layer 1 (Fail)
//Storyboard Layer 2 (Pass)
//Storyboard Layer 3 (Foreground)
//Storyboard Sound Samples
//Background Colour Transformations
3,100,163,162,255

[TimingPoints]
60,441.176470588235,4,2,1,30,1,0
127559,-50,4,2,1,30,0,0
148736,-100,4,2,1,30,0,0

[Colours]
Combo1 : 15,184,240
Combo2 : 128,176,249
Combo3 : 5,75,239
Combo4 : 0,41,183
Combo5 : 4,34,113

[HitObjects]
56,240,60,5,0
136,240,501,1,0
216,240,942,1,0
296,240,1383,1,0
296,160,1824,1,0
376,160,2265,2,2,B|416:216|368:232,1,80,2|0
376,304,3148,1,2
128,72,3589,5,0
152,104,3810,1,0
176,136,4030,1,2
256,136,4471,1,0
336,136,4912,1,0
400,88,5354,1,0
464,40,5795,1,2
464,120,6236,1,0
464,200,6677,1,2
160,200,7118,5,0
160,240,7339,1,0
160,200,7559,1,2
80,200,8001,1,0
96,280,8442,1,0
160,328,8883,1,0
240,336,9324,2,2,B|288:328|320:304,1,80,2|0
376,256,10207,5,0
408,328,10648,1,0
376,256,11089,1,0
296,256,11530,1,0
216,256,11971,1,0
256,88,12412,1,0
256,48,12633,1,0
256,88,12854,1,2
376,296,14177,5,0
312,248,14618,1,0
232,248,15060,1,0
152,248,15501,1,0
104,184,15942,1,0
56,120,16383,2,2,B|56:64|104:56,1,80,2|0
176,56,17265,1,2
432,80,17707,5,0
448,120,17927,1,0
432,152,18148,1,2
360,112,18589,1,0
280,112,19030,1,0
200,112,19471,1,0
136,64,19912,1,2
72,112,20354,1,0
136,64,20795,1,2
112,320,21236,5,0
152,320,21457,1,0
136,280,21677,1,2
104,208,22118,1,0
104,128,22560,1,2
176,96,23001,1,0
256,96,23442,1,2
64,56,24324,5,2
144,56,24765,1,2
224,56,25207,1,2
144,56,25648,1,0
64,56,26089,1,0
104,120,26530,5,2
184,120,26971,1,2
264,120,27412,1,0
184,120,27854,1,0
352,328,28295,5,2
352,288,28515,1,2
352,328,28736,1,2
352,248,29177,1,0
424,272,29618,1,0
424,192,30060,1,0
352,160,30501,1,0
280,192,30942,1,0
200,168,31383,1,0
120,136,31824,1,0
352,320,32265,5,0
280,288,32707,1,0
208,320,33148,1,0
136,288,33589,1,0
168,216,34030,1,0
128,144,34471,1,0
168,216,34912,1,0
248,216,35354,1,0
456,336,35795,5,0
456,256,36236,1,2
376,256,36677,1,2
312,200,37118,1,0
232,200,37560,1,0
176,136,38001,1,2
96,136,38442,1,2
176,136,38883,1,0
256,136,39324,2,2,B|320:224|384:120,1,160,2|0
96,192,40648,5,0
64,168,40868,1,0
96,144,41089,1,2
168,168,41530,1,0
248,168,41971,5,0
288,168,42192,1,0
320,192,42412,1,0
336,232,42633,1,0
336,272,42854,1,2
256,272,43295,1,0
176,272,43736,1,2
144,192,44177,1,0
224,192,44618,1,2
192,120,45060,1,0
112,120,45501,1,2
144,192,45942,1,0
224,192,46383,1,2
304,192,46824,1,0
384,192,47265,1,2
144,88,47707,5,0
104,88,47927,1,0
64,88,48148,1,2
112,152,48589,1,0
192,152,49030,1,0
272,152,49471,1,2
64,328,49912,5,0
120,264,50354,1,2
200,264,50795,1,0
240,192,51236,1,2
160,192,51677,1,0
200,128,52118,1,2
280,128,52560,1,0
320,192,53001,1,2
352,128,53442,2,0,B|352:72|304:72,1,80
352,128,54324,2,0,B|400:128|416:176,1,80,0|2
352,128,55207,2,0,B|304:152|296:192,1,80,0|2
232,144,56089,1,0
432,320,56530,5,0
464,248,56971,1,2
432,176,57412,1,0
360,136,57854,1,2
280,128,58295,1,0
200,128,58736,1,2
336,48,59618,1,2
336,128,60060,1,0
296,128,60280,1,0
296,104,60390,1,0
296,80,60501,1,2
144,120,61383,5,0
144,200,61824,1,0
144,120,62265,1,0
144,40,62707,1,0
64,40,63148,1,2
432,192,63589,5,0
368,136,64030,1,0
288,136,64471,1,0
208,136,64912,1,0
144,88,65354,1,0
80,40,65795,1,2
40,112,66236,1,0
80,176,66677,1,2
256,328,67118,5,0
280,296,67339,1,0
256,264,67560,1,0
184,224,68001,1,0
144,152,68442,1,0
168,72,68883,1,0
248,56,69324,1,2
232,136,69765,1,0
248,56,70207,1,2
456,224,70648,5,0
440,256,70868,1,0
416,224,71089,1,0
336,200,71530,1,0
256,216,71971,1,0
192,264,72412,1,0
160,336,72854,2,2,B|96:368|96:312,1,80,2|0
80,240,73736,1,0
40,312,74177,1,0
80,240,74618,1,2
120,312,75060,1,0
160,240,75501,1,2
72,64,75942,5,0
72,104,76162,1,0
72,64,76383,1,2
352,320,77707,5,0
352,240,78148,1,0
432,240,78589,1,0
352,240,79030,1,0
352,160,79471,1,0
280,200,79912,1,2
200,200,80354,1,0
200,120,80795,1,2
64,320,81236,5,0
104,328,81457,1,0
144,336,81677,1,2
224,336,82118,1,0
304,336,82560,1,0
376,296,83001,1,0
416,224,83442,1,2
256,224,84324,1,2
88,80,84765,5,0
88,40,84986,1,0
88,80,85207,1,2
112,152,85648,1,0
160,208,86089,1,0
216,152,86530,1,0
272,208,86971,2,2,B|272:296,1,80,2|0
432,80,87854,5,0
336,56,88295,1,0
256,32,88736,1,2
176,32,89177,1,0
96,32,89618,1,0
96,112,90060,1,2
176,112,90501,1,2
256,112,90942,1,0
328,136,91383,1,2
72,224,91824,5,0
72,264,92045,1,0
72,224,92265,1,2
136,264,92707,1,2
216,256,93148,1,0
272,200,93589,1,2
336,152,94030,1,0
408,192,94471,1,2
472,152,94912,1,0
472,72,95354,1,2
472,320,95795,5,0
400,352,96236,1,2
328,312,96677,1,0
280,240,97118,1,2
240,176,97560,1,0
232,96,98001,1,2
168,144,98442,1,0
104,96,98883,1,2
432,120,99324,5,0
360,88,99765,1,2
280,88,100207,1,2
280,168,100648,1,0
200,168,101089,1,0
200,88,101530,1,2
120,88,101971,1,2
120,168,102412,1,0
120,248,102854,1,0
120,328,103295,1,2
120,248,103736,1,2
256,88,104177,5,0
256,48,104398,1,0
256,88,104618,1,0
336,96,105060,1,2
256,248,105501,5,0
224,272,105721,1,0
240,304,105942,1,0
280,304,106162,1,0
288,264,106383,1,2
360,232,106824,1,2
368,152,107265,1,0
304,96,107707,1,2
224,80,108148,1,0
144,72,108589,1,2
72,104,109030,1,0
32,176,109471,1,2
72,248,109912,1,0
104,176,110354,1,2
184,176,110795,1,0
440,152,111236,5,0
440,192,111457,1,0
440,232,111677,1,2
360,232,112118,1,0
360,152,112559,1,2
144,144,113442,5,0
224,144,113883,1,2
304,136,114324,1,2
384,128,114765,1,0
464,120,115207,1,0
440,192,115648,1,2
360,208,116089,1,2
280,208,116530,1,0
200,208,116971,1,0
200,288,117412,1,2
120,288,117854,1,0
120,208,118295,1,2
56,160,118736,1,0
96,88,119177,1,2
176,72,119618,1,2
416,256,120060,5,0
344,296,120501,1,0
264,312,120942,1,0
184,288,121383,1,0
128,240,121824,1,0
112,160,122265,1,2
136,80,122707,1,0
200,32,123148,1,2
248,96,123589,1,0
280,112,123810,1,2
296,112,123920,1,2
312,112,124030,1,2
392,120,124471,1,0
440,176,124912,1,2
120,72,125354,5,2
144,144,125795,2,2,B|176:224,1,80
248,192,126677,1,2
296,256,127118,1,2
64,80,127560,5,2
136,112,127780,1,0
216,120,128001,1,2
296,112,128221,1,0
368,88,128442,1,2
392,248,128883,1,2
240,208,129324,1,2
280,272,129545,1,0
224,328,129765,1,2
144,304,129986,1,0
96,240,130207,1,2
64,168,130427,1,0
112,104,130648,5,2
176,64,130868,1,2
112,104,131089,1,2
264,64,131530,1,2
264,224,131971,1,2
440,72,132412,5,2
376,120,132633,1,0
448,152,132854,1,2
256,304,133295,5,2
408,272,133736,1,2
328,264,133957,1,0
256,224,134177,1,2
184,264,134398,1,2
104,272,134618,1,2
376,104,135501,5,2
368,264,135942,1,2
328,192,136162,1,0
296,160,136273,1,2
280,152,136328,1,2
256,152,136383,1,2
96,168,136824,1,2
168,312,137265,1,2
248,168,137707,1,2
400,216,138148,1,2
320,232,138368,1,0
240,232,138589,1,2
192,192,138810,1,0
192,120,139030,1,2
96,312,139471,5,2
96,232,139692,1,0
96,312,139912,2,2,B|240:360|216:168,1,240
136,184,140795,1,2
456,56,141236,5,2
296,72,141677,1,2
224,104,141898,1,0
152,136,142118,1,2
192,208,142339,1,0
120,248,142560,1,2
264,312,143001,1,2
424,312,143442,1,2
96,88,143883,5,2
112,168,144104,1,2
192,176,144324,1,2
352,128,145207,1,2
384,280,145648,1,2
384,200,145868,1,0
352,128,146089,1,0
256,72,146383,5,0
256,176,146677,1,0
256,280,146971,1,0
176,264,147192,5,0
136,192,147412,1,2
136,112,147633,1,0
168,40,147854,1,2
392,256,148736,5,2
408,216,148957,1,0
392,176,149177,1,0
328,128,149618,1,2
248,136,150060,1,0
168,120,150501,1,2
320,336,150942,5,0
288,264,151383,1,0
320,336,151824,1,0
72,72,152265,5,2
144,40,152707,1,0
144,120,153148,1,2
216,88,153589,1,0
288,48,154030,2,2,B|352:64|352:104,1,80,2|0
360,168,154912,2,0,B|360:256|336:256,1,80,2|0
200,88,155795,5,2
152,152,156236,1,0
72,152,156677,1,2
96,224,157118,1,0
128,296,157560,2,2,B|160:328|208:312,1,80,2|0
400,112,158442,5,2
320,88,158883,1,0
240,64,159324,2,2,B|56:136|464:208|200:256,1,320,2|0
104,64,161530,5,0
184,48,161971,1,2
200,40,162082,1,2
216,40,162192,1,2
248,56,162412,1,2
304,112,162854,1,2
176,320,163295,5,0
160,280,163515,1,0
168,240,163736,1,2
256,152,166383,5,2
256,152,166824,1,2
136,256,167707,6,0,B|96:216|112:184,1,80,2|0
120,104,168589,1,0
200,136,169085,1,0
304,104,169692,1,0
368,248,170574,1,0
336,240,170684,1,0
304,224,170795,1,0
280,200,170905,1,0
264,168,171015,1,0
256,120,171181,1,2
