osu file format v5

[General]
AudioFilename: 01 Always Something There to Remind Me.mp3
AudioLeadIn: 0
AudioHash: ffc7ccf0e654937e0598eb70d8cc395e
PreviewTime: -1
Countdown: 1
SampleSet: Soft
EditorBookmarks: 90828,104292

[Metadata]
Title:Always Something There to Remind Me
Artist:Naked Eyes
Creator:Kidwii
Version:Easy

[Difficulty]
HPDrainRate:6
CircleSize:4
OverallDifficulty:4
SliderMultiplier: 1.4
SliderTickRate: 1

[Events]
//Background and Video events
//Break Periods
2,90927,101063
//Storyboard Layer 0 (Background)
//Storyboard Layer 1 (Failing)
//Storyboard Layer 2 (Passing)
//Storyboard Layer 3 (Foreground)
//Storyboard Sound Samples
//Background Colour Transformations
3,100,163,162,255

[TimingPoints]
300,401.902337731931,4,2,0,100

[HitObjects]
256,192,13964,1,2
128,96,15572,1,2
256,64,17179,1,2
384,96,18787,1,2
448,96,20395,6,0,B|448:96|448:192|352:192|288:128|224:96|160:128|128:192|128:256|96:192,1,420
128,224,22002,1,2
448,288,23610,1,0
64,32,25217,1,0
480,352,26825,2,0,B|480:352|448:256|384:256|288:352|192:256|224:96|384:64|512:224|0:288,1,700
32,32,30040,5,2
160,128,31648,1,2
288,224,33255,1,2
384,288,34863,6,0,B|384:288|384:128,2,140
288,288,36471,2,0,B|288:288|128:288,2,140
480,192,38681,5,0
384,192,39284,1,0
320,192,39686,1,0
192,192,40389,1,0
128,192,41294,6,0,B|128:192|128:32,2,140
160,192,42901,2,0,B|160:192|320:192,2,140
32,192,45212,5,2
128,192,45714,1,2
192,192,46116,1,2
320,192,46719,1,2
256,32,48126,5,2
256,192,49733,1,2
256,352,51341,1,2
32,32,52949,2,2,B|32:32|64:96|160:64|256:64|288:192|192:256|128:288|288:352|416:320|448:320,2,560
256,32,57772,1,0
384,192,59379,1,0
256,192,60987,1,0
32,32,63800,5,0
256,32,65408,1,0
480,32,67015,1,0
480,192,68623,6,0,B|480:192|480:352,2,140
448,160,70231,2,0,B|448:160|288:160,2,140
480,192,72541,5,0
384,192,73044,1,0
320,192,73446,1,0
192,192,74149,1,0
128,192,75053,6,0,B|128:192|128:352,2,140
128,128,76661,2,0,B|128:128|288:128,2,140
32,192,78972,5,0
128,192,79474,1,0
192,192,79876,1,0
320,192,80579,1,0
32,32,81886,5,2
256,32,83493,1,2
480,32,85101,1,2
480,192,86709,1,0
352,192,87914,1,4
320,192,89522,2,0,B|320:192|160:192,3,140
256,192,102383,5,4
32,32,104392,5,0
256,32,106000,1,0
480,32,107607,1,0
480,192,109215,1,0
480,352,110823,1,0
256,352,112430,1,0
32,352,114038,1,0
32,192,115645,1,0
32,32,117253,6,2,B|32:32|64:64|160:96|64:224|160:320|288:256|320:128|352:64|448:288,3,560
256,320,123684,5,2
128,192,125291,1,2
256,64,126899,1,2
384,192,128506,1,2
256,352,130114,2,2,B|256:352|0:192|256:32|416:192|416:352,1,560
480,352,132927,5,0
256,352,134535,1,0
32,352,136142,1,0
32,192,137750,6,0,B|32:192|32:32,2,140
96,192,139358,2,0,B|96:192|256:192,2,140
32,192,141669,5,0
128,192,142171,1,0
192,192,142573,1,0
320,192,143276,1,0
384,192,145788,6,0,B|384:192|384:32,2,140
384,192,148099,5,0
288,192,148601,1,0
224,192,149003,1,0
128,192,149606,1,0
32,192,151013,5,2
32,32,152620,1,2
256,32,154228,1,2
480,32,155836,1,2
480,192,157041,1,4
416,192,158649,6,0,B|416:192|384:256|256:352|64:256|96:96|256:32|320:32,1,560
352,32,161864,6,4,B|352:32|352:192,2,140
352,32,163472,2,4,B|352:32|512:32,2,140
480,192,165682,5,2
384,192,166285,1,2
288,192,166687,1,2
160,192,167390,1,2
64,192,169902,6,0,B|64:192|64:32,2,140
32,192,172213,5,0
128,192,172716,1,0
192,192,173118,1,0
288,192,173821,1,0
256,192,174625,12,0,185175
