osu file format v12

[General]
AudioFilename: Nakayama Arisa - Heart To Heart.OGG
AudioLeadIn: 2000
PreviewTime: 59026
Countdown: 0
SampleSet: Soft
StackLeniency: 0.7
Mode: 0
LetterboxInBreaks: 0

[Editor]
Bookmarks: 17526,31429,45342,59048,72961
DistanceSpacing: 1
BeatDivisor: 4
GridSize: 4

[Metadata]
Title:Heart To Heart (Short Ver.)
TitleUnicode:Heart To Heart (Short Ver.)
Artist:Nakayama Arisa
ArtistUnicode:中山愛梨沙
Creator:Sonnyc
Version:Tari's Easy
Source:ToHeart2
Tags:Underflow kusugawa sasara leaf Taris opening eroge visual novel Tari mys aquaplus
BeatmapID:186015
BeatmapSetID:56756

[Difficulty]
HPDrainRate:2
CircleSize:2
OverallDifficulty:2
ApproachRate:3
SliderMultiplier:1
SliderTickRate:2

[Events]
//Background and Video events
Video,0,"TH2OP.avi"
0,0,"BG.jpg",0,0
//Break Periods
//Storyboard Layer 0 (Background)
//Storyboard Layer 1 (Fail)
//Storyboard Layer 2 (Pass)
//Storyboard Layer 3 (Foreground)
//Storyboard Sound Samples
//Background Colour Transformations
3,100,0,0,0

[TimingPoints]
113,434.782608695652,4,2,1,50,1,0
7069,-100,4,2,1,55,0,0
8808,-100,4,2,1,60,0,0
12069,-100,4,1,1,50,0,0
13917,-100,4,2,1,60,0,0
41852,-100,4,1,1,50,0,0
43808,-100,4,2,1,35,0,0
44678,-125,4,2,1,60,0,0
45330,-125,4,2,1,40,0,0
56634,-100,4,2,1,60,0,0
59026,-100,4,2,1,70,0,1
69243,-100,4,2,1,70,0,0
72939,-100,4,2,1,70,0,1
85221,-100,4,2,1,70,0,1
86852,-100,4,2,1,80,0,0
87504,-100,4,2,1,60,0,0
87939,-100,4,2,1,40,0,0
88373,-100,4,2,1,20,0,0
88808,-100,4,2,1,10,0,0
89678,-100,4,2,1,5,0,0

[Colours]
Combo1 : 255,255,128
Combo2 : 255,157,60
Combo3 : 255,136,196
Combo4 : 209,164,255

[HitObjects]
108,312,113,2,0,B|64:240|104:156|160:132,1,200,4|0,0:0|0:0,0:0:0:0:
276,56,1634,2,0,B|328:28|416:48|456:128|440:200,1,250,2|0,0:0|0:0,0:0:0:0:
476,276,3156,1,2,0:0:0:0:
400,340,3591,6,0,B|320:356|256:292,1,150
168,264,4678,1,2,0:0:0:0:
104,188,5112,2,0,B|164:148|224:176|224:176|268:128|344:148,1,250,2|2,0:0|0:0,0:0:0:0:
392,64,6634,5,0,0:0:0:0:
476,108,7069,2,0,B|504:176|492:268,1,150,4|0,0:0|0:0,0:0:0:0:
360,328,8373,1,2,0:0:0:0:
264,292,8808,2,0,B|253:212|281:144,1,150
140,92,10112,6,0,B|92:72|32:96,1,100,2|0,0:0|0:0,0:0:0:0:
92,180,10982,2,0,B|67:256|133:316,1,150,2|0,0:0|0:0,0:0:0:0:
280,328,12286,2,0,L|316:168,2,150,4|0|8,0:0|0:0|0:0,0:0:0:0:
256,192,14026,12,0,16199,0:0:0:0:
268,76,17504,5,4,0:0:0:0:
364,112,17939,2,0,B|427:116|466:162,1,100,8|0,0:0|0:0,0:0:0:0:
444,248,18808,2,0,B|480:300|464:364,1,100,8|0,0:0|0:0,0:0:0:0:
372,312,19678,2,0,B|320:356|208:348|168:296,1,200,8|8,0:0|0:0,0:0:0:0:
112,244,20982,5,4,0:0:0:0:
184,176,21417,2,0,B|276:112|384:180,1,200,8|8,0:0|0:0,0:0:0:0:
336,264,22721,2,0,P|408:268|468:216,2,150,0|0|8,0:0|0:0|0:0,0:0:0:0:
264,332,24460,6,0,B|196:360|104:328|80:256,1,200,4|0,0:0|0:0,0:0:0:0:
20,208,25765,2,0,P|8:144|20:100,1,100,8|0,0:0|0:0,0:0:0:0:
104,160,26634,1,8,0:0:0:0:
132,64,27069,6,0,B|176:28|232:36,2,100,0|8|0,0:0|0:0|0:0,0:0:0:0:
204,132,28373,1,8,0:0:0:0:
252,220,28808,2,0,P|296:312|392:292,1,200
444,164,30330,5,4,0:0:0:0:
340,56,30982,1,8,0:0:0:0:
256,112,31417,5,4,0:0:0:0:
160,144,31852,2,0,B|108:144|76:212|104:284|168:280,1,200,8|8,0:0|0:0,0:0:0:0:
260,268,33156,2,0,B|320:244|356:296|356:296|384:328|444:328,1,200
448,228,34460,1,8,0:0:0:0:
412,136,34895,5,4,0:0:0:0:
312,152,35330,2,0,B|260:176|200:148,1,100,8|0,0:0|0:0,0:0:0:0:
256,64,36199,2,0,B|200:44|152:72,1,100,8|0,0:0|0:0,0:0:0:0:
68,116,37069,2,0,B|60:196|180:236|169:306,1,200,8|8,0:0|0:0,0:0:0:0:
256,330,38373,5,4,0:0:0:0:
343,283,38808,2,0,B|332:236|452:196|444:116,1,200,8|8,0:0|0:0,0:0:0:0:
369,53,40112,1,0,0:0:0:0:
269,44,40547,1,8,0:0:0:0:
176,80,40982,6,0,B|124:60|60:100,1,100,0|8,0:0|0:0,0:0:0:0:
140,172,41852,2,0,B|116:252|152:328,1,150,4|4,0:0|0:0,0:0:0:0:
240,284,42939,2,0,B|216:228|240:180,1,100,0|4,0:0|0:0,0:0:0:0:
324,64,44026,2,4,B|372:136|324:224,1,150,8|6,0:0|0:0,0:0:0:0:
372,308,45330,6,0,B|312:344|256:316|256:316|192:348|140:312,1,240,4|8,0:0|0:0,0:0:0:0:
96,276,47069,2,0,B|132:228|120:148,1,120,2|0,0:0|0:0,0:0:0:0:
188,96,48373,2,0,B|224:68|280:76,1,80,8|4,0:0|0:0,0:0:0:0:
320,100,49243,6,0,B|352:184|320:268,1,160,0|8,0:0|0:0,0:0:0:0:
292,312,50547,1,2,0:0:0:0:
228,316,50982,2,0,B|180:244|212:148,1,160,0|8,0:0|0:0,0:0:0:0:
204,100,52286,6,0,B|252:84|296:88,2,80,2|0|0,0:0|0:0|0:0,0:0:0:0:
144,80,53591,1,8,0:0:0:0:
84,100,54026,2,0,B|48:156|112:232|164:212,1,160,2|0,0:0|0:0,0:0:0:0:
208,184,55330,2,8,B|272:168|316:204|372:192,1,160,8|8,0:0|0:0,0:0:0:0:
460,228,56634,6,0,B|452:300|360:352,1,150,0|4,0:0|0:0,0:0:0:0:
276,328,57721,2,0,B|208:328,2,50,0|2|0,0:0|0:0|0:0,0:0:0:0:
104,224,59026,6,0,B|138:153|210:121,1,150,4|8,0:0|0:0,0:0:0:0:
284,56,60112,2,0,B|352:80|436:40,2,150,0|2|8,0:0|0:0|0:0,0:0:0:0:
312,152,61852,2,0,B|332:200|316:264,1,100,0|8,0:0|0:0,0:0:0:0:
228,212,62721,6,0,B|160:172|72:200,1,150
100,296,63808,2,0,B|156:280|212:316,1,100,0|2,0:0|0:0,0:0:0:0:
348,320,64895,2,0,L|448:276,1,100,8|0,0:0|0:0,0:0:0:0:
444,180,65765,5,8,0:0:0:0:
416,84,66199,2,0,B|392:40|312:24|264:60,1,150,4|0,0:0|0:0,0:0:0:0:
168,148,67504,1,8,0:0:0:0:
172,248,67939,2,0,B|184:288|268:312|312:280,1,150
432,208,69243,1,8,0:0:0:0:
508,144,69678,5,4,0:0:0:0:
416,104,70112,2,0,P|344:132|324:208,1,150,8|0,0:0|0:0,0:0:0:0:
416,312,71417,2,0,P|312:352|224:304,1,200,0|8,0:0|0:0,0:0:0:0:
272,172,72939,6,0,B|212:116|116:156,1,150,4|8,0:0|0:0,0:0:0:0:
80,228,74026,2,0,B|32:264|32:264|52:304|20:364,2,150,0|2|8,0:0|0:0|0:0,0:0:0:0:
172,268,75765,2,0,P|224:272|288:252,1,100,0|8,0:0|0:0,0:0:0:0:
368,232,76634,6,0,B|436:192|436:192|448:120,1,150
368,60,77721,1,2,0:0:0:0:
272,84,78156,2,0,B|200:132|92:36|16:80,1,250,4|2,0:0|0:0,0:0:0:0:
64,168,79678,5,8,0:0:0:0:
80,268,80113,2,0,B|108:344|212:364,1,150,4|0,0:0|0:0,0:0:0:0:
304,260,81417,1,8,0:0:0:0:
320,359,81852,2,0,B|404:344|432:268,1,150,2|0,0:0|0:0,0:0:0:0:
364,136,83156,5,8,0:0:0:0:
424,56,83591,2,0,B|340:16|280:80,1,150,4|0,0:0|0:0,0:0:0:0:
236,160,84678,1,2,0:0:0:0:
108,236,85330,6,0,B|132:316|228:316,1,150,2|0,0:0|0:0,0:0:0:0:
284,236,86417,1,2,0:0:0:0:
256,192,86852,12,0,90982,0:0:0:0:
