osu file format v12

[General]
AudioFilename: Nakayama Arisa - Heart To Heart.OGG
AudioLeadIn: 2000
PreviewTime: 59026
Countdown: 0
SampleSet: Soft
StackLeniency: 0.7
Mode: 0
LetterboxInBreaks: 0

[Editor]
Bookmarks: 17504,45342,50539,59048,72961,31417
DistanceSpacing: 1
BeatDivisor: 4
GridSize: 4

[Metadata]
Title:Heart To Heart (Short Ver.)
TitleUnicode:Heart To Heart (Short Ver.)
Artist:Nakayama Arisa
ArtistUnicode:中山愛梨沙
Creator:Sonnyc
Version:Normal
Source:ToHeart2
Tags:Underflow kusugawa sasara leaf Taris opening eroge visual novel Tari mys aquaplus
BeatmapID:183803
BeatmapSetID:56756

[Difficulty]
HPDrainRate:4
CircleSize:3
OverallDifficulty:4
ApproachRate:5
SliderMultiplier:1.2
SliderTickRate:2

[Events]
//Background and Video events
Video,0,"TH2OP.avi"
0,0,"BG.jpg",0,0
//Break Periods
//Storyboard Layer 0 (Background)
//Storyboard Layer 1 (Fail)
//Storyboard Layer 2 (Pass)
//Storyboard Layer 3 (Foreground)
//Storyboard Sound Samples
//Background Colour Transformations
3,100,0,0,0

[TimingPoints]
113,434.782608695652,4,2,1,50,1,0
7069,-100,4,2,1,55,0,0
8808,-100,4,2,1,60,0,0
12286,-100,4,1,1,50,0,0
13917,-100,4,2,1,60,0,0
15765,-100,4,2,1,50,0,0
17504,-100,4,2,1,60,0,0
41634,-100,4,2,1,70,0,0
41852,-100,4,1,1,50,0,0
43265,-133.333333333333,4,1,1,50,0,0
44678,-133.333333333333,4,2,1,60,0,0
58156,-133.333333333333,4,2,1,40,0,0
59026,-100,4,2,1,70,0,1
69243,-100,4,2,1,70,0,0
72939,-100,4,2,1,70,0,1
85112,-100,4,1,1,65,0,1
86852,-100,4,2,1,70,0,0
87504,-100,4,2,1,60,0,0
87939,-100,4,2,1,40,0,0
88373,-100,4,2,1,20,0,0
88808,-100,4,2,1,10,0,0
89678,-100,4,2,1,5,0,0

[Colours]
Combo1 : 255,255,128
Combo2 : 255,157,60
Combo3 : 255,136,196
Combo4 : 209,164,255

[HitObjects]
180,284,113,6,0,P|256:325|332:284,1,180,0|2,0:0|0:0,0:0:0:0:
428,64,1634,6,0,P|352:80|312:168,1,180,0|2,0:0|0:0,0:0:0:0:
392,240,2721,2,0,P|372:192|311:166,1,120,0|2,0:0|0:0,0:0:0:0:
192,176,3591,6,0,B|124:216|156:284|84:316,1,180
20,220,4678,1,2,0:0:0:0:
60,108,5112,2,0,P|144:48|328:80,1,300,2|2,0:0|0:0,0:0:0:0:
420,160,6634,1,0,0:0:0:0:
332,240,7069,6,0,B|332:300|332:300|356:328|400:348|444:340,2,180,0|0|2,0:0|0:0|0:0,0:0:0:0:
256,148,8808,1,0,0:0:0:0:
180,240,9243,2,0,L|180:300,1,60,2|0,0:0|0:0,0:0:0:0:
68,260,9895,2,0,L|68:200,1,60,0|2,0:0|0:0,0:0:0:0:
144,108,10547,6,0,P|220:108|264:192,1,180
263,312,11634,1,2,0:0:0:0:
428,244,12286,6,0,P|472:196|428:104,1,180,4|4,2:1|2:1,2:0:0:0:
348,192,13373,2,0,P|320:244|344:296,1,120,4|0,2:1|2:1,2:0:0:0:
256,192,14026,12,0,16199,1:0:0:0:
184,100,17504,6,0,P|132:128|112:184,1,120,4|2,0:1|0:0,0:0:0:0:
64,220,18156,2,0,P|76:264|192:304,1,180,0|2,0:0|0:0,0:0:0:0:
276,220,19243,2,0,B|316:264|308:328|308:328|340:320|372:328,1,180
492,196,20547,1,2,0:0:0:0:
428,96,20982,6,0,P|388:140|372:200,1,120,0|2,0:0|0:0,0:0:0:0:
364,256,21634,2,0,P|276:260|228:188,1,180,0|2,0:0|0:0,0:0:0:0:
208,72,22721,2,0,B|160:84|136:112|124:132|124:132|88:156|52:132,1,180
60,312,24026,2,0,P|112:344|172:340,1,120,2|0,0:0|0:0,0:0:0:0:
192,284,24678,6,0,P|228:272|256:268,1,60,0|2,0:0|0:0,0:0:0:0:
360,224,25330,2,0,B|392:188|352:140|308:152|308:152|260:160|224:120|240:80,1,240
348,32,26634,1,2,0:0:0:0:
448,96,27069,6,0,P|480:152|484:208,1,120,0|2,0:0|0:0,0:0:0:0:
432,316,27939,1,0,0:0:0:0:
344,232,28373,2,0,P|316:204|292:188,2,60,2|0|0,0:0|0:0|0:0,0:0:0:0:
288,340,29243,1,2,0:0:0:0:
176,296,29678,6,0,L|124:264,1,60,0|2,0:0|0:0,0:0:0:0:
112,208,30112,2,0,L|60:176,1,60,2|2,0:0|0:0,0:0:0:0:
156,28,30982,5,8,0:0:0:0:
264,76,31417,6,0,P|296:132|352:136,1,120,4|2,0:1|0:0,0:0:0:0:
404,124,32069,2,0,P|460:120|496:224,1,180,0|2,0:0|0:0,0:0:0:0:
412,304,33156,2,0,P|352:328|296:312,1,120,0|2,0:0|0:0,0:0:0:0:
284,256,33808,2,0,B|240:244|204:264|204:264|176:256|152:228|160:188,1,180,0|2,0:0|0:0,0:0:0:0:
272,140,34895,5,0,0:0:0:0:
320,104,35112,2,0,P|316:68|300:48,1,60,0|2,0:0|0:0,0:0:0:0:
244,56,35547,2,0,B|192:72|192:72|168:100|144:136|160:188,1,180,0|2,0:0|0:0,0:0:0:0:
276,212,36634,2,0,B|280:248|296:272|296:272|276:280|260:316,1,120,0|2,0:0|0:0,0:0:0:0:
212,280,37286,2,0,B|188:300|180:328|180:328|148:352|100:348|68:304,1,180,0|2,0:0|0:0,0:0:0:0:
104,192,38373,5,0,0:0:0:0:
96,132,38591,2,0,B|64:128|64:128|36:136,2,60,0|2|0,0:0|0:0|0:0,0:0:0:0:
128,80,39243,2,0,B|160:92|188:84|188:84|200:112|228:128,1,120,0|2,0:0|0:0,0:0:0:0:
332,184,40112,2,0,B|392:188|384:220|444:225,1,120,0|2,0:0|0:0,0:0:0:0:
476,108,40982,6,0,P|460:68|424:40,2,90,0|2|2,0:0|0:0|0:0,0:0:0:0:
457,186,41852,2,4,B|422:176|400:152|397:115|397:115|374:97|345:90|318:92,1,180
200,96,42939,1,0,0:0:0:0:
240,208,43373,6,0,P|236:304|84:320,1,270.000010299683,4|0,0:0|0:0,0:0:0:0:
24,160,45330,6,0,B|40:120|72:104|72:104|96:128|132:124|132:124|156:100|156:64|156:64|184:52|220:60,1,270.000010299683,2|0,0:0|0:0,0:0:0:0:
292,152,47069,2,0,P|272:188|192:236,1,135.000005149841,2|0,0:0|0:0,0:0:0:0:
20,240,48373,1,2,0:0:0:0:
100,328,48808,6,0,P|164:360|240:352,1,135.000005149841,0|2,0:0|0:0,0:0:0:0:
388,288,50112,1,0,0:0:0:0:
448,188,50547,2,0,B|416:164|372:164|344:180|344:180|320:172,1,135.000005149841
224,104,51634,2,0,P|244:80|264:68,2,45.0000017166138,2|0|2,0:0|0:0|0:0,0:0:0:0:
200,156,52286,6,0,P|200:208|248:272,1,135.000005149841
412,208,53591,1,2,0:0:0:0:
372,320,54026,2,0,P|328:360|256:372,1,135.000005149841
200,204,55330,1,2,0:0:0:0:
92,248,55765,6,0,P|84:188|116:120,1,135.000005149841
196,40,56852,1,0,0:0:0:0:
256,36,57069,1,2,0:0:0:0:
312,56,57286,2,0,B|312:104|300:132|272:156|272:156|260:192|288:220,1,180.000006866455,4|0,0:0|1:0,0:0:0:0:
452,336,59026,6,0,P|388:288|380:192,1,180,4|2,0:1|0:0,0:0:0:0:
372,136,59895,2,0,P|285:89|204:116,1,180,2|2,0:0|0:0,0:0:0:0:
160,140,60765,6,0,B|148:176|168:204|168:204|172:244|136:280|84:268,1,180,0|2,0:0|0:0,0:0:0:0:
72,216,61634,2,0,B|60:184|60:184|48:144|52:88|108:56,1,180,2|2,0:0|0:0,0:0:0:0:
224,44,62721,6,0,B|268:36|308:56|308:56|288:100|296:148,1,180,2|0,0:0|0:0,0:0:0:0:
412,116,63808,1,2,0:0:0:0:
476,216,64243,2,0,B|420:260|352:232|352:232|316:244|300:284|300:284|264:308|212:288,1,300
148,184,65765,5,2,0:0:0:0:
172,68,66199,2,0,B|224:76|256:100|256:100|288:76|340:68,1,180
364,248,67504,1,2,0:0:0:0:
340,364,67938,2,0,B|288:356|256:332|256:332|224:356|172:364,2,180,0|0|2,0:0|0:0|0:0,0:0:0:0:
456,328,69678,6,0,P|500:288|496:232,1,120,0|2,0:0|0:0,0:0:0:0:
436,224,70330,2,0,P|417:167|449:120,1,120,2|0,0:0|0:0,0:0:0:0:
280,56,71417,6,0,B|228:88|232:140|232:140|196:116|148:124,1,180,2|2,0:0|0:0,0:0:0:0:
124,360,72939,6,2,P|184:352|252:260,1,180,4|2,0:1|0:0,0:0:0:0:
256,200,73808,1,2,0:0:0:0:
192,100,74243,2,0,P|152:112|136:128,1,60,0|2,0:0|0:0,0:0:0:0:
100,168,74678,6,0,P|52:128|84:28,1,180,0|2,0:0|0:0,0:0:0:0:
144,20,75547,2,0,B|200:12|236:28|236:28|272:44|320:36,1,180,2|2,0:0|0:0,0:0:0:0:
380,32,76417,5,0,0:0:0:0:
380,32,76634,2,0,P|468:72|464:144,1,180,2|0,0:0|0:0,0:0:0:0:
372,220,77721,1,2,0:0:0:0:
296,128,78156,2,0,B|248:152|244:200|244:200|216:240|160:228|160:228|100:244|96:316,1,300
208,352,79678,5,2,0:0:0:0:
308,288,80112,2,0,B|332:316|336:348|336:348|380:364|420:348|436:316,1,180
456,200,81199,2,0,P|424:196|396:204,1,60,0|2,0:0|0:0,0:0:0:0:
328,104,81852,6,0,B|304:76|300:44|300:44|256:28|216:44|200:76,1,180
238,188,82939,2,0,P|212:196|180:192,1,60,0|2,0:0|0:0,0:0:0:0:
64,156,83591,6,0,P|60:216|88:268,1,120,0|2,0:0|0:0,0:0:0:0:
56,320,84243,2,0,P|104:352|168:348,1,120,0|2,0:0|0:0,0:0:0:0:
340,308,85330,5,4,2:1:0:0:
364,192,85765,1,0,2:1:0:0:
416,160,85982,1,4,2:1:0:0:
444,44,86417,1,4,2:1:0:0:
256,192,86852,12,0,90982,0:0:0:0:
