osu file format v12

[General]
AudioFilename: Nakayama Arisa - Heart To Heart.OGG
AudioLeadIn: 2000
PreviewTime: 59026
Countdown: 0
SampleSet: Soft
StackLeniency: 0.7
Mode: 0
LetterboxInBreaks: 0

[Editor]
DistanceSpacing: 1
BeatDivisor: 4
GridSize: 4

[Metadata]
Title:Heart To Heart (Short Ver.)
TitleUnicode:Heart To Heart (Short Ver.)
Artist:Nakayama Arisa
ArtistUnicode:中山愛梨沙
Creator:Sonnyc
Version:Hardflow
Source:ToHeart2
Tags:Underflow kusugawa sasara leaf Taris opening eroge visual novel Tari mys aquaplus
BeatmapID:184526
BeatmapSetID:56756

[Difficulty]
HPDrainRate:5
CircleSize:4
OverallDifficulty:6
ApproachRate:7
SliderMultiplier:1.6
SliderTickRate:2

[Events]
//Background and Video events
Video,0,"TH2OP.avi"
0,0,"BG.jpg",0,0
//Break Periods
//Storyboard Layer 0 (Background)
//Storyboard Layer 1 (Fail)
//Storyboard Layer 2 (Pass)
//Storyboard Layer 3 (Foreground)
//Storyboard Sound Samples
//Background Colour Transformations
3,100,0,0,0

[TimingPoints]
113,434.782608695652,4,2,1,50,1,0
12286,-100,4,2,1,60,0,0
14460,-100,4,2,1,50,0,0
15330,-100,4,2,1,40,0,0
15765,-100,4,2,1,30,0,0
16199,-100,4,2,1,20,0,0
16634,-100,4,2,1,60,0,0
17504,-90.9090909090909,4,2,1,60,0,0
45330,-111.111111111111,4,2,1,40,0,0
55765,-100,4,2,1,50,0,0
59026,-90.9090909090909,4,2,1,60,0,1
86852,-90.9090909090909,4,2,1,60,0,0
87939,-90.9090909090909,4,2,1,50,0,0
88808,-90.9090909090909,4,2,1,40,0,0
89243,-90.9090909090909,4,2,1,30,0,0
89678,-90.9090909090909,4,2,1,20,0,0
90112,-90.9090909090909,4,2,1,10,0,0
90547,-90.9090909090909,4,2,1,5,0,0

[Colours]
Combo1 : 255,255,128
Combo2 : 255,157,60
Combo3 : 255,136,196
Combo4 : 209,164,255

[HitObjects]
416,96,113,2,0,B|428:160|408:216|360:244,1,160,0|2,0:0|0:0,0:0:0:0:
296,276,765,1,0,0:0:0:0:
216,260,982,2,0,B|128:236,2,80,0|0|2,0:0|0:0|0:0,0:0:0:0:
236,100,1852,6,0,B|324:120,2,80,0|0|2,0:0|0:0|0:0,0:0:0:0:
156,108,2504,1,0,0:0:0:0:
96,160,2721,2,0,B|52:228,1,80
92,308,3156,2,0,B|136:240,1,80,2|0,0:0|0:0,0:0:0:0:
196,188,3591,5,0,0:0:0:0:
272,164,3808,1,0,0:0:0:0:
344,196,4026,1,2,0:0:0:0:
392,260,4243,2,0,B|416:304|456:308|456:308,1,80
464,228,4678,2,0,B|440:184|400:180|400:180,1,80,0|2,0:0|0:0,0:0:0:0:
324,168,5112,1,0,0:0:0:0:
248,192,5330,6,0,L|160:220,2,80,0|0|2,0:0|0:0|0:0,0:0:0:0:
400,148,6199,2,0,L|476:123,2,80,0|0|2,0:0|0:0|0:0,0:0:0:0:
320,288,7069,6,0,B|292:328|224:340|172:320,1,160,0|2,0:0|0:0,0:0:0:0:
100,288,7721,1,0,0:0:0:0:
76,212,7939,2,0,B|56:136,1,80
116,68,8373,2,0,B|136:145,1,80,2|0,0:0|0:0,0:0:0:0:
188,208,8808,6,0,B|228:240|288:248|344:236,1,160,0|2,0:0|0:0,0:0:0:0:
416,212,9460,1,0,0:0:0:0:
468,152,9678,2,0,B|500:76,2,80,0|0|2,0:0|0:0|0:0,0:0:0:0:
332,72,10547,6,0,B|296:40|224:32|172:48,1,160,0|2,0:0|0:0,0:0:0:0:
248,116,11199,2,0,B|188:108|136:132|108:180,1,160
200,196,11852,2,0,B|168:224|176:276,1,80,2|0,0:0|0:0,0:0:0:0:
256,256,12286,6,0,B|296:288|348:296|408:288,1,160,4|0,0:0|0:0,0:0:0:0:
408,287,12939,1,4,0:0:0:0:
352,136,13373,1,8,0:0:0:0:
352,136,13591,1,8,0:0:0:0:
352,136,13808,1,0,0:0:0:0:
256,192,13917,12,0,16199,0:0:0:0:
392,112,16634,5,0,0:0:0:0:
392,112,16852,2,0,B|424:92,3,26.6666666666667,0|0|0|8,0:0|0:0|0:0|0:0,0:0:0:0:
200,80,17504,5,4,0:0:0:0:
200,80,17721,2,0,B|100:64,1,88.000002685547,0|8,0:0|0:0,0:0:0:0:
144,152,18156,2,0,B|84:160|40:208|32:272,1,176.000005371094
128,248,18808,2,0,B|104:288|120:336,1,88.000002685547,8|0,0:0|0:0,0:0:0:0:
200,296,19243,6,0,B|380:280,1,176.000005371094,0|8,0:0|0:0,0:0:0:0:
375,280,19895,1,0,0:0:0:0:
404,196,20112,2,0,B|316:204,2,88.000002685547,0|0|8,0:0|0:0|0:0,0:0:0:0:
264,88,20982,5,0,0:0:0:0:
264,88,21199,2,0,B|352:80,2,88.000002685547,0|8|0,0:0|0:0|0:0,0:0:0:0:
320,168,21852,1,0,0:0:0:0:
320,168,22069,2,0,B|404:200,2,88.000002685547,0|8|0,0:0|0:0|0:0,0:0:0:0:
284,248,22721,6,0,B|260:308|212:336|144:328,1,176.000005371094,0|8,0:0|0:0,0:0:0:0:
144,328,23373,1,0,0:0:0:0:
184,240,23591,2,0,B|136:164,2,88.000002685547,0|0|8,0:0|0:0|0:0,0:0:0:0:
308,112,24460,5,0,0:0:0:0:
220,92,24678,1,0,0:0:0:0:
220,92,24895,2,0,L|128:68,1,88.000002685547,8|0,0:0|0:0,0:0:0:0:
132,160,25330,2,0,P|56:224|48:320,1,176.000005371094,0|8,0:0|0:0,0:0:0:0:
92,368,25982,1,0,0:0:0:0:
172,332,26199,6,0,B|212:284|280:272|348:296,1,176.000005371094,0|8,0:0|0:0,0:0:0:0:
333,291,26852,1,0,0:0:0:0:
356,208,27069,2,0,L|324:124,2,88.000002685547,0|0|8,0:0|0:0|0:0,0:0:0:0:
436,248,27721,1,0,0:0:0:0:
436,248,27939,6,0,B|484:216|492:144|460:88,1,176.000005371094,0|8,0:0|0:0,0:0:0:0:
460,89,28591,1,0,0:0:0:0:
396,160,28808,1,0,0:0:0:0:
308,180,29026,1,0,0:0:0:0:
224,156,29243,1,8,0:0:0:0:
168,88,29460,1,0,0:0:0:0:
136,172,29678,5,0,0:0:0:0:
100,252,29895,2,0,B|60:336,2,88.000002685547,0|8|8,0:0|0:0|0:0,0:0:0:0:
260,328,30765,2,0,B|308:316,3,29.3333342285157,0|0|0|8,0:0|0:0|0:0|0:0,0:0:0:0:
404,224,31417,5,4,0:0:0:0:
404,224,31634,2,0,B|420:132,1,88.000002685547,0|8,0:0|0:0,0:0:0:0:
332,156,32069,2,0,B|304:104|232:84|176:100,1,176.000005371094
236,180,32721,2,0,B|184:172|148:204,1,88.000002685547,8|0,0:0|0:0,0:0:0:0:
216,264,33156,6,0,B|192:320|120:348|64:332,1,176.000005371094,0|8,0:0|0:0,0:0:0:0:
68,333,33808,1,0,0:0:0:0:
116,248,34026,2,0,B|80:168,2,88.000002685547,0|0|8,0:0|0:0|0:0,0:0:0:0:
216,104,34895,5,0,0:0:0:0:
216,104,35112,2,0,B|308:80,2,88.000002685547,0|8|0,0:0|0:0|0:0,0:0:0:0:
284,176,35765,1,0,0:0:0:0:
284,176,35982,2,0,B|200:200,2,88.000002685547,0|8|0,0:0|0:0|0:0,0:0:0:0:
264,272,36634,6,0,B|292:324|356:352|416:336,1,176.000005371094,0|8,0:0|0:0,0:0:0:0:
414,336,37286,1,0,0:0:0:0:
364,252,37504,2,0,B|396:168,2,88.000002685547,0|0|8,0:0|0:0|0:0,0:0:0:0:
208,172,38373,5,0,0:0:0:0:
208,172,38591,2,0,B|168:260,2,88.000002685547,0|8|0,0:0|0:0|0:0,0:0:0:0:
288,132,39243,2,0,P|364:152|420:132,2,132.00000402832
236,60,40112,6,0,B|184:28|108:32|68:64,1,176.000005371094,0|8,0:0|0:0,0:0:0:0:
69,63,40765,1,0,0:0:0:0:
156,120,40982,2,0,B|156:216,2,88.000002685547,0|0|8,0:0|0:0|0:0,0:0:0:0:
156,120,41634,1,8,0:0:0:0:
240,168,41852,6,0,B|272:132|352:116|412:148,1,176.000005371094,4|8,0:0|0:0,0:0:0:0:
336,212,42504,2,0,B|392:208|456:256|468:312,1,176.000005371094,4|0,0:0|0:0,0:0:0:0:
467,311,43156,1,8,0:0:0:0:
368,308,43373,6,0,B|192:348,1,176.000005371094,4|0,0:0|0:0,0:0:0:0:
224,252,44026,2,0,B|132:236,1,88.000002685547,8|0,0:0|0:0,0:0:0:0:
192,156,44460,2,0,B|120:104,1,88.000002685547,8|0,0:0|0:0,0:0:0:0:
56,268,45112,1,8,0:0:0:0:
136,280,45330,6,0,B|212:296,1,71.9999978027344,4|0,0:0|0:0,0:0:0:0:
256,232,45765,2,0,B|185:217,1,71.9999978027344,0|0,0:0|0:0,0:0:0:0:
172,140,46199,2,0,B|242:154,2,71.9999978027344,0|0|8,0:0|0:0|0:0,0:0:0:0:
56,224,47069,6,0,B|68:308|148:328,1,143.999995605469,0|2,0:0|0:0,0:0:0:0:
140,240,47721,2,0,B|192:184,2,71.9999978027344,0|2|0,0:0|0:0|0:0,0:0:0:0:
216,268,48373,2,0,B|292:252,1,71.9999978027344,8|0,0:0|0:0,0:0:0:0:
280,332,48808,6,0,B|304:368|364:388|412:380,1,143.999995605469,0|2,0:0|0:0,0:0:0:0:
368,300,49460,2,0,B|416:316|476:300|504:264,1,143.999995605469
500,267,50112,1,8,0:0:0:0:
396,168,50547,6,0,B|368:92,1,71.9999978027344
312,156,50982,1,2,0:0:0:0:
236,168,51199,1,0,0:0:0:0:
164,140,51417,1,0,0:0:0:0:
116,80,51634,2,0,B|44:108,2,71.9999978027344,2|10|2,0:0|0:0|0:0,0:0:0:0:
112,164,52286,6,0,B|128:212|112:264|60:288,1,143.999995605469,0|2,0:0|0:0,0:0:0:0:
40,204,52939,2,0,B|176:252,1,143.999995605469
175,251,53591,1,8,0:0:0:0:
348,260,54026,6,0,B|420:236,1,71.9999978027344
428,156,54460,2,0,B|359:178,1,71.9999978027344,0|2,0:0|0:0,0:0:0:0:
292,208,54895,1,0,0:0:0:0:
228,80,55330,1,8,0:0:0:0:
136,212,55765,6,0,B|116:264|60:296|8:284,1,160,0|8,0:0|0:0,0:0:0:0:
7,283,56417,1,0,0:0:0:0:
40,204,56634,1,0,0:0:0:0:
28,124,56852,1,8,0:0:0:0:
76,60,57069,1,8,0:0:0:0:
152,88,57286,6,0,B|188:116|248:128|320:116,1,160,4|0,0:0|0:0,0:0:0:0:
384,96,57939,1,8,0:0:0:0:
464,112,58156,1,8,0:0:0:0:
156,276,59026,6,0,B|188:316|272:324|324:304,1,176.000005371094,4|0,0:0|0:0,0:0:0:0:
248,232,59678,2,0,B|300:224|324:184,1,88.000002685547,8|0,0:0|0:0,0:0:0:0:
248,140,60112,1,0,0:0:0:0:
312,80,60330,1,0,0:0:0:0:
400,72,60547,1,8,0:0:0:0:
368,164,60765,6,0,B|404:212|392:296|332:320,1,176.000005371094
300,228,61417,2,0,B|212:216,1,88.000002685547,8|0,0:0|0:0,0:0:0:0:
176,124,61852,2,0,B|264:136,2,88.000002685547,0|0|8,0:0|0:0|0:0,0:0:0:0:
100,168,62504,5,0,0:0:0:0:
80,252,62721,1,0,0:0:0:0:
120,332,62939,1,0,0:0:0:0:
208,348,63156,1,8,0:0:0:0:
284,300,63373,2,0,B|324:216,1,88.000002685547
224,220,63808,2,0,B|212:124,1,88.000002685547,0|8,0:0|0:0,0:0:0:0:
276,72,64243,6,0,B|308:28|380:16|440:36,1,176.000005371094
368,112,64895,2,0,B|392:204,1,88.000002685547,8|0,0:0|0:0,0:0:0:0:
296,180,65330,2,0,B|308:240|264:308|204:316,1,176.000005371094,0|8,0:0|0:0,0:0:0:0:
108,172,66199,6,0,B|272:260,1,176.000005371094,0|8,0:0|0:0,0:0:0:0:
263,255,66852,1,0,0:0:0:0:
353,202,67069,2,0,B|276:160,2,88.000002685547,0|0|8,0:0|0:0|0:0,0:0:0:0:
208,324,67939,6,0,B|156:360|88:356|32:324,1,176.000005371094,0|8,0:0|0:0,0:0:0:0:
40,328,68591,1,0,0:0:0:0:
124,264,68808,2,0,B|124:176,2,88.000002685547,0|0|8,0:0|0:0|0:0,0:0:0:0:
300,256,69678,6,0,B|352:252|412:208|424:144,1,176.000005371094,0|8,0:0|0:0,0:0:0:0:
320,160,70330,2,0,B|356:128|348:76,1,88.000002685547
260,96,70765,2,0,B|216:60|144:52|92:72,1,176.000005371094
168,148,71417,6,0,B|116:136|40:176|24:232,1,176.000005371094,0|8,0:0|0:0,0:0:0:0:
128,244,72069,1,0,0:0:0:0:
128,244,72286,2,0,B|176:320,2,88.000002685547,8|0|8,0:0|0:0|0:0,0:0:0:0:
224,236,72939,6,0,B|260:280|332:300|388:280,1,176.000005371094,4|0,0:0|0:0,0:0:0:0:
324,196,73591,2,0,B|340:108,1,88.000002685547,8|0,0:0|0:0,0:0:0:0:
244,128,74026,2,0,B|212:44,2,88.000002685547,0|0|8,0:0|0:0|0:0,0:0:0:0:
316,60,74678,6,0,B|356:28|428:24|488:44,1,176.000005371094
412,120,75330,2,0,B|464:116|500:148,1,88.000002685547,8|0,0:0|0:0,0:0:0:0:
428,212,75765,2,0,B|376:216|340:184,2,88.000002685547,0|0|8,0:0|0:0|0:0,0:0:0:0:
412,120,76417,5,0,0:0:0:0:
340,68,76634,1,0,0:0:0:0:
252,60,76852,1,0,0:0:0:0:
176,100,77069,1,8,0:0:0:0:
144,180,77286,2,0,B|128:272,1,88.000002685547
36,292,77721,2,0,B|51:205,1,88.000002685547,0|8,0:0|0:0,0:0:0:0:
128,266,78156,6,0,B|160:316|240:328|288:296,1,176.000005371094
220,224,78808,2,0,B|252:184|236:132,1,88.000002685547,8|0,0:0|0:0,0:0:0:0:
152,164,79243,2,0,B|96:196|16:168|4:112,1,176.000005371094,0|8,0:0|0:0,0:0:0:0:
164,40,80112,6,0,B|200:88|268:104|332:80,1,176.000005371094,0|8,0:0|0:0,0:0:0:0:
323,83,80765,1,0,0:0:0:0:
344,168,80982,2,0,L|368:260,2,88.000002685547,0|0|8,0:0|0:0|0:0,0:0:0:0:
256,324,81852,6,0,B|200:348|128:344|76:304,1,176.000005371094,0|8,0:0|0:0,0:0:0:0:
87,311,82504,1,0,0:0:0:0:
24,240,82721,2,0,B|60:212|108:220,2,88.000002685547,0|0|8,0:0|0:0|0:0,0:0:0:0:
192,192,83591,6,0,B|240:224|316:216|356:160,1,176.000005371094,0|8,0:0|0:0,0:0:0:0:
260,120,84243,2,0,B|244:28,1,88.000002685547
168,92,84678,2,0,B|100:28,2,88.000002685547,0|8|0,0:0|0:0|0:0,0:0:0:0:
80,128,85330,6,0,B|120:176|96:264|36:276,1,176.000005371094,0|8,0:0|0:0,0:0:0:0:
12,188,85982,2,0,B|204:216,1,176.000005371094,0|8,0:0|0:0,0:0:0:0:
272,224,86634,1,8,0:0:0:0:
272,224,86852,1,4,0:0:0:0:
256,192,86960,12,0,90982,0:0:0:0:
