osu file format v14

[General]
AudioFilename: hcprecureop.mp3
AudioLeadIn: 0
PreviewTime: 13550
Countdown: 0
SampleSet: Normal
StackLeniency: 0.7
Mode: 0
LetterboxInBreaks: 0
WidescreenStoryboard: 0

[Editor]
DistanceSpacing: 1
BeatDivisor: 4
GridSize: 4
TimelineZoom: 1

[Metadata]
Title:HAPPINESSCHARGE PRECURE! WOW! (TV Size)
TitleUnicode:ハピネスチャージプリキュア!WOW!(TVサイズ)
Artist:Nakaya Sayaka
ArtistUnicode:仲谷明香
Creator:Flower
Version:Easy
Source:ハピネスチャージプリキュア!
Tags:Happiness Charge Pretty Cure opening
BeatmapID:396375
BeatmapSetID:147263

[Difficulty]
HPDrainRate:1
CircleSize:2
OverallDifficulty:2
ApproachRate:2
SliderMultiplier:0.7
SliderTickRate:1

[Events]
//Background and Video events
0,0,"41328807.jpg",0,0
Video,-500,"opmovie.avi"
//Break Periods
//Storyboard Layer 0 (Background)
//Storyboard Layer 1 (Fail)
//Storyboard Layer 2 (Pass)
//Storyboard Layer 3 (Foreground)
//Storyboard Sound Samples

[TimingPoints]
-78,342.857142857143,4,2,1,40,1,0
13636,-100,4,2,1,40,0,1
18779,-100,4,1,1,30,0,1
19122,-100,4,2,1,40,0,1
24607,-100,4,2,1,35,0,0
27350,-100,4,2,1,35,0,0
35579,-100,4,2,1,40,0,0
50664,-117.647058823529,4,2,1,30,0,0
55464,-100,4,2,1,35,0,0
60264,-100,4,2,1,40,0,0
72607,-100,4,2,1,40,0,1
83579,-100,4,2,1,40,0,0
85807,-100,4,1,1,30,0,0

[Colours]
Combo1 : 162,36,255
Combo2 : 255,47,156
Combo3 : 77,188,255
Combo4 : 255,172,60

[HitObjects]
344,268,2664,6,0,P|380:284|464:236,2,140,4|0|0,3:2|1:0|0:0,0:0:0:0:
256,160,4722,1,0,1:0:0:0:
168,268,5407,6,0,P|132:284|48:236,2,140,0|0|0,0:0|1:0|0:0,0:0:0:0:
208,212,7122,2,0,L|208:104,1,105,0|2,1:0|0:0,0:0:0:0:
300,56,8150,5,4,3:2:0:0:
440,44,8836,2,0,P|438:101|410:140,2,105,2|2|0,0:0|0:0|1:0,0:0:0:0:
228,48,10893,6,0,L|80:48,1,140,0|0,3:0|3:0,0:0:0:0:
8,116,12093,2,0,P|12:172|120:224,1,175,4|0,0:0|1:0,0:0:0:0:
232,164,13636,5,2,1:0:0:0:
452,56,14836,2,0,B|492:112|492:112|476:224,1,175,2|2,1:0|1:0,0:0:0:0:
448,356,16379,5,2,1:0:0:0:
204,328,17579,2,0,B|144:364|144:364|160:308|136:248,1,175,2|2,1:0|1:0,0:0:0:0:
100,204,18779,1,2,1:0:0:0:
48,156,19122,6,0,L|48:80,1,70,4|0,3:2|0:0,0:0:0:0:
216,32,20322,2,0,P|248:80|176:160,1,175,4|2,0:0|3:2,0:0:0:0:
256,280,21864,5,4,3:2:0:0:
408,88,23064,2,0,B|456:140|456:140|420:180|440:240,1,175,4|2,0:0|1:0,0:0:0:0:
300,216,24607,6,0,B|228:216|228:216|204:232|204:248,2,105,0|0|0,3:0|3:0|3:0,0:0:0:0:
372,220,25979,2,0,P|396:256|392:356,1,140,0|0,3:0|3:0,0:0:0:0:
256,332,27350,6,0,B|232:312|192:312|192:312|116:344,1,140,4|0,0:0|0:0,0:0:0:0:
32,292,28550,2,0,P|16:272|56:136,1,175,2|0,0:0|0:0,0:0:0:0:
128,72,29922,6,0,P|180:96|180:208,1,175,2|2,0:0|0:0,0:0:0:0:
327,202,31464,2,0,P|315:119|352:84,1,140,0|2,1:0|0:0,0:0:0:0:
420,72,32493,1,0,1:0:0:0:
476,116,32836,6,0,B|504:160|504:160|472:200|488:248,2,140,4|0|4,0:0|1:0|0:0,0:0:0:0:
340,148,34893,1,0,1:0:0:0:
256,260,35579,6,0,L|256:344,1,70,4|0,0:0|1:0,0:0:0:0:
116,352,36607,2,0,L|92:272,1,70,0|0,1:0|1:0,0:0:0:0:
4,176,37636,6,0,P|32:112|108:88,1,140,4|4,0:0|0:0,0:0:0:0:
232,116,39007,2,0,B|236:144|256:164|256:164|256:220,1,105,0|2,1:0|0:0,0:0:0:0:
308,308,40036,6,0,P|352:320|452:240,1,175,0|2,1:0|0:0,0:0:0:0:
440,144,41407,2,0,B|372:144|372:144|312:88,1,140,0|0,1:0|1:0,0:0:0:0:
256,64,42436,2,0,B|240:108|272:132|256:176,2,105,4|2|2,0:0|0:0|0:2,0:0:0:0:
196,28,43807,6,0,B|132:28|132:28|112:60|64:72,1,140,0|0,1:0|1:0,0:0:0:0:
0,192,45179,2,0,P|36:252|44:328,1,140,0|0,1:0|1:0,0:0:0:0:
180,356,46550,5,0,1:0:0:0:
256,240,47236,1,0,1:0:0:0:
332,356,47922,2,0,B|380:348|408:292|408:292|452:292,1,140,4|0,0:0|1:0,0:0:0:0:
480,192,49122,2,0,B|480:132|480:132|416:112|400:48,1,175,0|0,1:0|0:0,0:0:0:0:
320,140,50664,5,2,0:0:0:0:
256,40,51350,1,2,0:0:0:0:
192,140,52036,2,0,P|152:152|84:112,1,119.000002269745,2|2,0:0|0:0,0:0:0:0:
32,144,53064,1,0,1:0:0:0:
32,204,53407,6,0,B|32:268|32:268|60:288|76:316,1,119.000002269745,2|2,0:0|0:0,0:0:0:0:
184,344,54779,2,0,B|224:340|244:312|244:312|244:264,1,119.000002269745,2|0,0:0|1:0,0:0:0:0:
384,240,56150,6,0,P|396:200|492:168,2,140,0|2|0,1:0|0:0|1:0,0:0:0:0:
256,180,58207,2,0,B|248:136|248:136|264:88|264:88|256:40,1,140,2|4,0:0|0:0,0:0:0:0:
120,72,59579,5,0,1:0:0:0:
48,192,60264,1,2,0:0:0:0:
120,312,60950,2,0,P|168:280|196:204,1,140,0|4,1:0|0:0,0:0:0:0:
252,164,61979,2,0,B|324:164|324:164|388:208,1,140,0|0,1:0|1:0,0:0:0:0:
440,236,63007,6,0,L|440:316,1,70,4|0,0:0|1:0,0:0:0:0:
236,352,64379,2,0,B|204:340|180:312|180:312|136:312,1,105,4|0,0:0|0:0,0:0:0:0:
12,196,65750,6,0,B|12:152|12:152|60:132|72:76,1,140,4|2,0:0|0:0,0:0:0:0:
208,48,67122,2,0,B|236:52|256:68|256:68|276:52|304:48,2,105,4|0|0,1:2|1:0|1:0,0:0:0:0:
144,72,68493,6,0,P|126:116|288:176,1,280,4|0,0:0|0:0,0:0:0:0:
360,64,70550,2,0,P|392:52|432:56,2,70,0|0|0,3:0|3:0|3:0,0:0:0:0:
256,328,72607,6,0,B|280:328|320:348|320:348|356:332|376:296,1,140,4|0,3:2|0:0,0:0:0:0:
400,200,73807,2,0,B|400:128|400:128|352:112|332:56,1,175,2|0,0:0|0:0,0:0:0:0:
192,32,75350,6,0,P|124:32|76:80,1,140,2|0,2:0|3:0,0:0:0:0:
40,180,76550,2,0,B|40:248|40:248|92:280|100:336,1,175,2|2,0:0|1:0,0:0:0:0:
168,348,77750,1,2,1:0:0:0:
224,304,78093,6,0,B|224:236|224:236|188:216|176:176,1,140,4|0,3:2|3:0,0:0:0:0:
256,112,79293,2,0,B|296:104|320:84|320:84|424:84,1,175,2|0,0:0|3:0,0:0:0:0:
496,204,80836,6,0,P|488:256|416:308,1,140,2|0,3:2|3:0,0:0:0:0:
336,244,82036,2,0,B|308:276|312:324|312:324|220:324,1,175,2|2,0:0|1:0,0:0:0:0:
152,324,83236,1,2,1:0:0:0:
84,320,83579,6,0,P|56:264|80:192,2,140,0|0|0,3:0|3:0|3:0,0:0:0:0:
220,356,85636,1,0,3:0:0:0:
352,304,86322,6,0,P|372:272|360:196,1,105,2|2,0:0|0:0,0:0:0:0:
324,152,87179,2,0,P|292:132|216:144,1,105,2|0,0:0|0:0,0:0:0:0:
172,176,88036,2,0,L|172:212,1,35,2|0,0:0|0:0,0:0:0:0:
