osu file format v14

[General]
AudioFilename: senjou no aria.mp3
AudioLeadIn: 0
PreviewTime: 35984
Countdown: 0
SampleSet: Soft
StackLeniency: 0.7
Mode: 2
LetterboxInBreaks: 0
WidescreenStoryboard: 0

[Editor]
Bookmarks: 9258,26712,43349,69258,76894,121621,128712,129258,130349,131440,132940,133621,134167,134712,135258,135803,145621,177121,197167,205621,214212
DistanceSpacing: 0.9
BeatDivisor: 4
GridSize: 8
TimelineZoom: 1.3

[Metadata]
Title:Senjou no Aria
TitleUnicode:扇情のアリア
Artist:Nakashinoda Mugi
ArtistUnicode:仲篠田むぎ
Creator:kotnana3131
Version:Rain
Source:東方地霊殿 ~ Subterranean Animism.
Tags:C-CLAYS 東方Project Touhou Egyptian Pop kyoutansu 美有耳虚無頭 霊知の太陽信仰 ~ Nuclear Fusion 天禮 -TENRAI- Reiuzi Reiuji Utsuho 霊烏路 空 Okuu Yume no naka he
BeatmapID:1504891
BeatmapSetID:711806

[Difficulty]
HPDrainRate:5
CircleSize:3.7
OverallDifficulty:9
ApproachRate:9
SliderMultiplier:2.6
SliderTickRate:3

[Events]
//Background and Video events
0,0,"kawaii utsuho chan.jpg",0,0
//Break Periods
2,20367,21476
2,22549,23658
2,24731,26112
2,77094,78203
2,79276,80385
2,81458,82840
2,154276,162476
2,205549,207612
//Storyboard Layer 0 (Background)
//Storyboard Layer 1 (Fail)
//Storyboard Layer 2 (Pass)
//Storyboard Layer 3 (Foreground)
//Storyboard Sound Samples

[TimingPoints]
531,545.454545454546,4,2,0,100,1,0
37621,-100,4,2,0,100,0,1
57258,-100,4,2,0,100,0,0
92712,-100,4,2,0,100,0,1
113985,-100,4,2,0,100,0,0
132531,-100,4,2,0,100,0,1
151076,-100,4,2,0,100,0,0

[HitObjects]
80,248,531,6,0,B|8:152|8:152|88:48,1,195
136,160,1349,2,0,L|280:159,1,130
328,160,1758,1,0,0:0:0:0:
265,159,1894,2,0,L|113:159,1,130
240,272,2712,2,0,B|201:183|201:183|249:87,1,195
72,184,3531,2,0,L|224:184,1,130
264,184,3940,1,0,0:0:0:0:
192,184,4076,2,0,L|40:183,1,130
240,288,4894,2,0,B|296:200|296:200|224:112,1,195
172,192,5712,5,0,0:0:0:0:
136,176,5780,1,0,0:0:0:0:
120,132,5848,1,0,0:0:0:0:
146,93,5916,1,0,0:0:0:0:
183,90,5984,1,0,0:0:0:0:
248,212,6258,1,0,0:0:0:0:
408,200,6531,1,0,0:0:0:0:
432,168,6667,1,0,0:0:0:0:
400,128,6803,1,0,0:0:0:0:
204,112,7076,5,0,0:0:0:0:
264,120,7349,1,0,0:0:0:0:
392,184,7621,1,0,0:0:0:0:
412,216,7758,1,0,0:0:0:0:
400,256,7894,1,0,0:0:0:0:
256,260,8167,5,0,0:0:0:0:
128,192,8440,1,0,0:0:0:0:
256,116,8712,1,0,0:0:0:0:
380,192,8985,1,0,0:0:0:0:
472,160,9258,2,0,B|488:96|488:96|448:40,1,130
392,48,9667,1,0,0:0:0:0:
336,112,9803,6,0,L|248:112|256:112,1,65
72,112,10076,2,0,L|168:112,1,65
160,192,10349,2,0,L|264:192,1,65
312,192,10621,1,0,0:0:0:0:
408,192,10758,1,0,0:0:0:0:
320,192,10894,6,0,L|232:192,1,65
56,192,11167,2,0,L|152:192,1,65
168,272,11440,2,0,L|328:272,1,130
352,200,11849,1,0,0:0:0:0:
264,200,11985,2,0,L|264:136,1,65
408,112,12258,6,0,L|336:112,1,65
144,112,12531,2,0,L|64:112,1,65
56,192,12803,1,0,0:0:0:0:
136,192,12940,1,0,0:0:0:0:
200,192,13076,2,0,L|280:192,1,65
464,192,13349,6,0,L|384:192,1,65
376,272,13621,2,0,L|232:272,1,130
160,272,14031,1,0,0:0:0:0:
208,192,14167,2,0,L|272:192,1,65
456,192,14440,2,0,L|376:192,1,65
312,192,14712,6,0,L|216:192,1,65
48,192,14985,1,0,0:0:0:0:
144,192,15121,1,0,0:0:0:0:
232,192,15258,2,0,L|304:192,1,65
496,192,15531,2,0,L|424:192,1,65
344,200,15803,2,0,L|208:200,1,130
142,248,16212,1,0,0:0:0:0:
222,248,16349,6,0,L|302:248,1,65
486,248,16621,2,0,L|398:248,1,65
287,248,16894,5,0,0:0:0:0:
232,208,17031,1,0,0:0:0:0:
184,176,17167,1,0,0:0:0:0:
224,136,17303,1,0,0:0:0:0:
272,104,17440,1,0,0:0:0:0:
320,80,17576,1,0,0:0:0:0:
280,56,17712,1,0,0:0:0:0:
240,40,17849,1,0,0:0:0:0:
184,40,17985,2,0,L|48:40,1,130
0,48,18394,1,0,0:0:0:0:
170,196,19349,5,0,0:0:0:0:
196,196,19417,1,0,0:0:0:0:
222,196,19485,1,0,0:0:0:0:
248,196,19553,1,0,0:0:0:0:
248,192,20167,5,0,0:0:0:0:
200,192,22076,5,0,0:0:0:0:
280,192,22212,1,0,0:0:0:0:
120,192,22349,1,0,0:0:0:0:
248,176,24258,5,0,0:0:0:0:
168,184,24394,1,0,0:0:0:0:
336,176,24531,1,0,0:0:0:0:
336,192,26712,5,0,0:0:0:0:
432,184,26849,1,0,0:0:0:0:
408,136,26985,1,0,0:0:0:0:
16,136,27258,1,0,0:0:0:0:
40,88,27394,1,0,0:0:0:0:
376,288,27667,5,0,0:0:0:0:
409,242,27803,1,0,0:0:0:0:
443,196,27939,1,0,0:0:0:0:
392,176,28076,1,0,0:0:0:0:
341,149,28212,1,0,0:0:0:0:
291,122,28348,1,0,0:0:0:0:
306,69,28485,1,0,0:0:0:0:
358,45,28621,1,0,0:0:0:0:
408,20,28757,1,0,0:0:0:0:
296,56,28894,6,0,L|192:56,1,65
160,56,29167,1,0,0:0:0:0:
80,56,29303,2,0,L|0:56,1,65
88,128,29576,2,0,L|168:128,1,65
352,136,29849,2,0,L|432:136,1,65
512,136,30121,5,0,0:0:0:0:
440,208,30258,1,0,0:0:0:0:
360,272,30394,1,0,0:0:0:0:
280,272,30531,2,0,L|200:272,1,65
16,272,30803,2,0,L|96:272,1,65
280,272,31076,2,0,L|392:272,1,65
440,272,31349,5,0,0:0:0:0:
344,200,31485,2,0,L|272:200,1,65
96,200,31758,2,0,L|184:200,1,65
360,200,32031,2,0,L|440:200,1,65
440,136,32303,5,0,0:0:0:0:
496,208,32440,2,0,L|416:208,1,65
368,208,32712,1,0,0:0:0:0:
312,208,32849,1,0,0:0:0:0:
264,208,32985,2,0,L|200:208,1,65
0,208,33258,2,0,L|72:208,1,65
144,208,33531,5,0,0:0:0:0:
208,208,33667,2,0,L|280:208,1,65
448,208,33940,2,0,L|520:208,1,65
329,208,34212,2,0,L|241:208,1,65
208,208,34485,1,0,0:0:0:0:
144,208,34621,2,0,L|64:208,1,65
80,136,34894,5,0,0:0:0:0:
152,80,35031,1,0,0:0:0:0:
216,40,35167,2,0,L|280:40,1,65
360,40,35440,1,0,0:0:0:0:
136,168,35985,6,0,L|208:168,1,65
416,168,36258,2,0,L|344:168,1,65
224,160,36531,1,0,0:0:0:0:
192,120,36599,1,0,0:0:0:0:
160,80,36667,1,0,0:0:0:0:
216,48,36803,2,0,L|280:48,1,65
480,48,37076,2,0,L|416:48,1,65
352,48,37349,2,0,L|288:48,1,65
216,48,37621,2,0,L|80:48,1,130
200,136,38031,5,0,0:0:0:0:
264,136,38167,2,0,L|328:136,1,65
456,200,38440,2,0,L|360:200,1,65
312,208,38712,2,0,L|232:208,1,65
48,208,38985,2,0,L|120:208,1,65
176,208,39258,2,0,L|256:208,1,65
440,208,39531,2,0,L|280:208,1,130
248,216,39940,1,0,0:0:0:0:
96,216,40076,2,0,L|24:216,1,65
240,216,40349,2,0,L|512:216,1,260
432,216,41031,5,0,0:0:0:0:
256,216,41167,1,0,0:0:0:0:
344,216,41303,1,0,0:0:0:0:
432,216,41440,1,0,0:0:0:0:
344,216,41576,1,0,0:0:0:0:
256,216,41712,1,0,0:0:0:0:
344,216,41849,1,0,0:0:0:0:
144,216,41985,6,0,L|64:216,1,65
32,216,42258,1,0,0:0:0:0:
104,216,42394,2,0,L|176:216,1,65
208,216,42667,2,0,L|272:216,1,65
336,216,42940,2,0,L|408:216,1,65
456,160,43212,2,0,L|392:160,1,65
320,152,43485,2,0,L|256:152,1,65
192,152,43758,2,0,L|128:152,1,65
56,216,44031,2,0,L|448:216,1,390
200,208,44985,2,0,L|12:208,1,130
64,288,45531,5,0,0:0:0:0:
136,288,45668,1,0,0:0:0:0:
208,288,45804,1,0,0:0:0:0:
136,288,45940,1,0,0:0:0:0:
272,288,46077,2,0,L|344:288,1,65
408,280,46349,2,0,P|491:197|448:136,1,195
223,148,46894,6,0,L|79:148,1,130
155,99,47303,1,0,0:0:0:0:
380,150,47440,2,0,L|516:150,1,130
300,195,47849,2,0,P|262:146|326:84,1,130
343,85,48258,1,0,0:0:0:0:
401,80,48394,1,0,0:0:0:0:
189,190,48531,6,0,L|29:182,1,130
274,185,48940,2,0,L|434:177,1,130
455,151,49349,1,0,0:0:0:0:
409,113,49485,1,0,0:0:0:0:
194,218,49621,6,0,L|189:38,1,130
401,219,50031,2,0,L|406:39,1,130
197,88,50440,1,0,0:0:0:0:
101,70,50576,1,0,0:0:0:0:
316,93,50712,2,0,L|446:93,1,130
208,160,51121,5,0,0:0:0:0:
152,160,51258,1,0,0:0:0:0:
96,160,51394,1,0,0:0:0:0:
40,160,51531,1,0,0:0:0:0:
48,216,51667,1,0,0:0:0:0:
104,216,51803,1,0,0:0:0:0:
160,216,51940,2,0,L|296:216,1,130
512,224,52349,2,0,L|376:224,1,130
320,224,52758,2,0,P|108:225|136:80,1,390
352,64,53712,2,0,B|440:136|440:136|440:240|440:240|224:336,1,455
136,288,54803,1,0,0:0:0:0:
216,288,55349,5,0,0:0:0:0:
288,288,55485,1,0,0:0:0:0:
336,288,55621,1,0,0:0:0:0:
280,288,55758,2,0,L|200:288,1,65
120,216,56167,2,0,L|200:216,1,65
448,168,56440,2,0,L|360:168,1,65
120,128,56712,2,0,L|208:128,1,65
448,64,56985,2,0,L|368:64,1,65
304,56,57258,6,0,L|8:56,1,260
32,128,57940,2,0,B|0:168|0:168|184:168,1,195
344,168,58485,2,0,B|488:168|488:168|448:104,1,195
440,128,59031,2,0,B|384:80|384:80|280:80,1,130
256,72,59440,2,0,B|152:48|64:168|64:168|160:312|320:256,1,520
448,176,61076,6,0,B|384:72|384:72|272:72,1,195
112,96,61621,2,0,B|8:128|8:128|24:280,1,260
48,320,62303,2,0,L|168:320,1,65
112,272,62576,2,0,L|208:272,1,65
376,216,62849,6,0,B|480:216|480:216|480:124|480:124|328:128,1,325
120,264,63803,2,0,P|48:265|144:104,1,390
344,96,64758,2,0,B|472:96|472:96|554:183|554:183|552:272|552:272|360:312,1,520
176,304,65985,2,0,B|24:304|24:304|48:240,1,195
72,224,66531,5,0,0:0:0:0:
96,195,66667,1,0,0:0:0:0:
133,179,66803,1,0,0:0:0:0:
168,176,66940,1,0,0:0:0:0:
202,175,67076,1,0,0:0:0:0:
235,183,67212,1,0,0:0:0:0:
272,192,67349,2,0,L|392:192,1,65
400,248,67621,2,0,L|320:248,1,65
136,256,67894,2,0,B|-16:256|-16:256|-16:112|-16:112|72:80|72:80|368:80,1,650
416,192,69803,6,0,L|336:192,1,65
288,192,70076,2,0,L|208:192,1,65
168,192,70349,2,0,L|64:192,1,65
112,264,70621,2,0,L|216:264,1,65
232,264,70894,2,0,L|344:264,1,65
368,264,71167,2,0,L|464:264,1,65
384,192,71440,2,0,L|304:192,1,65
256,192,71712,2,0,L|168:192,1,65
120,184,71985,6,0,P|40:248|128:304,1,195
152,312,72531,2,0,L|304:312,1,130
480,240,72940,2,0,L|344:240,1,130
192,240,73349,2,0,L|40:240,1,130
72,160,73758,2,0,L|264:160,1,130
368,160,74167,2,0,L|520:160,1,130
472,232,74712,2,0,B|473:328|473:328|248:325,1,260
252,106,76213,5,0,0:0:0:0:
251,132,76281,1,0,0:0:0:0:
252,158,76349,1,0,0:0:0:0:
251,183,76417,1,0,0:0:0:0:
248,192,76894,5,0,0:0:0:0:
200,192,78803,5,0,0:0:0:0:
280,192,78939,1,0,0:0:0:0:
120,192,79076,1,0,0:0:0:0:
200,184,80985,5,0,0:0:0:0:
280,192,81121,1,0,0:0:0:0:
112,184,81258,1,0,0:0:0:0:
336,192,83440,5,0,0:0:0:0:
432,184,83577,1,0,0:0:0:0:
408,136,83713,1,0,0:0:0:0:
16,136,83986,1,0,0:0:0:0:
40,88,84122,1,0,0:0:0:0:
376,288,84395,5,0,0:0:0:0:
409,242,84531,1,0,0:0:0:0:
443,196,84667,1,0,0:0:0:0:
416,160,84804,1,0,0:0:0:0:
376,128,84940,1,0,0:0:0:0:
320,120,85076,1,0,0:0:0:0:
280,88,85213,1,0,0:0:0:0:
240,72,85349,1,0,0:0:0:0:
216,64,85485,1,0,0:0:0:0:
160,64,85622,2,0,L|56:64,1,65
88,240,85894,5,0,0:0:0:0:
152,240,86031,2,0,L|240:240,1,65
272,240,86303,2,0,L|352:240,1,65
496,192,86576,2,0,L|424:192,1,65
384,192,86849,2,0,L|312:192,1,65
272,192,87121,2,0,L|200:192,1,65
152,192,87394,2,0,L|56:192,1,65
80,136,87667,5,0,0:0:0:0:
472,136,87803,1,0,0:0:0:0:
400,136,87940,2,0,L|328:136,1,65
296,136,88212,2,0,L|224:136,1,65
176,136,88485,2,0,L|104:136,1,65
72,208,88758,2,0,L|152:208,1,65
176,208,89031,2,0,L|248:208,1,65
440,208,89303,2,0,L|504:208,1,65
472,136,89576,5,0,0:0:0:0:
104,136,89849,2,0,L|40:136,1,65
72,208,90121,1,0,0:0:0:0:
128,208,90258,1,0,0:0:0:0:
192,208,90394,1,0,0:0:0:0:
368,208,90531,1,0,0:0:0:0:
440,152,90667,1,0,0:0:0:0:
384,152,90803,2,0,L|304:152,1,65
256,152,91076,2,0,L|144:152,1,65
128,152,91349,2,0,L|-8:152,1,130
40,224,91758,6,0,L|240:224,1,195
136,168,92712,6,0,L|208:168,1,65
416,168,92985,2,0,L|344:168,1,65
224,160,93258,1,0,0:0:0:0:
192,120,93326,1,0,0:0:0:0:
216,80,93394,1,0,0:0:0:0:
256,56,93530,2,0,L|320:56,1,65
480,48,93803,2,0,L|416:48,1,65
352,48,94076,2,0,L|288:48,1,65
216,48,94349,2,0,L|80:48,1,130
200,136,94758,5,0,0:0:0:0:
264,136,94894,2,0,L|328:136,1,65
456,200,95167,2,0,L|360:200,1,65
312,208,95439,2,0,L|232:208,1,65
48,208,95712,2,0,L|120:208,1,65
160,208,95985,2,0,L|240:208,1,65
280,208,96258,2,0,L|368:208,1,65
408,208,96531,2,0,B|432:96|408:80|352:32,1,195
176,88,97076,2,0,P|120:56|8:120,1,195
256,216,97894,5,0,0:0:0:0:
344,216,98030,1,0,0:0:0:0:
432,216,98167,1,0,0:0:0:0:
344,216,98303,1,0,0:0:0:0:
256,216,98439,1,0,0:0:0:0:
344,216,98576,1,0,0:0:0:0:
256,216,98712,2,0,L|112:216,1,130
72,160,99121,6,0,L|160:160,1,65
176,160,99394,2,0,L|280:160,1,65
280,160,99667,2,0,L|344:160,1,65
408,160,99940,2,0,L|480:160,1,65
440,224,100213,2,0,L|352:224,1,65
336,224,100485,2,0,L|192:224,1,130
8,352,100894,2,0,L|8:8,1,325
208,24,101712,2,0,B|296:48|296:48|392:160,1,195
392,192,102258,5,0,0:0:0:0:
312,192,102394,1,0,0:0:0:0:
232,192,102531,1,0,0:0:0:0:
312,192,102667,1,0,0:0:0:0:
392,192,102803,1,0,0:0:0:0:
312,192,102940,1,0,0:0:0:0:
232,192,103076,2,0,L|112:192,1,65
112,192,103349,2,0,L|16:192,1,65
88,256,103621,2,0,L|192:256,1,65
208,256,103894,2,0,L|280:256,1,65
400,256,104167,6,0,L|304:256,1,65
128,328,104440,2,0,B|48:328|48:328|48:208,1,195
40,152,104985,2,0,L|40:24,1,65
240,32,105258,2,0,L|240:368,1,325
392,168,106076,2,0,L|440:112,1,65
352,104,106349,2,0,L|208:104,1,130
24,96,106758,2,0,L|96:192,1,65
264,160,107031,2,0,L|360:256,1,130
304,256,107440,6,0,L|224:256,1,65
176,256,107712,2,0,L|104:256,1,65
40,192,107985,2,0,L|240:192,1,195
368,128,108531,2,0,B|445:125|445:125|504:224,1,130
472,264,108940,2,0,L|336:264,1,130
144,272,109349,2,0,L|16:272,1,65
16,200,109621,2,0,B|48:80|48:80|232:80,1,260
472,120,110440,2,0,L|264:120,1,195
136,120,110985,2,0,L|0:120,1,130
32,248,111394,2,0,L|240:248,1,195
216,288,112076,5,0,0:0:0:0:
288,288,112212,1,0,0:0:0:0:
336,288,112348,1,0,0:0:0:0:
280,288,112485,2,0,L|200:288,1,65
184,216,112894,2,0,L|264:216,1,65
448,168,113167,2,0,L|360:168,1,65
184,120,113439,2,0,L|272:120,1,65
448,64,113712,2,0,L|368:64,1,65
304,64,113985,6,0,L|40:64,1,260
112,144,114803,2,0,B|64:200|64:200|304:200,1,260
352,136,115485,2,0,B|400:80|400:80|216:80,1,195
216,80,116167,2,0,L|216:352,2,260
168,80,117394,2,0,L|104:80,2,65
184,152,117803,6,0,L|384:152,1,195
336,216,118349,2,0,L|128:216,1,195
112,216,118894,2,0,B|48:216|48:216|144:312,1,195
232,312,119440,2,0,L|352:304,1,65
344,248,119712,2,0,B|384:176|384:176|120:176,1,325
128,184,120531,2,0,B|176:56|176:56|296:56|296:56|352:56|352:56|288:216|288:216,1,455
232,240,121621,6,0,B|61:240|61:240|104:160|104:160|328:104,1,455
496,144,122712,2,0,B|496:224|496:224|352:280|352:280|248:280,1,325
192,280,123531,2,0,L|136:224,1,65
344,208,123803,2,0,B|385:176|385:176|352:96,1,130
256,104,124212,2,0,L|120:104,1,130
64,152,124621,2,0,L|96:272,1,65
136,264,124894,2,0,L|416:264,2,260
120,192,126121,2,0,L|200:192,1,65
232,192,126394,1,0,0:0:0:0:
304,232,126531,6,0,L|304:16,1,195
504,40,127076,2,0,L|504:240,1,195
432,240,127621,2,0,L|432:16,1,195
352,240,128167,2,0,L|352:24,1,195
288,48,128712,2,0,B|160:48|160:48|264:104,1,195
416,104,129258,2,0,B|447:153|447:153|440:240|440:240|96:240,1,455
320,304,130349,2,0,B|64:304|64:304|224:168,1,455
424,80,131440,2,0,B|424:192|424:192|104:192,1,390
144,192,132531,5,0,0:0:0:0:
192,192,132667,1,0,0:0:0:0:
320,80,132940,5,0,0:0:0:0:
380,59,133076,1,0,0:0:0:0:
440,81,133212,1,0,0:0:0:0:
473,135,133349,1,0,0:0:0:0:
466,198,133485,1,0,0:0:0:0:
192,208,133621,2,0,P|103:223|48:96,1,195
304,144,134167,5,0,0:0:0:0:
350,102,134303,1,0,0:0:0:0:
412,115,134439,1,0,0:0:0:0:
438,172,134576,1,0,0:0:0:0:
176,224,134712,2,0,P|80:184|56:96,1,195
328,80,135258,5,0,0:0:0:0:
381,45,135394,1,0,0:0:0:0:
443,57,135530,1,0,0:0:0:0:
480,109,135667,1,0,0:0:0:0:
216,200,135803,2,0,P|128:168|144:80,1,195
272,80,136349,2,0,L|336:224,1,130
512,208,136758,2,0,L|432:24,1,195
184,80,137440,5,0,0:0:0:0:
131,45,137576,1,0,0:0:0:0:
69,57,137712,1,0,0:0:0:0:
32,109,137849,1,0,0:0:0:0:
296,200,137985,2,0,P|384:168|368:80,1,195
104,80,138531,5,0,0:0:0:0:
45,105,138667,1,0,0:0:0:0:
17,162,138803,1,0,0:0:0:0:
32,224,138940,1,0,0:0:0:0:
296,200,139076,2,0,P|384:168|368:80,1,195
112,80,139621,5,0,0:0:0:0:
53,106,139757,1,0,0:0:0:0:
20,161,139893,1,0,0:0:0:0:
23,225,140030,1,0,0:0:0:0:
288,232,140167,2,0,P|368:208|360:88,1,195
232,88,140712,6,0,P|160:96|112:208,1,195
304,200,141258,2,0,P|376:200|408:72,1,195
184,80,141803,5,0,0:0:0:0:
131,45,141939,1,0,0:0:0:0:
69,57,142075,1,0,0:0:0:0:
32,109,142212,1,0,0:0:0:0:
296,200,142348,2,0,P|384:168|368:80,1,195
104,88,142894,5,0,0:0:0:0:
72,143,143030,1,0,0:0:0:0:
84,205,143166,1,0,0:0:0:0:
133,245,143303,1,0,0:0:0:0:
400,224,143440,2,0,P|472:152|416:88,1,195
160,80,143985,5,0,0:0:0:0:
107,45,144121,1,0,0:0:0:0:
45,57,144257,1,0,0:0:0:0:
8,109,144394,1,0,0:0:0:0:
272,208,144531,2,0,P|360:176|344:88,1,195
272,88,145076,2,0,P|188:86|96:192,1,195
168,192,145621,6,0,L|272:200,1,65
448,240,145894,2,0,L|368:248,1,65
176,312,146167,2,0,L|264:336,1,65
360,296,146440,2,0,L|424:272|424:272,1,65
400,224,146712,6,0,P|456:144|368:64,1,195
232,72,147258,1,0,0:0:0:0:
173,98,147394,1,0,0:0:0:0:
139,153,147530,1,0,0:0:0:0:
141,217,147667,1,0,0:0:0:0:
408,216,147803,2,0,P|464:184|432:56,1,195
216,64,148349,5,0,0:0:0:0:
153,78,148485,1,0,0:0:0:0:
106,122,148621,1,0,0:0:0:0:
87,183,148758,1,0,0:0:0:0:
352,208,148894,2,0,P|440:136|392:48,1,195
344,80,149440,5,0,0:0:0:0:
360,80,149576,2,0,L|280:88,1,65
32,160,149849,2,0,L|112:168,1,65
360,216,150121,2,0,L|288:232,1,65
32,272,150394,2,0,B|24:344|24:344|264:296,1,260
456,336,151076,5,0,0:0:0:0:
457,160,151485,1,0,0:0:0:0:
457,8,151894,1,0,0:0:0:0:
256,48,153258,5,0,0:0:0:0:
256,208,153667,1,0,0:0:0:0:
256,368,154076,1,0,0:0:0:0:
72,168,163076,6,0,L|152:168,1,65,2|0,1:2|0:0,0:0:0:0:
288,168,163349,2,0,L|384:168,1,65
437,216,163621,5,0,1:0:0:0:
336,288,163894,1,0,1:0:0:0:
224,312,164031,1,0,0:0:0:0:
160,312,164167,6,0,B|80:312|80:312|64:224,1,130,6|0,1:2|0:0,0:0:0:0:
120,184,164576,1,0,1:0:0:0:
208,176,164712,2,0,L|328:176,1,65,0|0,1:0|0:0,0:0:0:0:
440,168,164985,2,0,P|480:128|480:88,1,65,8|0,1:2|0:0,0:0:0:0:
408,112,165258,6,0,L|264:112,1,130,10|0,1:2|0:0,0:0:0:0:
72,128,165667,1,0,1:0:0:0:
216,190,165803,2,0,L|288:192,1,65,2|0,1:2|0:0,0:0:0:0:
384,192,166076,2,0,L|472:192,1,65
448,144,166349,6,0,B|387:114|387:114|315:109,1,130,10|0,1:2|0:0,0:0:0:0:
266,129,166758,1,0,1:0:0:0:
192,120,166894,2,0,L|128:120,1,65,0|0,1:0|0:0,0:0:0:0:
96,184,167167,2,0,L|168:184,1,65,10|0,1:2|0:0,0:0:0:0:
272,184,167440,6,0,L|416:185,1,130,10|0,1:2|0:0,0:0:0:0:
480,184,167849,1,0,1:0:0:0:
416,184,167985,2,0,L|344:184,1,65,2|0,1:2|0:0,0:0:0:0:
264,184,168258,2,0,L|144:184,1,65
0,144,168531,6,0,L|152:144,1,130,10|0,1:2|0:0,0:0:0:0:
304,154,168940,1,0,1:0:0:0:
232,152,169076,2,0,L|168:152,1,65,0|0,1:0|0:0,0:0:0:0:
0,152,169349,2,0,L|64:152,1,65,8|0,1:2|0:0,0:0:0:0:
248,111,169621,6,0,B|271:172|271:172|247:256,1,135.600000413818,10|0,1:2|0:0,0:0:0:0:
192,240,170031,1,0,1:0:0:0:
256,240,170167,2,0,L|344:240,1,65,0|0,1:0|0:0,0:0:0:0:
440,232,170440,2,0,L|440:144,1,65
240,120,170712,6,0,B|248:80|248:80|88:80,1,195,14|0,1:2|1:0,0:0:0:0:
16,80,171258,2,0,L|16:144,1,65
216,160,171531,2,0,B|224:280|224:280|528:56,1,455
416,72,172621,1,0,0:0:0:0:
448,56,173985,6,0,L|368:56,1,65
120,96,174258,2,0,L|192:96,1,65
448,160,174531,2,0,L|360:160,1,65
120,216,174803,2,0,L|192:216,1,65
216,288,175076,5,0,0:0:0:0:
288,288,175212,1,0,0:0:0:0:
336,288,175348,1,0,0:0:0:0:
280,288,175485,2,0,L|200:288,1,65
120,224,175894,2,0,L|200:224,1,65
448,168,176167,2,0,L|360:168,1,65
120,128,176439,2,0,L|208:128,1,65
448,64,176712,2,0,L|368:64,1,65
256,64,176985,2,0,L|168:64,1,65
192,136,177258,6,0,B|187:258|187:258|224:328,1,195,2|0,0:0|1:0,0:0:0:0:
288,320,177803,2,0,L|368:320,1,65,2|0,1:2|0:0,0:0:0:0:
424,320,178076,2,0,L|496:272,1,65
480,208,178349,5,8,1:2:0:0:
400,176,178485,2,0,L|264:176,1,130,2|0,0:0|1:0,0:0:0:0:
72,176,178894,2,0,L|72:96,1,65
280,96,179167,2,0,L|280:176,1,65
280,192,179440,1,0,0:0:0:0:
280,240,179576,1,0,0:0:0:0:
280,288,179712,1,0,0:0:0:0:
320,312,179849,1,0,1:0:0:0:
256,312,179985,2,0,L|168:312,1,65
120,312,180258,2,0,L|48:312,1,65,10|0,1:2|0:0,0:0:0:0:
48,232,180531,5,8,1:2:0:0:
152,224,180667,2,0,B|188:163|188:163|280:158,1,143.999995605469,2|0,0:0|1:0,0:0:0:0:
320,152,181076,2,0,B|376:80|376:80|256:80,1,195,0|0,1:0|0:0,0:0:0:0:
64,80,181621,2,0,L|24:160,1,65
40,192,181894,2,0,L|80:256,1,65
280,256,182167,2,0,B|368:192|368:192|272:192,1,195,2|0,1:2|0:0,0:0:0:0:
208,192,182712,5,8,1:2:0:0:
136,192,182849,2,0,B|64:192|64:192|54:148|54:148|144:64,1,195
160,80,183394,2,0,L|296:80,1,130
360,80,183803,2,0,B|344:120|240:104|144:160|432:224|136:208|376:272|136:280|80:184|80:184|72:72,1,455
272,104,184894,2,0,B|432:220|432:220|152:304,1,455
128,304,185985,1,0,0:0:0:0:
16,288,186121,2,0,P|4:231|16:120,1,130,2|0,0:0|1:0,0:0:0:0:
96,128,186531,2,0,L|160:128,1,65,2|0,1:2|0:0,0:0:0:0:
232,128,186803,2,0,L|336:128,1,65,8|0,1:2|0:0,0:0:0:0:
384,128,187076,5,8,1:2:0:0:
464,128,187212,2,0,L|464:280,1,130
400,256,187621,2,0,L|328:256,1,65
272,256,187894,1,0,0:0:0:0:
208,256,188031,1,0,0:0:0:0:
0,280,188167,2,0,L|32:152,1,130
72,144,188576,5,0,1:0:0:0:
136,144,188712,2,0,L|264:144,1,65
264,144,188985,2,0,L|384:144,1,65
424,144,189258,5,10,1:2:0:0:
416,216,189394,2,0,L|320:216,2,65
232,224,189803,2,0,L|232:312,1,65
168,288,190076,1,0,0:0:0:0:
112,288,190212,1,0,0:0:0:0:
8,224,190349,2,0,L|80:224,1,65
272,176,190621,2,0,L|182:175,1,65
8,112,190894,2,0,L|88:112,1,65
160,112,191167,6,0,L|272:112,1,65
208,184,191440,1,8,1:2:0:0:
312,184,191576,2,0,L|480:184,1,130
448,248,191985,2,0,L|352:248,1,65
320,248,192258,2,0,L|248:248,1,65
56,248,192531,2,0,L|56:112,1,130
128,112,192940,2,0,L|232:112,1,65
256,112,193212,2,0,L|352:112,1,65
384,112,193485,1,0,0:3:0:0:
176,112,193621,6,0,B|88:208|88:208|176:320,1,260
410,124,194712,5,2,1:2:0:0:
216,120,195258,1,2,1:2:0:0:
80,128,195803,2,0,L|80:264,1,130
208,248,196212,2,0,L|208:112,1,130
344,248,196621,2,0,L|344:128,1,65
272,176,196894,2,0,L|272:32,1,130
168,176,197303,2,0,L|168:40,1,130
96,136,197712,5,0,0:0:0:0:
200,136,197849,1,0,0:0:0:0:
296,136,197985,1,0,0:0:0:0:
392,136,198121,1,0,0:0:0:0:
128,144,198258,2,0,B|56:144|56:144|288:304,1,325
368,296,199076,1,0,0:0:0:0:
136,184,199485,2,0,L|40:144,1,65
264,184,199894,5,0,0:0:0:0:
320,184,200031,1,0,0:0:0:0:
376,184,200167,1,0,0:0:0:0:
176,184,200303,1,0,0:0:0:0:
128,184,200440,2,0,L|56:184,1,65
80,240,200712,2,0,L|312:240,1,195
392,248,201258,1,0,0:0:0:0:
288,232,201667,2,0,L|192:192,1,65
172,192,202076,5,0,0:0:0:0:
136,176,202144,1,0,0:0:0:0:
120,132,202212,1,0,0:0:0:0:
146,93,202280,1,0,0:0:0:0:
183,90,202348,1,0,0:0:0:0:
248,212,202622,1,0,0:0:0:0:
408,200,202895,1,0,0:0:0:0:
432,168,203031,1,0,0:0:0:0:
400,128,203167,1,0,0:0:0:0:
204,112,203440,5,0,0:0:0:0:
264,120,203713,1,0,0:0:0:0:
392,184,203985,1,0,0:0:0:0:
412,216,204122,1,0,0:0:0:0:
400,256,204258,1,0,0:0:0:0:
256,260,204531,5,0,0:0:0:0:
128,192,204804,1,0,0:0:0:0:
256,116,205076,1,0,0:0:0:0:
380,192,205349,1,0,0:0:0:0:
256,192,208212,12,0,214349,0:0:0:0:
