osu file format v14

[General]
AudioFilename: fragment of tears.mp3
AudioLeadIn: 0
PreviewTime: 51063
Countdown: 0
SampleSet: None
StackLeniency: 0.7
Mode: 3
LetterboxInBreaks: 0
SpecialStyle: 1
WidescreenStoryboard: 0

[Editor]
DistanceSpacing: 1
BeatDivisor: 4
GridSize: 4
TimelineZoom: 1

[Metadata]
Title:fragment of tears
TitleUnicode:fragment of tears
Artist:Nakamura Meiko
ArtistUnicode:Nakamura Meiko
Creator:- [ S o r a ] -
Version:Another
Source:BMS
Tags:
BeatmapID:815394
BeatmapSetID:372286

[Difficulty]
HPDrainRate:8
CircleSize:7
OverallDifficulty:9
ApproachRate:5
SliderMultiplier:1.4
SliderTickRate:1

[Events]
//Background and Video events
0,0,"BGs.jpg",0,0
//Break Periods
//Storyboard Layer 0 (Background)
//Storyboard Layer 1 (Fail)
//Storyboard Layer 2 (Pass)
//Storyboard Layer 3 (Foreground)
//Storyboard Sound Samples
Sample,32721,0,"Dr_OHH100.wav",70
Sample,33406,0,"Dr_OHH100.wav",70
Sample,33749,0,"Dr_OHH100.wav",70
Sample,34092,0,"Dr_OHH100.wav",70
Sample,34435,0,"Dr_OHH100.wav",70
Sample,34778,0,"Dr_OHH100.wav",70
Sample,35121,0,"Dr_OHH100.wav",70
Sample,35463,0,"Dr_OHH100.wav",70
Sample,74549,0,"Dr_OHH100.wav",70
Sample,74892,0,"Dr_OHH100.wav",70
Sample,75235,0,"Dr_OHH100.wav",70
Sample,75578,0,"Dr_OHH100.wav",70
Sample,75921,0,"Dr_OHH100.wav",70
Sample,76263,0,"Dr_OHH100.wav",70
Sample,76606,0,"Dr_OHH100.wav",70
Sample,76949,0,"Dr_OHH100.wav",70
Sample,77292,0,"Dr_OHH100.wav",70
Sample,77635,0,"Dr_OHH100.wav",70
Sample,77978,0,"Dr_OHH100.wav",70
Sample,78321,0,"Dr_OHH100.wav",70
Sample,78663,0,"Dr_OHH100.wav",70
Sample,79006,0,"Dr_OHH100.wav",70
Sample,79349,0,"Dr_OHH100.wav",70
Sample,79692,0,"Dr_OHH100.wav",70
Sample,80035,0,"Dr_OHH100.wav",70
Sample,80378,0,"Dr_OHH100.wav",70
Sample,80721,0,"Dr_OHH100.wav",70
Sample,81063,0,"Dr_OHH100.wav",70
Sample,81406,0,"Dr_OHH100.wav",70
Sample,81749,0,"Dr_OHH100.wav",70
Sample,82092,0,"Dr_OHH100.wav",70
Sample,82435,0,"Dr_OHH100.wav",70
Sample,82778,0,"Dr_OHH100.wav",70
Sample,83121,0,"Dr_OHH100.wav",70
Sample,83463,0,"Dr_OHH100.wav",70
Sample,83806,0,"Dr_OHH100.wav",70
Sample,84149,0,"Dr_OHH100.wav",70
Sample,84492,0,"Dr_OHH100.wav",70
Sample,95978,0,"ChimeD_10.wav",70

[TimingPoints]
2721,342.857142857143,4,2,0,70,1,0
52092,-100,4,2,0,70,0,1
74035,-100,4,2,0,70,0,0
101463,-100,4,2,0,70,0,1
120663,-100,4,2,0,70,0,0

[HitObjects]
256,192,2035,128,0,2720:0:0:0:85:SE_RevCR.wav
109,192,2720,1,0,0:0:0:85:Dr_Kick100.wav
36,192,2720,1,0,0:0:0:85:Dr_CymA100.wav
475,192,2720,1,0,0:0:0:85:IntPianoF5.wav
402,192,2720,1,0,0:0:0:85:IntPianoF4.wav
182,192,3235,1,0,0:0:0:85:IntPianoE4.wav
402,192,3235,1,0,0:0:0:85:IntPianoE5.wav
109,192,3749,1,0,0:0:0:85:IntPianoC4.wav
329,192,3749,1,0,0:0:0:85:IntPianoC5.wav
256,192,4263,1,0,0:0:0:85:IntPianoG4.wav
36,192,4263,1,0,0:0:0:85:IntPianoG3.wav
109,192,4778,1,0,0:0:0:85:IntPianoA3.wav
329,192,4778,1,0,0:0:0:85:IntPianoA4.wav
182,192,5121,1,0,0:0:0:85:IntPianoC4.wav
402,192,5121,1,0,0:0:0:85:IntPianoC5.wav
256,192,5292,1,0,0:0:0:85:Dr_Kick100.wav
256,192,5463,1,0,0:0:0:85:Dr_Kick100.wav
329,192,5463,1,0,0:0:0:85:IntPianoF4.wav
36,192,5463,1,0,0:0:0:85:Dr_CymA100.wav
475,192,5463,1,0,0:0:0:85:IntPianoF5.wav
256,192,5978,1,0,0:0:0:85:IntPianoE4.wav
475,192,5978,1,0,0:0:0:85:IntPianoE5.wav
256,192,6492,1,0,0:0:0:85:IntPianoC5.wav
36,192,6492,1,0,0:0:0:85:IntPianoC4.wav
256,192,7006,1,0,0:0:0:85:IntPianoG4.wav
475,192,7006,1,0,0:0:0:85:IntPianoG5.wav
182,192,7521,1,0,0:0:0:85:IntPianoF4.wav
402,192,7521,1,0,0:0:0:85:IntPianoF5.wav
109,192,7692,1,0,0:0:0:85:Dr_Kick090.wav
109,192,7863,1,0,0:0:0:85:Dr_Kick100.wav
329,192,7863,1,0,0:0:0:85:IntPianoE5.wav
36,192,7863,1,0,0:0:0:85:IntPianoE4.wav
182,192,8206,1,0,0:0:0:85:Dr_Kick100.wav
329,192,8206,1,0,0:0:0:85:IntPianoF4.wav
36,192,8206,1,0,0:0:0:85:Dr_CymA100.wav
475,192,8206,1,0,0:0:0:85:IntPianoF5.wav
36,192,8549,1,0,0:0:0:85:Dr_Kick100.wav
182,192,8721,1,0,0:0:0:85:IntPianoE4.wav
402,192,8721,1,0,0:0:0:85:IntPianoE5.wav
109,192,8892,1,0,0:0:0:85:Dr_Kick100.wav
109,192,9235,1,0,0:0:0:85:IntPianoC4.wav
329,192,9235,1,0,0:0:0:85:IntPianoC5.wav
36,192,9235,1,0,0:0:0:85:Dr_Kick100.wav
475,192,9578,1,0,0:0:0:85:Dr_Kick100.wav
256,192,9749,1,0,0:0:0:85:IntPianoG4.wav
36,192,9749,1,0,0:0:0:85:IntPianoG3.wav
329,192,9921,1,0,0:0:0:85:Dr_Kick100.wav
182,192,10263,1,0,0:0:0:85:IntPianoA3.wav
329,192,10263,1,0,0:0:0:85:IntPianoA4.wav
402,192,10263,1,0,0:0:0:85:Dr_Kick100.wav
182,192,10521,1,0,0:0:0:85:Dr_Kick080.wav
329,192,10606,1,0,0:0:0:85:IntPianoC4.wav
36,192,10606,1,0,0:0:0:85:Dr_Kick100.wav
475,192,10606,1,0,0:0:0:85:IntPianoC5.wav
36,192,10778,1,0,0:0:0:85:Dr_Kick090.wav
182,192,10863,1,0,0:0:0:85:Dr_Kick080.wav
109,192,10949,1,0,0:0:0:85:Dr_CymA100.wav
329,192,10949,1,0,0:0:0:85:IntPianoF5.wav
36,192,10949,1,0,0:0:0:85:Dr_Kick100.wav
475,192,10949,1,0,0:0:0:85:Dr_SnRoll085.wav
402,192,11035,1,0,0:0:0:85:Dr_SnRoll085.wav
109,192,11121,1,0,0:0:0:85:Dr_SnRoll085.wav
475,192,11206,1,0,0:0:0:85:Dr_SnRoll085.wav
182,192,11292,1,0,0:0:0:85:Dr_SnRoll090.wav
329,192,11378,1,0,0:0:0:85:Dr_SnRoll090.wav
182,192,11463,1,0,0:0:0:85:Dr_SnRoll090.wav
256,192,11463,1,0,0:0:0:85:IntPianoE5.wav
329,192,11463,1,0,0:0:0:85:IntPianoE4.wav
36,192,11463,1,0,0:0:0:85:Dr_Kick090.wav
402,192,11549,1,0,0:0:0:85:Dr_SnRoll090.wav
109,192,11635,1,0,0:0:0:85:Dr_Kick100.wav
36,192,11635,1,0,0:0:0:85:Dr_CymB100.wav
475,192,11635,1,0,0:0:0:85:Dr_SnRoll095.wav
182,192,11721,1,0,0:0:0:85:Dr_SnRoll095.wav
329,192,11806,1,0,0:0:0:85:Dr_SnRoll095.wav
109,192,11892,1,0,0:0:0:85:Dr_SnRoll095.wav
256,192,11978,1,0,0:0:0:85:IntPianoC4.wav
36,192,11978,1,0,0:0:0:85:IntPianoC5.wav
475,192,11978,1,0,0:0:0:85:Dr_SnRoll100.wav
402,192,12063,1,0,0:0:0:85:Dr_SnRoll100.wav
329,192,12149,1,0,0:0:0:85:Dr_SnRoll100.wav
36,192,12149,1,0,0:0:0:85:Dr_Kick090.wav
402,192,12235,1,0,0:0:0:85:Dr_SnRoll100.wav
109,192,12321,1,0,0:0:0:85:Dr_Kick100.wav
329,192,12321,1,0,0:0:0:85:ChimeInt_07.wav
36,192,12321,1,0,0:0:0:85:Dr_CymA100.wav
256,192,12492,1,0,0:0:0:85:IntPianoG4.wav
475,192,12492,1,0,0:0:0:85:IntPianoG5.wav
109,192,12663,1,0,0:0:0:85:Dr_Kick100.wav
36,192,12663,1,0,0:0:0:85:Dr_CymC100.wav
109,192,13006,1,0,0:0:0:85:Dr_Kick100.wav
182,192,13006,1,0,0:0:0:85:IntPianoF4.wav
329,192,13006,1,0,0:0:0:85:SE_RevCR.wav
402,192,13006,1,0,0:0:0:85:IntPianoF5.wav
36,192,13006,1,0,0:0:0:85:Dr_CymB100.wav
182,192,13263,1,0,0:0:0:85:Dr_Kick080.wav
109,192,13349,1,0,0:0:0:85:Dr_Kick100.wav
256,192,13349,1,0,0:0:0:85:IntPianoE4.wav
36,192,13349,1,0,0:0:0:85:Dr_CymC100.wav
475,192,13349,1,0,0:0:0:85:IntPianoE5.wav
182,192,13521,1,0,0:0:0:85:Dr_Kick090.wav
329,192,13606,1,0,0:0:0:85:Dr_Kick080.wav
109,192,13692,1,0,0:0:0:85:Dr_Kick100.wav
256,192,13692,1,0,0:0:0:85:PianoA_D2_16.wav
36,192,13692,1,0,0:0:0:85:Dr_CymA100.wav
475,192,13692,1,0,0:0:0:85:SE_Exp01.wav
182,192,13863,1,0,0:0:0:85:PianoA_A2_14.wav
329,192,14035,1,0,0:0:0:85:PianoA_D3_12.wav
475,192,14206,1,0,0:0:0:85:PianoA_F3_10.wav
182,192,15063,1,0,0:0:0:85:PianoA_C2_16.wav
109,192,15235,1,0,0:0:0:85:PianoA_G2_10.wav
256,192,15406,1,0,0:0:0:85:PianoA_C3_12.wav
329,192,15578,1,0,0:0:0:85:PianoA_E3_10.wav
36,192,16092,1,0,0:0:0:85:PianoA_G2_4.wav
109,192,16435,1,0,0:0:0:85:PianoA_B1b_16.wav
36,192,16606,1,0,0:0:0:85:PianoA_F2_26.wav
182,192,16778,1,0,0:0:0:85:PianoA_B2b_24.wav
256,192,16949,1,0,0:0:0:85:PianoA_D3_22.wav
256,192,17635,1,0,0:0:0:85:PianoAmelo_E5.wav
329,192,17721,1,0,0:0:0:85:PianoAmelo_G5.wav
402,192,17806,1,0,0:0:0:85:PianoAmelo_F5.wav
36,192,17806,1,0,0:0:0:85:PianoA_B1b_16.wav
475,192,17806,1,0,0:0:0:85:PianoAmelo_A5.wav
182,192,18321,1,0,0:0:0:85:PianoAmelo_E5.wav
402,192,18321,1,0,0:0:0:85:PianoAmelo_G5.wav
182,192,18835,1,0,0:0:0:85:PianoAmelo_C5.wav
329,192,18835,1,0,0:0:0:85:PianoAmelo_E5.wav
36,192,18835,1,0,0:0:0:85:PianoA_CGC_4.wav
109,192,19178,1,0,0:0:0:85:Dr_Kick100.wav
256,192,19178,1,0,0:0:0:85:PianoAmelo_F5.wav
329,192,19178,1,0,0:0:0:85:PianoA_D2_16.wav
36,192,19178,1,0,0:0:0:85:Dr_CymA100.wav
182,192,19349,1,0,0:0:0:85:PianoA_A2_14.wav
329,192,19521,1,0,0:0:0:85:PianoA_D3_12.wav
475,192,19692,1,0,0:0:0:85:PianoA_F3_10.wav
182,192,20549,1,0,0:0:0:85:PianoA_C2_16.wav
109,192,20721,1,0,0:0:0:85:PianoA_G2_10.wav
256,192,20892,1,0,0:0:0:85:PianoA_C3_12.wav
329,192,21063,1,0,0:0:0:85:PianoA_E3_10.wav
182,192,21578,1,0,0:0:0:85:PianoA_G3_4.wav
109,192,21921,1,0,0:0:0:85:PianoA_B1b_16.wav
36,192,22092,1,0,0:0:0:85:PianoA_F2_26.wav
182,192,22263,1,0,0:0:0:85:PianoA_B2b_24.wav
256,192,22435,1,0,0:0:0:85:PianoA_D3_22.wav
109,192,22778,1,0,0:0:0:85:PianoAmelo_A4.wav
329,192,22778,1,0,0:0:0:85:PianoAmelo_A5.wav
256,192,22949,1,0,0:0:0:85:PianoAmelo_B4b.wav
475,192,22949,1,0,0:0:0:85:PianoAmelo_B5b.wav
109,192,23121,1,0,0:0:0:85:PianoAmelo_A4.wav
329,192,23121,1,0,0:0:0:85:PianoAmelo_A5.wav
182,192,23292,1,0,0:0:0:85:Dr_Kick100.wav
36,192,23292,1,0,0:0:0:85:Dr_CymC100.wav
475,192,23292,1,0,0:0:0:85:Dr_SnRoll100.wav
329,192,23378,1,0,0:0:0:85:Dr_SnRoll100.wav
109,192,23463,1,0,0:0:0:85:PianoAmelo_G4.wav
256,192,23463,1,0,0:0:0:85:PianoAmelo_G5.wav
475,192,23463,1,0,0:0:0:85:Dr_SnRoll100.wav
329,192,23635,1,0,0:0:0:85:Dr_SnRoll100.wav
475,192,23721,1,0,0:0:0:85:Dr_SnRoll100.wav
182,192,23806,1,0,0:0:0:85:PianoAmelo_F5.wav
36,192,23806,1,0,0:0:0:85:PianoAmelo_F4.wav
329,192,23892,1,0,0:0:0:85:Dr_SnRoll100.wav
475,192,24063,1,0,0:0:0:85:Dr_SnRoll100.wav
109,192,24149,1,0,0:0:0:85:PianoAmelo_G4.wav
256,192,24149,1,0,0:0:0:85:PianoAmelo_G5.wav
329,192,24149,1,0,0:0:0:85:Dr_SnRoll100.wav
182,192,24235,1,0,0:0:0:85:Dr_Kick080.wav
256,192,24321,1,0,0:0:0:85:Dr_Kick100.wav
402,192,24321,1,0,0:0:0:85:Dr_SnRoll100.wav
329,192,24406,1,0,0:0:0:85:Dr_SnRoll100.wav
182,192,24492,1,0,0:0:0:85:Dr_Kick090.wav
475,192,24492,1,0,0:0:0:85:Dr_SnRoll100.wav
256,192,24578,1,0,0:0:0:85:Dr_Kick080.wav
402,192,24578,1,0,0:0:0:85:Dr_SnRoll100.wav
182,192,24663,1,0,0:0:0:85:Dr_Kick100.wav
329,192,24663,1,0,0:0:0:85:TGA_Dm4_1.wav
36,192,24663,1,0,0:0:0:85:Dr_CymA100.wav
256,192,24749,1,0,0:0:0:85:TGA_Dm4_1.wav
182,192,24835,1,0,0:0:0:85:Dr_OHH100.wav
402,192,24835,1,0,0:0:0:85:TGA_Dm4_2.wav
256,192,25006,1,0,0:0:0:85:TGA_Dm4_1.wav
109,192,25006,1,0,0:0:0:85:Dr_Kick100.wav
329,192,25092,1,0,0:0:0:85:TGA_Dm4_1.wav
182,192,25178,1,0,0:0:0:85:Dr_OHH100.wav
402,192,25178,1,0,0:0:0:85:TGA_Dm4_2.wav
256,192,25349,1,0,0:0:0:85:Dr_Kick100.wav
329,192,25349,1,0,0:0:0:85:TGA_Dm4_1.wav
475,192,25435,1,0,0:0:0:85:TGA_Dm4_1.wav
36,192,25521,1,0,0:0:0:85:Dr_OHH100.wav
402,192,25521,1,0,0:0:0:85:TGA_Dm4_2.wav
109,192,25692,1,0,0:0:0:85:Dr_Kick100.wav
256,192,25692,1,0,0:0:0:85:TGA_Dm4_1.wav
329,192,25778,1,0,0:0:0:85:TGA_Dm4_1.wav
182,192,25863,1,0,0:0:0:85:Dr_OHH100.wav
402,192,25863,1,0,0:0:0:85:TGA_Dm4_2.wav
475,192,26035,1,0,0:0:0:85:TGA_C4_1.wav
36,192,26035,1,0,0:0:0:85:Dr_Kick100.wav
402,192,26121,1,0,0:0:0:85:TGA_C4_1.wav
329,192,26206,1,0,0:0:0:85:TGA_C4_2.wav
182,192,26206,1,0,0:0:0:85:Dr_OHH100.wav
109,192,26378,1,0,0:0:0:85:Dr_Kick100.wav
475,192,26378,1,0,0:0:0:85:TGA_C4_1.wav
402,192,26463,1,0,0:0:0:85:TGA_C4_1.wav
329,192,26549,1,0,0:0:0:85:TGA_C4_2.wav
256,192,26549,1,0,0:0:0:85:Dr_OHH100.wav
109,192,26721,1,0,0:0:0:85:Dr_Kick100.wav
182,192,26721,1,0,0:0:0:85:TGA_C4_1.wav
256,192,26806,1,0,0:0:0:85:TGA_C4_1.wav
182,192,26892,1,0,0:0:0:85:Dr_OHH100.wav
329,192,26892,1,0,0:0:0:85:TGA_C4_2.wav
36,192,27063,1,0,0:0:0:85:Dr_Kick100.wav
109,192,27063,1,0,0:0:0:85:TGA_C4_1.wav
182,192,27149,1,0,0:0:0:85:TGA_C4_1.wav
402,192,27235,1,0,0:0:0:85:Dr_OHH100.wav
256,192,27235,1,0,0:0:0:85:TGA_C4_2.wav
256,192,27406,1,0,0:0:0:85:TGA_Bb3_1.wav
109,192,27406,1,0,0:0:0:85:Dr_Kick100.wav
329,192,27492,1,0,0:0:0:85:TGA_Bb3_1.wav
182,192,27578,1,0,0:0:0:85:Dr_OHH100.wav
402,192,27578,1,0,0:0:0:85:TGA_Bb3_2.wav
402,192,27749,1,0,0:0:0:85:TGA_Bb3_1.wav
36,192,27749,1,0,0:0:0:85:Dr_Kick100.wav
329,192,27835,1,0,0:0:0:85:TGA_Bb3_1.wav
182,192,27921,1,0,0:0:0:85:Dr_OHH100.wav
256,192,27921,1,0,0:0:0:85:TGA_Bb3_2.wav
109,192,28092,1,0,0:0:0:85:Dr_Kick100.wav
256,192,28092,1,0,0:0:0:85:TGA_Bb3_1.wav
329,192,28178,1,0,0:0:0:85:TGA_Bb3_1.wav
182,192,28263,1,0,0:0:0:85:Dr_OHH100.wav
402,192,28263,1,0,0:0:0:85:TGA_Bb3_2.wav
36,192,28435,1,0,0:0:0:85:Dr_Kick100.wav
475,192,28435,1,0,0:0:0:85:TGA_Bb3_1.wav
402,192,28521,1,0,0:0:0:85:TGA_Bb3_1.wav
329,192,28606,1,0,0:0:0:85:TGA_Bb3_2.wav
182,192,28606,1,0,0:0:0:85:Dr_OHH100.wav
402,192,28778,1,0,0:0:0:85:Dr_Kick100.wav
36,192,28778,1,0,0:0:0:85:TGA_Bb3_1.wav
109,192,28863,1,0,0:0:0:85:TGA_Bb3_1.wav
256,192,28949,1,0,0:0:0:85:Dr_OHH100.wav
182,192,28949,1,0,0:0:0:85:TGA_Bb3_2.wav
329,192,29121,1,0,0:0:0:85:Dr_Kick100.wav
109,192,29121,1,0,0:0:0:85:TGA_Bb3_1.wav
182,192,29206,1,0,0:0:0:85:TGA_Bb3_1.wav
402,192,29292,1,0,0:0:0:85:Dr_OHH100.wav
256,192,29292,1,0,0:0:0:85:TGA_Bb3_2.wav
329,192,29463,1,0,0:0:0:85:TGA_Bb3_1.wav
109,192,29463,1,0,0:0:0:85:Dr_Kick100.wav
256,192,29549,1,0,0:0:0:85:TGA_Bb3_1.wav
36,192,29635,1,0,0:0:0:85:Dr_OHH100.wav
182,192,29635,1,0,0:0:0:85:TGA_Bb3_2.wav
475,192,29806,1,0,0:0:0:85:Dr_Kick100.wav
402,192,29806,1,0,0:0:0:85:TGA_C4_1.wav
256,192,29892,1,0,0:0:0:85:TGA_C4_1.wav
109,192,29978,1,0,0:0:0:85:Dr_OHH100.wav
329,192,29978,1,0,0:0:0:85:TGA_C4_2.wav
402,192,30149,1,0,0:0:0:85:Dr_Kick100.wav
182,192,30149,1,0,0:0:0:85:TGA_Dm4_1.wav
329,192,30235,1,0,0:0:0:85:TGA_Dm4_1.wav
36,192,30321,1,0,0:0:0:85:Dr_OHH100.wav
475,192,30321,1,0,0:0:0:85:TGA_Dm4_2.wav
182,192,30492,1,0,0:0:0:85:Dr_Kick100.wav
329,192,30492,1,0,0:0:0:85:TGA_Dm4_1.wav
256,192,30578,1,0,0:0:0:85:TGA_Dm4_1.wav
36,192,30663,1,0,0:0:0:85:Dr_OHH100.wav
182,192,30663,1,0,0:0:0:85:TGA_Dm4_2.wav
329,192,30835,1,0,0:0:0:85:Dr_Kick100.wav
109,192,30835,1,0,0:0:0:85:TGA_Dm4_1.wav
182,192,30921,1,0,0:0:0:85:TGA_Dm4_1.wav
475,192,31006,1,0,0:0:0:85:Dr_OHH100.wav
256,192,31006,1,0,0:0:0:85:TGA_Dm4_2.wav
109,192,31178,1,0,0:0:0:85:Dr_Kick100.wav
402,192,31178,1,0,0:0:0:85:TGA_Dm4_1.wav
256,192,31263,1,0,0:0:0:85:TGA_Dm4_1.wav
36,192,31349,1,0,0:0:0:85:Dr_OHH100.wav
329,192,31349,1,0,0:0:0:85:TGA_Dm4_2.wav
182,192,31521,1,0,0:0:0:85:Dr_Kick100.wav
402,192,31521,1,0,0:0:0:85:TGA_C4_1.wav
256,192,31606,1,0,0:0:0:85:TGA_C4_1.wav
36,192,31692,1,0,0:0:0:85:Dr_OHH100.wav
182,192,31692,1,0,0:0:0:85:TGA_C4_2.wav
109,192,31863,1,0,0:0:0:85:Dr_Kick100.wav
402,192,31863,1,0,0:0:0:85:TGA_C4_1.wav
329,192,31949,1,0,0:0:0:85:TGA_C4_1.wav
36,192,32035,1,0,0:0:0:85:Dr_OHH100.wav
256,192,32035,1,0,0:0:0:85:TGA_C4_2.wav
475,192,32206,1,0,0:0:0:85:TGA_C4_1.wav
109,192,32206,1,0,0:0:0:85:Dr_Kick100.wav
402,192,32292,1,0,0:0:0:85:TGA_C4_1.wav
36,192,32378,1,0,0:0:0:85:Dr_OHH100.wav
329,192,32378,1,0,0:0:0:85:TGA_C4_2.wav
182,192,32549,1,0,0:0:0:85:Dr_Kick100.wav
402,192,32549,1,0,0:0:0:85:TGA_C4_1.wav
329,192,32635,1,0,0:0:0:85:TGA_C4_1.wav
109,192,32721,1,0,0:0:0:85:Dr_Kick090.wav
475,192,32721,1,0,0:0:0:85:TGA_C4_2.wav
109,192,32892,1,0,0:0:0:85:Dr_Kick100.wav
256,192,32892,1,0,0:0:0:85:TGA_Bb3_1.wav
36,192,32892,1,0,0:0:0:85:Dr_CymA100.wav
475,192,32892,1,0,0:0:0:85:Dr_SnRoll080.wav
182,192,32978,1,0,0:0:0:85:TGA_Bb3_1.wav
402,192,32978,1,0,0:0:0:85:Dr_SnRoll080.wav
475,192,33063,1,0,0:0:0:85:Dr_OHH100.wav
256,192,33063,1,0,0:0:0:85:Dr_SnRoll080.wav
329,192,33063,1,0,0:0:0:85:TGA_Bb3_2.wav
402,192,33149,1,0,0:0:0:85:Dr_SnRoll080.wav
109,192,33235,1,0,0:0:0:85:Dr_Kick100.wav
256,192,33235,1,0,0:0:0:85:TGA_Bb3_1.wav
329,192,33235,1,0,0:0:0:85:Dr_SnRoll080.wav
182,192,33321,1,0,0:0:0:85:TGA_Bb3_1.wav
36,192,33321,1,0,0:0:0:85:Dr_SnRoll080.wav
109,192,33406,1,0,0:0:0:85:Dr_SnRoll080.wav
329,192,33406,1,0,0:0:0:85:TGA_Bb3_2.wav
256,192,33492,1,0,0:0:0:85:Dr_SnRoll080.wav
109,192,33578,1,0,0:0:0:85:Dr_Kick100.wav
329,192,33578,1,0,0:0:0:85:TGA_Bb3_1.wav
475,192,33578,1,0,0:0:0:85:Dr_SnRoll080.wav
182,192,33663,1,0,0:0:0:85:TGA_Bb3_1.wav
402,192,33663,1,0,0:0:0:85:Dr_SnRoll080.wav
109,192,33749,1,0,0:0:0:85:Dr_SnRoll080.wav
329,192,33749,1,0,0:0:0:85:TGA_Bb3_2.wav
402,192,33835,1,0,0:0:0:85:Dr_SnRoll080.wav
109,192,33921,1,0,0:0:0:85:Dr_Kick100.wav
182,192,33921,1,0,0:0:0:85:TGA_Bb3_1.wav
475,192,33921,1,0,0:0:0:85:Dr_SnRoll080.wav
256,192,34006,1,0,0:0:0:85:TGA_Bb3_1.wav
402,192,34006,1,0,0:0:0:85:Dr_SnRoll080.wav
36,192,34092,1,0,0:0:0:85:Dr_Kick090.wav
182,192,34092,1,0,0:0:0:85:Dr_SnRoll080.wav
329,192,34092,1,0,0:0:0:85:TGA_Bb3_2.wav
402,192,34178,1,0,0:0:0:85:Dr_SnRoll080.wav
329,192,34263,1,0,0:0:0:85:Dr_CymB100.wav
109,192,34263,1,0,0:0:0:85:Dr_Kick100.wav
256,192,34263,1,0,0:0:0:85:TGA_G3B3_1.wav
475,192,34263,1,0,0:0:0:85:Dr_SnRoll085.wav
36,192,34349,1,0,0:0:0:85:TGA_G3B3_1.wav
402,192,34349,1,0,0:0:0:85:Dr_SnRoll085.wav
109,192,34435,1,0,0:0:0:85:Dr_Kick090.wav
182,192,34435,1,0,0:0:0:85:Dr_SnRoll085.wav
329,192,34435,1,0,0:0:0:85:TGA_G3B3_2.wav
402,192,34521,1,0,0:0:0:85:Dr_SnRoll085.wav
36,192,34606,1,0,0:0:0:85:Dr_Kick100.wav
109,192,34606,1,0,0:0:0:85:TGA_G3B3_1.wav
475,192,34606,1,0,0:0:0:85:Dr_SnRoll090.wav
182,192,34692,1,0,0:0:0:85:TGA_G3B3_1.wav
329,192,34692,1,0,0:0:0:85:Dr_SnRoll090.wav
109,192,34778,1,0,0:0:0:85:Dr_Kick090.wav
256,192,34778,1,0,0:0:0:85:Dr_SnRoll090.wav
402,192,34778,1,0,0:0:0:85:TGA_G3B3_2.wav
329,192,34863,1,0,0:0:0:85:Dr_SnRoll090.wav
475,192,34949,1,0,0:0:0:85:Dr_SnRoll095.wav
36,192,34949,128,0,35635:0:0:0:85:SE_RevCR.wav
402,192,34949,1,0,0:0:0:85:Dr_CymC100.wav
109,192,34949,1,0,0:0:0:85:Dr_Kick100.wav
256,192,34949,1,0,0:0:0:85:TGA_G3B3_1.wav
182,192,35035,1,0,0:0:0:85:TGA_G3B3_1.wav
329,192,35035,1,0,0:0:0:85:Dr_SnRoll095.wav
109,192,35121,1,0,0:0:0:85:Dr_Kick090.wav
256,192,35121,1,0,0:0:0:85:Dr_SnRoll095.wav
402,192,35121,1,0,0:0:0:85:TGA_G3B3_2.wav
329,192,35206,1,0,0:0:0:85:Dr_SnRoll095.wav
182,192,35206,1,0,0:0:0:85:Dr_Kick080.wav
109,192,35292,1,0,0:0:0:85:Dr_Kick100.wav
256,192,35292,1,0,0:0:0:85:TGA_G3B3_1.wav
402,192,35292,1,0,0:0:0:85:Dr_CymC100.wav
475,192,35292,1,0,0:0:0:85:Dr_SnRoll100.wav
182,192,35378,1,0,0:0:0:85:TGA_G3B3_1.wav
329,192,35378,1,0,0:0:0:85:Dr_SnRoll100.wav
402,192,35463,1,0,0:0:0:85:TGA_G3B3_2.wav
109,192,35463,1,0,0:0:0:85:Dr_Kick090.wav
256,192,35463,1,0,0:0:0:85:Dr_SnRoll100.wav
329,192,35549,1,0,0:0:0:85:Dr_SnRoll100.wav
109,192,35635,1,0,0:0:0:85:Dr_Kick100.wav
256,192,35635,1,0,0:0:0:85:TGB_Gm3_1.wav
182,192,35635,1,0,0:0:0:85:Dr_CymA100.wav
329,192,35721,1,0,0:0:0:85:TGB_Gm3_1.wav
402,192,35806,1,0,0:0:0:85:TGB_Gm3_2.wav
182,192,35806,1,0,0:0:0:85:Dr_OHH100.wav
109,192,35978,1,0,0:0:0:85:Dr_Kick100.wav
329,192,35978,1,0,0:0:0:85:TGB_Gm3_1.wav
402,192,36063,1,0,0:0:0:85:TGB_Gm3_1.wav
475,192,36149,1,0,0:0:0:85:TGB_Gm3_2.wav
36,192,36149,1,0,0:0:0:85:Dr_OHH100.wav
109,192,36321,1,0,0:0:0:85:Dr_Kick100.wav
256,192,36321,1,0,0:0:0:85:TGB_Gm3_1.wav
182,192,36406,1,0,0:0:0:85:TGB_Gm3_1.wav
329,192,36492,1,0,0:0:0:85:Dr_OHH100.wav
109,192,36492,1,0,0:0:0:85:TGB_Gm3_2.wav
182,192,36663,1,0,0:0:0:85:TGB_Gm3_1.wav
402,192,36663,1,0,0:0:0:85:Dr_Kick100.wav
109,192,36749,1,0,0:0:0:85:TGB_Gm3_1.wav
182,192,36835,1,0,0:0:0:85:Dr_OHH100.wav
36,192,36835,1,0,0:0:0:85:TGB_Gm3_2.wav
36,192,37006,1,0,0:0:0:85:Dr_Kick100.wav
109,192,37006,1,0,0:0:0:85:TGB_Am3_1.wav
182,192,37092,1,0,0:0:0:85:TGB_Am3_1.wav
256,192,37178,1,0,0:0:0:85:TGB_Am3_2.wav
402,192,37178,1,0,0:0:0:85:Dr_OHH100.wav
109,192,37349,1,0,0:0:0:85:Dr_Kick100.wav
329,192,37349,1,0,0:0:0:85:TGB_Am3_1.wav
256,192,37435,1,0,0:0:0:85:TGB_Am3_1.wav
475,192,37521,1,0,0:0:0:85:Dr_OHH100.wav
182,192,37521,1,0,0:0:0:85:TGB_Am3_2.wav
329,192,37692,1,0,0:0:0:85:Dr_Kick100.wav
182,192,37692,1,0,0:0:0:85:TGB_Am3_1.wav
109,192,37778,1,0,0:0:0:85:TGB_Am3_1.wav
256,192,37863,1,0,0:0:0:85:Dr_OHH100.wav
36,192,37863,1,0,0:0:0:85:TGB_Am3_2.wav
36,192,38035,1,0,0:0:0:85:Dr_Kick100.wav
182,192,38035,1,0,0:0:0:85:TGB_Am3_1.wav
256,192,38121,1,0,0:0:0:85:TGB_Am3_1.wav
329,192,38206,1,0,0:0:0:85:TGB_Am3_2.wav
109,192,38206,1,0,0:0:0:85:Dr_OHH100.wav
256,192,38378,1,0,0:0:0:85:Dr_Kick100.wav
475,192,38378,1,0,0:0:0:85:TGB_Bb3_1.wav
329,192,38463,1,0,0:0:0:85:TGB_Bb3_1.wav
36,192,38549,1,0,0:0:0:85:TGB_Bb3_2.wav
182,192,38549,1,0,0:0:0:85:Dr_OHH100.wav
109,192,38721,1,0,0:0:0:85:Dr_Kick100.wav
402,192,38721,1,0,0:0:0:85:TGB_Bb3_1.wav
256,192,38806,1,0,0:0:0:85:TGB_Bb3_1.wav
329,192,38892,1,0,0:0:0:85:Dr_OHH100.wav
109,192,38892,1,0,0:0:0:85:TGB_Bb3_2.wav
36,192,39063,1,0,0:0:0:85:Dr_Kick100.wav
182,192,39063,1,0,0:0:0:85:TGB_Bb3_1.wav
329,192,39149,1,0,0:0:0:85:TGB_Bb3_1.wav
256,192,39235,1,0,0:0:0:85:Dr_OHH100.wav
475,192,39235,1,0,0:0:0:85:TGB_Bb3_2.wav
36,192,39406,1,0,0:0:0:85:Dr_Kick100.wav
109,192,39406,1,0,0:0:0:85:TGB_Bb3_1.wav
256,192,39492,1,0,0:0:0:85:TGB_Bb3_1.wav
109,192,39578,1,0,0:0:0:85:Dr_Kick100.wav
402,192,39578,1,0,0:0:0:85:TGB_C4L_2.wav
36,192,39578,1,0,0:0:0:85:Dr_CymC100s.wav
475,192,39578,1,0,0:0:0:85:Dr_OHH100.wav
109,192,39921,1,0,0:0:0:85:Dr_CymC100s.wav
182,192,39921,1,0,0:0:0:85:Dr_Kick100.wav
329,192,39921,1,0,0:0:0:85:TGB_C4L_2.wav
402,192,39921,1,0,0:0:0:85:Dr_OHH100.wav
182,192,40263,1,0,0:0:0:85:Dr_Kick100.wav
329,192,40263,1,0,0:0:0:85:TGB_C4L_2.wav
36,192,40263,1,0,0:0:0:85:Dr_CymC100s.wav
475,192,40263,1,0,0:0:0:85:Dr_OHH100.wav
109,192,40606,1,0,0:0:0:85:Dr_CymC100.wav
182,192,40606,1,0,0:0:0:85:Dr_Kick090.wav
402,192,40606,1,0,0:0:0:85:TGB_C4L_6.wav
475,192,40606,1,0,0:0:0:85:Dr_OHH100.wav
109,192,40778,1,0,0:0:0:85:Dr_Kick100.wav
402,192,40778,1,0,0:0:0:85:Dr_SnRoll100.wav
182,192,40863,1,0,0:0:0:85:Dr_SnRoll100.wav
329,192,40949,1,0,0:0:0:85:Dr_SnRoll100.wav
182,192,41035,1,0,0:0:0:85:Dr_SnRoll100.wav
109,192,41121,1,0,0:0:0:85:Dr_Kick100.wav
256,192,41121,1,0,0:0:0:85:TGB_Gm3_1.wav
402,192,41121,1,0,0:0:0:85:Dr_CymA100.wav
329,192,41206,1,0,0:0:0:85:TGB_Gm3_1.wav
182,192,41292,1,0,0:0:0:85:Dr_OHH100.wav
36,192,41292,1,0,0:0:0:85:TGB_Gm3_2.wav
329,192,41463,1,0,0:0:0:85:TGB_Gm3_1.wav
109,192,41463,1,0,0:0:0:85:Dr_Kick100.wav
402,192,41549,1,0,0:0:0:85:TGB_Gm3_1.wav
256,192,41635,1,0,0:0:0:85:Dr_OHH100.wav
475,192,41635,1,0,0:0:0:85:TGB_Gm3_2.wav
182,192,41806,1,0,0:0:0:85:TGB_Gm3_1.wav
36,192,41806,1,0,0:0:0:85:Dr_Kick100.wav
256,192,41892,1,0,0:0:0:85:TGB_Gm3_1.wav
109,192,41978,1,0,0:0:0:85:Dr_OHH100.wav
329,192,41978,1,0,0:0:0:85:TGB_Gm3_2.wav
36,192,42149,1,0,0:0:0:85:Dr_Kick100.wav
109,192,42149,1,0,0:0:0:85:TGB_Gm3_1.wav
182,192,42235,1,0,0:0:0:85:TGB_Gm3_1.wav
402,192,42321,1,0,0:0:0:85:Dr_OHH100.wav
256,192,42321,1,0,0:0:0:85:TGB_Gm3_2.wav
36,192,42492,1,0,0:0:0:85:Dr_Kick100.wav
475,192,42492,1,0,0:0:0:85:TGB_Am3_1.wav
402,192,42578,1,0,0:0:0:85:TGB_Am3_1.wav
109,192,42663,1,0,0:0:0:85:Dr_OHH100.wav
329,192,42663,1,0,0:0:0:85:TGB_Am3_2.wav
36,192,42835,1,0,0:0:0:85:Dr_Kick100.wav
402,192,42835,1,0,0:0:0:85:TGB_Am3_1.wav
329,192,42921,1,0,0:0:0:85:TGB_Am3_1.wav
256,192,43006,1,0,0:0:0:85:TGB_Am3_2.wav
182,192,43006,1,0,0:0:0:85:Dr_OHH100.wav
109,192,43178,1,0,0:0:0:85:Dr_Kick100.wav
329,192,43178,1,0,0:0:0:85:TGB_Am3_1.wav
256,192,43263,1,0,0:0:0:85:TGB_Am3_1.wav
36,192,43349,1,0,0:0:0:85:Dr_OHH100.wav
182,192,43349,1,0,0:0:0:85:TGB_Am3_2.wav
402,192,43521,1,0,0:0:0:85:Dr_Kick100.wav
256,192,43521,1,0,0:0:0:85:TGB_Am3_1.wav
182,192,43606,1,0,0:0:0:85:TGB_Am3_1.wav
329,192,43692,1,0,0:0:0:85:Dr_OHH100.wav
109,192,43692,1,0,0:0:0:85:TGB_Am3_2.wav
475,192,43863,1,0,0:0:0:85:Dr_Kick100.wav
182,192,43863,1,0,0:0:0:85:TGB_Bb3_1.wav
109,192,43949,1,0,0:0:0:85:TGB_Bb3_1.wav
402,192,44035,1,0,0:0:0:85:Dr_OHH100.wav
36,192,44035,1,0,0:0:0:85:TGB_Bb3_2.wav
182,192,44206,1,0,0:0:0:85:TGB_Bb3_1.wav
109,192,44206,1,0,0:0:0:85:Dr_Kick100.wav
256,192,44292,1,0,0:0:0:85:TGB_Bb3_1.wav
182,192,44378,1,0,0:0:0:85:Dr_OHH100.wav
329,192,44378,1,0,0:0:0:85:TGB_Bb3_2.wav
256,192,44549,1,0,0:0:0:85:TGB_Bb3_1.wav
109,192,44549,1,0,0:0:0:85:Dr_Kick100.wav
329,192,44635,1,0,0:0:0:85:TGB_Bb3_1.wav
36,192,44721,1,0,0:0:0:85:Dr_OHH100.wav
402,192,44721,1,0,0:0:0:85:TGB_Bb3_2.wav
182,192,44892,1,0,0:0:0:85:Dr_Kick100.wav
329,192,44892,1,0,0:0:0:85:TGB_Bb3_1.wav
402,192,44978,1,0,0:0:0:85:TGB_Bb3_1.wav
36,192,45063,1,0,0:0:0:85:Dr_OHH100.wav
475,192,45063,1,0,0:0:0:85:TGB_Bb3_2.wav
109,192,45235,1,0,0:0:0:85:Dr_Kick100.wav
256,192,45235,1,0,0:0:0:85:TGB_C4_1.wav
329,192,45321,1,0,0:0:0:85:TGB_C4_1.wav
402,192,45406,1,0,0:0:0:85:TGB_C4_2.wav
36,192,45406,1,0,0:0:0:85:Dr_OHH100.wav
109,192,45578,1,0,0:0:0:85:Dr_Kick100.wav
182,192,45578,1,0,0:0:0:85:TGB_C4_1.wav
256,192,45663,1,0,0:0:0:85:TGB_C4_1.wav
329,192,45749,1,0,0:0:0:85:TGB_C4_2.wav
36,192,45749,1,0,0:0:0:85:Dr_OHH100.wav
109,192,45921,1,0,0:0:0:85:Dr_Kick100.wav
402,192,45921,1,0,0:0:0:85:Dr_SnRoll100.wav
256,192,46006,1,0,0:0:0:85:Dr_SnRoll100.wav
36,192,46092,1,0,0:0:0:85:Dr_OHH100.wav
256,192,46178,1,0,0:0:0:85:Dr_Kick080.wav
402,192,46178,1,0,0:0:0:85:Dr_SnRoll100.wav
182,192,46263,1,0,0:0:0:85:Dr_SnRoll100.wav
109,192,46263,1,0,0:0:0:85:Dr_Kick100.wav
256,192,46349,1,0,0:0:0:85:Dr_SnRoll100.wav
182,192,46435,1,0,0:0:0:85:Dr_Kick090.wav
329,192,46435,1,0,0:0:0:85:Dr_SnRoll100.wav
402,192,46521,1,0,0:0:0:85:Dr_SnRoll100.wav
475,192,46606,1,0,0:0:0:85:Dr_Kick100.wav
256,192,46606,1,0,0:0:0:85:TGB_Bb3_1.wav
36,192,46606,1,0,0:0:0:85:Dr_CymA100.wav
329,192,46692,1,0,0:0:0:85:TGB_Bb3_1.wav
109,192,46778,1,0,0:0:0:85:Dr_OHH100.wav
402,192,46778,1,0,0:0:0:85:TGB_Bb3_2.wav
329,192,46949,1,0,0:0:0:85:TGB_Bb3_1.wav
36,192,46949,1,0,0:0:0:85:Dr_Kick100.wav
256,192,47035,1,0,0:0:0:85:TGB_Bb3_1.wav
182,192,47121,1,0,0:0:0:85:TGB_Bb3_2.wav
475,192,47121,1,0,0:0:0:85:Dr_OHH100.wav
402,192,47292,1,0,0:0:0:85:Dr_Kick100.wav
256,192,47292,1,0,0:0:0:85:TGB_Bb3_1.wav
182,192,47378,1,0,0:0:0:85:TGB_Bb3_1.wav
329,192,47463,1,0,0:0:0:85:Dr_OHH100.wav
109,192,47463,1,0,0:0:0:85:TGB_Bb3_2.wav
36,192,47635,1,0,0:0:0:85:Dr_Kick100.wav
256,192,47635,1,0,0:0:0:85:TGB_Bb3_1.wav
329,192,47721,1,0,0:0:0:85:TGB_Bb3_1.wav
109,192,47806,1,0,0:0:0:85:Dr_OHH100.wav
402,192,47806,1,0,0:0:0:85:TGB_Bb3_2.wav
475,192,47978,1,0,0:0:0:85:Dr_Kick100.wav
329,192,47978,1,0,0:0:0:85:TGB_Bb3_1.wav
256,192,48063,1,0,0:0:0:85:TGB_Bb3_1.wav
36,192,48149,1,0,0:0:0:85:Dr_OHH100.wav
182,192,48149,1,0,0:0:0:85:TGB_Bb3_2.wav
109,192,48321,1,0,0:0:0:85:Dr_Kick100.wav
182,192,48321,1,0,0:0:0:85:TGB_Bb3_1.wav
256,192,48406,1,0,0:0:0:85:TGB_Bb3_1.wav
402,192,48492,1,0,0:0:0:85:Dr_OHH100.wav
329,192,48492,1,0,0:0:0:85:TGB_Bb3_2.wav
329,192,48663,1,0,0:0:0:85:TGB_Bb3_1.wav
109,192,48663,1,0,0:0:0:85:Dr_Kick100.wav
256,192,48749,1,0,0:0:0:85:TGB_Bb3_1.wav
402,192,48835,1,0,0:0:0:85:Dr_OHH100.wav
182,192,48835,1,0,0:0:0:85:TGB_Bb3_2.wav
109,192,49006,1,0,0:0:0:85:Dr_Kick100.wav
256,192,49006,1,0,0:0:0:85:TGB_Bb3_1.wav
329,192,49092,1,0,0:0:0:85:TGB_Bb3_1.wav
109,192,49178,1,0,0:0:0:85:Dr_Kick100.wav
256,192,49178,1,0,0:0:0:85:TGB_A3_2.wav
475,192,49178,1,0,0:0:0:85:Dr_OHH100.wav
36,192,49178,1,0,0:0:0:85:Dr_CymA100.wav
109,192,49521,1,0,0:0:0:85:Dr_Kick090.wav
475,192,49521,1,0,0:0:0:85:Dr_OHH100.wav
182,192,49692,1,0,0:0:0:85:Dr_Kick100.wav
256,192,49863,1,0,0:0:0:85:Dr_Kick090.wav
475,192,49863,1,0,0:0:0:85:Dr_OHH100.wav
329,192,50035,1,0,0:0:0:85:Dr_Kick100.wav
256,192,50206,1,0,0:0:0:85:Dr_Kick090.wav
475,192,50206,1,0,0:0:0:85:Dr_OHH100.wav
182,192,50378,1,0,0:0:0:85:Dr_Kick100.wav
256,192,50549,1,0,0:0:0:85:PianoAmelo_C5#.wav
109,192,50549,1,0,0:0:0:85:Dr_Kick090.wav
475,192,50549,1,0,0:0:0:85:Dr_OHH100.wav
329,192,50635,1,0,0:0:0:85:PianoAmelo_E5.wav
475,192,50721,1,0,0:0:0:85:Dr_Kick100.wav
402,192,50721,1,0,0:0:0:85:PianoAmelo_A5.wav
36,192,50721,1,0,0:0:0:85:Dr_CymB100.wav
182,192,50806,1,0,0:0:0:85:Dr_SnRoll100.wav
402,192,50892,1,0,0:0:0:85:Dr_SnRoll100.wav
109,192,51063,1,0,0:0:0:85:Dr_SnRoll100.wav
329,192,51149,1,0,0:0:0:85:Dr_SnRoll100.wav
182,192,51321,1,0,0:0:0:85:Dr_SnRoll100.wav
329,192,51406,128,0,52092:0:0:0:85:TGB_f13L.wav
109,192,51492,1,0,0:0:0:85:Dr_SnRoll100.wav
256,192,51578,1,0,0:0:0:85:Dr_SnRoll100.wav
109,192,51749,1,0,0:0:0:85:Dr_Kick100.wav
402,192,51749,1,0,0:0:0:85:Dr_SnRoll100.wav
36,192,51835,1,0,0:0:0:85:Dr_Kick080.wav
475,192,51835,1,0,0:0:0:85:Dr_SnRoll100.wav
109,192,51921,1,0,0:0:0:85:Dr_Kick090.wav
402,192,51921,1,0,0:0:0:85:Dr_SnRoll100.wav
256,192,52006,1,0,0:0:0:85:Dr_SnRoll100.wav
182,192,52006,1,0,0:0:0:85:Dr_Kick080.wav
109,192,52092,1,0,0:0:0:85:Dr_Kick100.wav
402,192,52092,1,0,0:0:0:85:SE_Exp02.wav
36,192,52092,1,0,0:0:0:85:Dr_CymA100.wav
475,192,52092,128,0,53121:0:0:0:85:SynthC_Dm5_16.wav
256,192,52092,128,0,52778:0:0:0:85:StringsC_A3_8.wav
182,192,52263,1,0,0:0:0:85:Dr_OHH100.wav
109,192,52435,1,0,0:0:0:85:Dr_Kick100.wav
329,192,52435,1,0,0:0:0:85:Dr_Clap100.wav
36,192,52606,1,0,0:0:0:85:Dr_OHH100.wav
109,192,52778,1,0,0:0:0:85:Dr_Kick100.wav
329,192,52863,1,0,0:0:0:85:StringsCs_G3_2.wav
182,192,52949,1,0,0:0:0:85:Dr_OHH100.wav
109,192,53035,1,0,0:0:0:85:StringsCs_A3_2.wav
402,192,53121,1,0,0:0:0:85:Dr_Kick100.wav
256,192,53121,1,0,0:0:0:85:Dr_Clap100.wav
36,192,53206,128,0,54835:0:0:0:85:StringsC_Bb3_18.wav
182,192,53292,1,0,0:0:0:85:Dr_OHH100.wav
329,192,53463,128,0,54492:0:0:0:85:SynthC_Bb4_16.wav
109,192,53463,1,0,0:0:0:85:Dr_Kick100.wav
182,192,53635,1,0,0:0:0:85:Dr_OHH100.wav
475,192,53806,1,0,0:0:0:85:Dr_Clap100.wav
402,192,53806,1,0,0:0:0:85:Dr_Kick100.wav
256,192,53978,1,0,0:0:0:85:Dr_OHH100.wav
182,192,54149,1,0,0:0:0:85:Dr_Kick100.wav
402,192,54321,1,0,0:0:0:85:Dr_OHH100.wav
109,192,54492,1,0,0:0:0:85:Dr_Kick100.wav
182,192,54492,1,0,0:0:0:85:Dr_Clap100.wav
402,192,54663,1,0,0:0:0:85:Dr_OHH100.wav
109,192,54835,1,0,0:0:0:85:Dr_Kick100.wav
256,192,54835,128,0,55521:0:0:0:85:StringsC_G3_8.wav
475,192,54835,128,0,55863:0:0:0:85:SynthC_C5_16.wav
182,192,55006,1,0,0:0:0:85:Dr_OHH100.wav
109,192,55178,1,0,0:0:0:85:Dr_Kick100.wav
329,192,55178,1,0,0:0:0:85:Dr_Clap100.wav
182,192,55349,1,0,0:0:0:85:Dr_OHH100.wav
109,192,55521,1,0,0:0:0:85:Dr_Kick100.wav
182,192,55692,1,0,0:0:0:85:Dr_OHH100.wav
329,192,55692,128,0,55863:0:0:0:85:StringsCs_F3_2.wav
256,192,55863,1,0,0:0:0:85:Dr_Clap100.wav
182,192,55863,128,0,56035:0:0:0:85:StringsCs_G3_2.wav
109,192,55863,1,0,0:0:0:85:Dr_Kick100.wav
36,192,56035,1,0,0:0:0:85:Dr_OHH100.wav
329,192,56206,128,0,57235:0:0:0:85:SynthC_Am4_16.wav
109,192,56206,1,0,0:0:0:85:Dr_Kick100.wav
182,192,56378,1,0,0:0:0:85:Dr_OHH100.wav
256,192,56549,1,0,0:0:0:85:Dr_Clap100.wav
402,192,56549,128,0,56892:0:0:0:85:StringsC_Bb3_4.wav
109,192,56549,1,0,0:0:0:85:Dr_Kick100.wav
182,192,56721,1,0,0:0:0:85:Dr_OHH100.wav
475,192,56892,1,0,0:0:0:85:Dr_Kick100.wav
256,192,56892,128,0,57235:0:0:0:85:StringsC_A3_4.wav
182,192,57063,1,0,0:0:0:85:Dr_OHH100.wav
36,192,57235,1,0,0:0:0:85:Dr_Kick100.wav
402,192,57235,1,0,0:0:0:85:Dr_Clap100.wav
182,192,57235,128,0,57578:0:0:0:85:StringsC_G3_4.wav
109,192,57406,1,0,0:0:0:85:Dr_OHH100.wav
109,192,57578,1,0,0:0:0:85:Dr_Kick100.wav
256,192,57578,1,0,0:0:0:85:Dr_CymA100.wav
36,192,57578,128,0,58263:0:0:0:85:StringsC_F3_8.wav
475,192,57578,128,0,58606:0:0:0:85:SynthC_Bb4_16.wav
402,192,57749,1,0,0:0:0:85:Dr_OHH100.wav
109,192,57921,1,0,0:0:0:85:Dr_Kick100.wav
256,192,57921,1,0,0:0:0:85:Dr_Clap100.wav
182,192,58092,1,0,0:0:0:85:Dr_OHH100.wav
256,192,58263,1,0,0:0:0:85:Dr_Kick100.wav
182,192,58435,1,0,0:0:0:85:Dr_OHH100.wav
402,192,58435,128,0,58606:0:0:0:85:StringsCs_E3_2.wav
329,192,58606,128,0,58778:0:0:0:85:StringsCs_F3_2.wav
36,192,58606,1,0,0:0:0:85:Dr_Clap100.wav
109,192,58606,1,0,0:0:0:85:Dr_Kick100.wav
182,192,58778,1,0,0:0:0:85:Dr_OHH100.wav
256,192,58778,128,0,59635:0:0:0:85:StringsC_G3_10.wav
402,192,58949,1,0,0:0:0:85:SynthC_Gm4_16.wav
109,192,58949,1,0,0:0:0:85:Dr_Kick100.wav
475,192,59121,1,0,0:0:0:85:Dr_OHH100.wav
109,192,59292,1,0,0:0:0:85:Dr_Kick100.wav
36,192,59292,1,0,0:0:0:85:Dr_Clap100.wav
402,192,59463,1,0,0:0:0:85:Dr_OHH100.wav
109,192,59635,1,0,0:0:0:85:Dr_Kick100.wav
475,192,59635,128,0,60321:0:0:0:85:StringsC_D4_8.wav
329,192,59806,1,0,0:0:0:85:Dr_OHH100.wav
36,192,59978,1,0,0:0:0:85:Dr_Kick100.wav
182,192,59978,1,0,0:0:0:85:Dr_Clap100.wav
256,192,60149,1,0,0:0:0:85:Dr_OHH100.wav
109,192,60321,1,0,0:0:0:85:Dr_Kick100.wav
36,192,60321,1,0,0:0:0:85:Dr_CymA100.wav
402,192,60321,128,0,61349:0:0:0:85:SynthC_Asus4_14.wav
182,192,60321,128,0,60835:0:0:0:85:StringsC_E4_6.wav
256,192,60492,1,0,0:0:0:85:Dr_OHH100.wav
329,192,60663,1,0,0:0:0:85:Dr_Clap100.wav
109,192,60663,1,0,0:0:0:85:Dr_Kick100.wav
36,192,60835,1,0,0:0:0:85:Dr_OHH100.wav
256,192,60835,128,0,61349:0:0:0:85:StringsC_D4_8.wav
109,192,61006,1,0,0:0:0:85:Dr_Kick100.wav
475,192,61178,1,0,0:0:0:85:Dr_OHH100.wav
329,192,61349,1,0,0:0:0:85:Dr_Clap100.wav
109,192,61349,1,0,0:0:0:85:Dr_Kick100.wav
109,192,61521,1,0,0:0:0:85:Dr_Kick100.wav
402,192,61521,1,0,0:0:0:85:Dr_OHH100.wav
256,192,61521,1,0,0:0:0:85:Dr_CymB100.wav
36,192,61521,128,0,62721:0:0:0:85:SynthC_A4_18.wav
475,192,61521,128,0,61692:0:0:0:85:StringsCs_A3_4.wav
182,192,61692,1,0,0:0:0:85:Dr_SnRoll060.wav
329,192,61778,1,0,0:0:0:85:Dr_SnRoll065.wav
256,192,61863,1,0,0:0:0:85:Dr_SnRoll070.wav
109,192,61863,1,0,0:0:0:85:Dr_Kick090.wav
402,192,61863,1,0,0:0:0:85:StringsCs_G3_1.wav
182,192,61949,1,0,0:0:0:85:Dr_Kick080.wav
329,192,61949,1,0,0:0:0:85:StringsCs_A3_1.wav
475,192,61949,1,0,0:0:0:85:Dr_SnRoll070.wav
109,192,62035,1,0,0:0:0:85:Dr_Kick100.wav
256,192,62035,1,0,0:0:0:85:Dr_SnRoll075.wav
402,192,62035,1,0,0:0:0:85:Dr_Clap100.wav
475,192,62035,1,0,0:0:0:85:StringsCs_C#4_2.wav
329,192,62121,1,0,0:0:0:85:Dr_SnRoll075.wav
256,192,62206,1,0,0:0:0:85:Dr_SnRoll080.wav
402,192,62206,1,0,0:0:0:85:StringsCs_B3_1.wav
182,192,62292,1,0,0:0:0:85:Dr_Kick080.wav
329,192,62292,1,0,0:0:0:85:StringsCs_C#4_1.wav
475,192,62292,1,0,0:0:0:85:Dr_SnRoll080.wav
109,192,62378,1,0,0:0:0:85:Dr_Kick100.wav
256,192,62378,1,0,0:0:0:85:Dr_SnRoll085.wav
402,192,62378,1,0,0:0:0:85:StringsCs_E4_2.wav
329,192,62378,1,0,0:0:0:85:Dr_CymA100.wav
182,192,62463,1,0,0:0:0:85:Dr_SnRoll085.wav
109,192,62549,1,0,0:0:0:85:Dr_Kick090.wav
256,192,62549,1,0,0:0:0:85:Dr_SnRoll090.wav
475,192,62549,1,0,0:0:0:85:StringsCs_D4_1.wav
329,192,62635,1,0,0:0:0:85:StringsCs_E4_1.wav
402,192,62635,1,0,0:0:0:85:Dr_SnRoll090.wav
109,192,62721,1,0,0:0:0:85:Dr_Kick100.wav
182,192,62721,1,0,0:0:0:85:Dr_CymB100.wav
256,192,62721,1,0,0:0:0:85:Dr_SnRoll095.wav
402,192,62721,1,0,0:0:0:85:Dr_Clap100.wav
475,192,62721,128,0,62892:0:0:0:85:StringsCs_G4_2.wav
329,192,62806,1,0,0:0:0:85:Dr_SnRoll095.wav
109,192,62892,1,0,0:0:0:85:Dr_Kick090.wav
256,192,62892,1,0,0:0:0:85:Dr_SnRoll100.wav
402,192,62892,128,0,63063:0:0:0:85:StringsCs_F4_1.wav
329,192,62978,1,0,0:0:0:85:StringsCs_G4_1.wav
475,192,62978,1,0,0:0:0:85:Dr_SnRoll100.wav
256,192,63063,128,0,64092:0:0:0:85:SynthC_Dm5_16.wav
182,192,63063,1,0,0:0:0:85:Dr_Kick100.wav
109,192,63063,1,0,0:0:0:85:Dr_CymA100.wav
36,192,63063,128,0,63749:0:0:0:85:StringsC_A3_8.wav
182,192,63235,1,0,0:0:0:85:Dr_OHH100.wav
402,192,63406,1,0,0:0:0:85:Dr_Clap100.wav
109,192,63406,1,0,0:0:0:85:Dr_Kick100.wav
329,192,63578,1,0,0:0:0:85:Dr_OHH100.wav
475,192,63749,1,0,0:0:0:85:Dr_Kick100.wav
182,192,63921,1,0,0:0:0:85:Dr_OHH100.wav
402,192,63921,128,0,64092:0:0:0:85:StringsCs_G3_2.wav
109,192,64092,1,0,0:0:0:85:Dr_Kick100.wav
475,192,64092,1,0,0:0:0:85:Dr_Clap100.wav
329,192,64092,128,0,64263:0:0:0:85:StringsCs_A3_2.wav
36,192,64263,128,0,65806:0:0:0:85:StringsC_Bb3_18.wav
182,192,64263,1,0,0:0:0:85:Dr_OHH100.wav
109,192,64435,1,0,0:0:0:85:Dr_Kick100.wav
402,192,64435,128,0,65463:0:0:0:85:SynthC_Bb4_16.wav
182,192,64606,1,0,0:0:0:85:Dr_OHH100.wav
475,192,64778,1,0,0:0:0:85:Dr_Kick100.wav
256,192,64778,1,0,0:0:0:85:Dr_Clap100.wav
182,192,64949,1,0,0:0:0:85:Dr_OHH100.wav
109,192,65121,1,0,0:0:0:85:Dr_Kick100.wav
182,192,65292,1,0,0:0:0:85:Dr_OHH100.wav
329,192,65463,1,0,0:0:0:85:Dr_Clap100.wav
475,192,65463,1,0,0:0:0:85:Dr_Kick100.wav
256,192,65635,1,0,0:0:0:85:Dr_OHH100.wav
109,192,65806,1,0,0:0:0:85:Dr_Kick100.wav
329,192,65806,128,0,66492:0:0:0:85:StringsC_G3_8.wav
475,192,65806,128,0,66835:0:0:0:85:SynthC_C5_16.wav
182,192,65978,1,0,0:0:0:85:Dr_OHH100.wav
109,192,66149,1,0,0:0:0:85:Dr_Kick100.wav
256,192,66149,1,0,0:0:0:85:Dr_Clap100.wav
36,192,66321,1,0,0:0:0:85:Dr_OHH100.wav
256,192,66492,1,0,0:0:0:85:Dr_Kick100.wav
36,192,66663,128,0,66835:0:0:0:85:StringsCs_F3_2.wav
182,192,66663,1,0,0:0:0:85:Dr_OHH100.wav
109,192,66835,1,0,0:0:0:85:Dr_Kick100.wav
329,192,66835,1,0,0:0:0:85:Dr_Clap100.wav
256,192,66835,128,0,67006:0:0:0:85:StringsCs_G3_2.wav
329,192,67006,128,0,67521:0:0:0:85:StringsC_A3_6.wav
182,192,67006,1,0,0:0:0:85:Dr_OHH100.wav
109,192,67178,1,0,0:0:0:85:Dr_Kick100.wav
182,192,67178,128,0,68206:0:0:0:85:SynthC_Am4_16.wav
402,192,67349,1,0,0:0:0:85:Dr_OHH100.wav
109,192,67521,1,0,0:0:0:85:Dr_Kick100.wav
256,192,67521,1,0,0:0:0:85:Dr_Clap100.wav
402,192,67521,128,0,67863:0:0:0:85:StringsC_Bb3_4.wav
36,192,67692,1,0,0:0:0:85:Dr_OHH100.wav
475,192,67863,128,0,68206:0:0:0:85:StringsC_C4_4.wav
109,192,67863,1,0,0:0:0:85:Dr_Kick100.wav
329,192,68121,1,0,0:0:0:85:Dr_Kick080.wav
36,192,68206,128,0,68549:0:0:0:85:StringsC_E4_4.wav
109,192,68206,1,0,0:0:0:85:Dr_Kick100.wav
256,192,68206,1,0,0:0:0:85:Dr_Clap100.wav
329,192,68378,1,0,0:0:0:85:Dr_Kick090.wav
402,192,68549,1,0,0:0:0:85:Dr_CymA100.wav
256,192,68549,128,0,68892:0:0:0:85:StringsC_D4_6.wav
329,192,68549,128,0,69578:0:0:0:85:SynthC_Gm4_16.wav
109,192,68549,1,0,0:0:0:85:Dr_Kick100.wav
182,192,68721,1,0,0:0:0:85:Dr_OHH100.wav
109,192,68892,1,0,0:0:0:85:Dr_Kick100.wav
475,192,68892,1,0,0:0:0:85:Dr_Clap100.wav
402,192,69063,1,0,0:0:0:85:StringsCs_G3_2.wav
36,192,69063,1,0,0:0:0:85:Dr_OHH100.wav
475,192,69235,1,0,0:0:0:85:Dr_Kick100.wav
475,192,69406,128,0,69578:0:0:0:85:StringsCs_A3_2.wav
256,192,69406,1,0,0:0:0:85:Dr_OHH100.wav
109,192,69578,1,0,0:0:0:85:Dr_Kick100.wav
36,192,69578,1,0,0:0:0:85:Dr_Clap100.wav
402,192,69578,128,0,69749:0:0:0:85:StringsCs_Bb3_2.wav
36,192,69749,128,0,70949:0:0:0:85:StringsC_C4_14.wav
182,192,69749,1,0,0:0:0:85:Dr_OHH100.wav
329,192,69921,1,0,0:0:0:85:Dr_Kick100.wav
475,192,69921,128,0,70949:0:0:0:85:SynthC_C5_16.wav
182,192,70092,1,0,0:0:0:85:Dr_OHH100.wav
109,192,70263,1,0,0:0:0:85:Dr_Kick100.wav
256,192,70263,1,0,0:0:0:85:Dr_Clap100.wav
402,192,70435,1,0,0:0:0:85:Dr_OHH100.wav
329,192,70606,1,0,0:0:0:85:Dr_Kick100.wav
256,192,70692,1,0,0:0:0:85:Dr_SnRoll100.wav
182,192,70863,1,0,0:0:0:85:Dr_Kick080.wav
109,192,70949,1,0,0:0:0:85:Dr_Kick100.wav
256,192,70949,1,0,0:0:0:85:StringsCs_G3_1.wav
329,192,70949,1,0,0:0:0:85:Dr_Clap100.wav
402,192,70949,1,0,0:0:0:85:Dr_SnRoll100.wav
182,192,71035,1,0,0:0:0:85:StringsCs_A3_1.wav
475,192,71035,1,0,0:0:0:85:Dr_SnRoll100.wav
109,192,71121,1,0,0:0:0:85:Dr_Kick090.wav
256,192,71121,1,0,0:0:0:85:Dr_SnRoll100.wav
402,192,71121,1,0,0:0:0:85:StringsCs_Bb3_1.wav
182,192,71206,1,0,0:0:0:85:Dr_Kick080.wav
329,192,71206,1,0,0:0:0:85:Dr_SnRoll100.wav
475,192,71206,1,0,0:0:0:85:StringsCs_C4_1.wav
36,192,71292,1,0,0:0:0:85:Dr_Kick100.wav
402,192,71292,1,0,0:0:0:85:StringsCs_G4s_2.wav
109,192,71292,1,0,0:0:0:85:StringsCs_A4s_2.wav
256,192,71292,1,0,0:0:0:85:Dr_CymA100.wav
475,192,71292,1,0,0:0:0:85:StringsCs_D4_2.wav
36,192,71635,1,0,0:0:0:85:Dr_Kick095.wav
182,192,71635,1,0,0:0:0:85:StringsCs_G4s_2.wav
329,192,71635,1,0,0:0:0:85:StringsCs_A4s_2.wav
475,192,71635,1,0,0:0:0:85:StringsCs_D4_2.wav
36,192,71806,1,0,0:0:0:85:StringsCs_G4s_2.wav
256,192,71806,1,0,0:0:0:85:Dr_CymB100.wav
109,192,71806,1,0,0:0:0:85:Dr_Kick100.wav
402,192,71806,1,0,0:0:0:85:StringsCs_A4s_2.wav
475,192,71806,1,0,0:0:0:85:StringsCs_D4_2.wav
182,192,72149,1,0,0:0:0:85:StringsCs_G4s_2.wav
36,192,72149,1,0,0:0:0:85:Dr_Kick090.wav
329,192,72149,1,0,0:0:0:85:StringsCs_A4s_2.wav
475,192,72149,1,0,0:0:0:85:StringsCs_D4_2.wav
109,192,72321,1,0,0:0:0:85:Dr_Kick095.wav
182,192,72321,1,0,0:0:0:85:StringsCs_G4s_2.wav
402,192,72321,1,0,0:0:0:85:StringsCs_A4s_2.wav
329,192,72321,1,0,0:0:0:85:StringsCs_D4_2.wav
109,192,72492,1,0,0:0:0:85:Dr_Kick100.wav
256,192,72492,1,0,0:0:0:85:StringsCs_F#4s_18.wav
402,192,72492,1,0,0:0:0:85:StringsCs_A4s_18.wav
36,192,72492,1,0,0:0:0:85:Dr_CymC100.wav
475,192,72492,1,0,0:0:0:85:StringsCs_D4_18.wav
402,192,72663,1,0,0:0:0:85:Dr_SnRoll085.wav
109,192,72749,1,0,0:0:0:85:Dr_SnRoll085.wav
329,192,72835,1,0,0:0:0:85:Dr_SnRoll085.wav
182,192,72921,1,0,0:0:0:85:Dr_SnRoll085.wav
475,192,73006,1,0,0:0:0:85:Dr_SnRoll090.wav
36,192,73092,1,0,0:0:0:85:Dr_SnRoll090.wav
402,192,73178,1,0,0:0:0:85:Dr_SnRoll090.wav
109,192,73263,1,0,0:0:0:85:Dr_SnRoll090.wav
329,192,73349,1,0,0:0:0:85:Dr_SnRoll095.wav
182,192,73435,1,0,0:0:0:85:Dr_SnRoll095.wav
402,192,73521,1,0,0:0:0:85:Dr_SnRoll095.wav
109,192,73606,1,0,0:0:0:85:Dr_SnRoll095.wav
475,192,73692,1,0,0:0:0:85:Dr_Kick100.wav
402,192,73692,1,0,0:0:0:85:Dr_SnRoll100.wav
36,192,73778,1,0,0:0:0:85:Dr_Kick080.wav
109,192,73778,1,0,0:0:0:85:Dr_SnRoll100.wav
329,192,73863,1,0,0:0:0:85:Dr_SnRoll100.wav
402,192,73863,1,0,0:0:0:85:Dr_Kick090.wav
109,192,73949,1,0,0:0:0:85:Dr_SnRoll100.wav
182,192,73949,1,0,0:0:0:85:Dr_Kick080.wav
256,192,74035,1,0,0:0:0:85:Dr_CymA100.wav
329,192,74035,1,0,0:0:0:85:PianoD_B1b_6.wav
36,192,74035,1,0,0:0:0:85:Dr_Kick100.wav
475,192,74035,1,0,0:0:0:85:PianoD_B2b_16.wav
475,192,74206,1,0,0:0:0:85:Dr_OHH100.wav
182,192,74378,1,0,0:0:0:85:PianoD_F3_12.wav
36,192,74378,1,0,0:0:0:85:Dr_Clap100.wav
329,192,74549,1,0,0:0:0:85:PianoD_B1b_6.wav
109,192,74549,1,0,0:0:0:85:Dr_Kick095.wav
475,192,74721,1,0,0:0:0:85:PianoD_D4_8.wav
475,192,75063,1,0,0:0:0:85:Dr_Clap100.wav
109,192,75063,1,0,0:0:0:85:PianoD_B1b_4.wav
329,192,75063,1,0,0:0:0:85:PianoD_B3b_4.wav
402,192,75406,1,0,0:0:0:85:PianoD_C3_16.wav
475,192,75406,1,0,0:0:0:85:Dr_Kick100.wav
182,192,75406,1,0,0:0:0:85:PianoD_C2_6.wav
475,192,75749,1,0,0:0:0:85:PianoD_G3_12.wav
256,192,75749,1,0,0:0:0:85:Dr_Clap100.wav
109,192,75921,1,0,0:0:0:85:Dr_Kick095.wav
329,192,75921,1,0,0:0:0:85:PianoD_C2_6.wav
182,192,76092,1,0,0:0:0:85:PianoD_E4_8.wav
109,192,76435,1,0,0:0:0:85:PianoD_C4_4.wav
329,192,76435,1,0,0:0:0:85:Dr_Clap100.wav
475,192,76435,1,0,0:0:0:85:PianoD_B1b_4.wav
182,192,76606,1,0,0:0:0:85:Dr_Kick090.wav
109,192,76778,1,0,0:0:0:85:Dr_Kick100.wav
475,192,76778,1,0,0:0:0:85:PianoD_A1_6.wav
329,192,76778,1,0,0:0:0:85:PianoD_A2_16.wav
36,192,76778,1,0,0:0:0:85:Dr_CymB100.wav
182,192,77121,1,0,0:0:0:85:PianoD_E3_12.wav
402,192,77121,1,0,0:0:0:85:Dr_Clap100.wav
256,192,77292,1,0,0:0:0:85:PianoD_A1_6.wav
36,192,77292,1,0,0:0:0:85:Dr_Kick095.wav
329,192,77463,1,0,0:0:0:85:PianoD_C4_8.wav
329,192,77806,1,0,0:0:0:85:PianoD_A3_4.wav
475,192,77806,1,0,0:0:0:85:Dr_Clap100.wav
36,192,77806,1,0,0:0:0:85:PianoD_A1_2.wav
402,192,77978,1,0,0:0:0:85:PianoD_C2_2.wav
329,192,78149,1,0,0:0:0:85:PianoD_D3_8.wav
182,192,78149,1,0,0:0:0:85:PianoD_D2_8.wav
36,192,78149,1,0,0:0:0:85:Dr_Kick100.wav
475,192,78149,1,0,0:0:0:85:PianoAmelo_D5.wav
109,192,78321,1,0,0:0:0:85:PianoAmelo_F4.wav
36,192,78406,1,0,0:0:0:85:Dr_Kick090.wav
256,192,78492,1,0,0:0:0:85:Dr_Clap100.wav
182,192,78492,1,0,0:0:0:85:PianoAmelo_A4.wav
475,192,78663,1,0,0:0:0:85:PianoAmelo_D5.wav
36,192,78663,1,0,0:0:0:85:Dr_Kick095.wav
109,192,78835,1,0,0:0:0:85:PianoD_C2_8.wav
256,192,78835,1,0,0:0:0:85:PianoD_C3_8.wav
402,192,78835,1,0,0:0:0:85:PianoAmelo_C5.wav
182,192,79006,1,0,0:0:0:85:PianoAmelo_E4.wav
36,192,79006,1,0,0:0:0:85:Dr_Kick090.wav
256,192,79178,1,0,0:0:0:85:PianoAmelo_G4.wav
402,192,79178,1,0,0:0:0:85:Dr_Clap100.wav
329,192,79349,1,0,0:0:0:85:PianoAmelo_C5.wav
36,192,79349,1,0,0:0:0:85:Dr_Kick090.wav
109,192,79435,1,0,0:0:0:85:Dr_Kick080.wav
36,192,79521,1,0,0:0:0:85:Dr_Kick100.wav
402,192,79521,1,0,0:0:0:85:PianoD_B1b_6.wav
256,192,79521,1,0,0:0:0:85:Dr_CymA100.wav
475,192,79521,1,0,0:0:0:85:PianoD_B2b_16.wav
182,192,79863,1,0,0:0:0:85:PianoD_F3_12.wav
402,192,79863,1,0,0:0:0:85:Dr_Clap100.wav
109,192,80035,1,0,0:0:0:85:Dr_Kick095.wav
329,192,80035,1,0,0:0:0:85:PianoD_B1b_6.wav
36,192,80206,1,0,0:0:0:85:PianoD_D4_8.wav
402,192,80549,1,0,0:0:0:85:PianoD_B3b_4.wav
109,192,80549,1,0,0:0:0:85:Dr_Clap100.wav
182,192,80549,1,0,0:0:0:85:PianoD_B1b_4.wav
109,192,80892,1,0,0:0:0:85:Dr_Kick100.wav
36,192,80892,1,0,0:0:0:85:PianoD_C2_6.wav
402,192,80892,1,0,0:0:0:85:PianoD_C3_16.wav
109,192,81235,1,0,0:0:0:85:Dr_Clap100.wav
329,192,81235,1,0,0:0:0:85:PianoD_G3_12.wav
36,192,81406,1,0,0:0:0:85:Dr_Kick095.wav
182,192,81406,1,0,0:0:0:85:PianoD_C2_6.wav
329,192,81578,1,0,0:0:0:85:PianoD_E4_8.wav
182,192,81921,1,0,0:0:0:85:PianoD_B1b_4.wav
402,192,81921,1,0,0:0:0:85:PianoD_C4_4.wav
36,192,81921,1,0,0:0:0:85:Dr_Clap100.wav
256,192,82092,1,0,0:0:0:85:Dr_Kick090.wav
475,192,82263,1,0,0:0:0:85:PianoD_A1_6.wav
109,192,82263,1,0,0:0:0:85:Dr_Kick100.wav
402,192,82263,1,0,0:0:0:85:PianoD_A2_16.wav
36,192,82263,1,0,0:0:0:85:Dr_CymB100.wav
329,192,82606,1,0,0:0:0:85:Dr_Clap100.wav
109,192,82606,1,0,0:0:0:85:PianoD_E3_12.wav
182,192,82778,1,0,0:0:0:85:Dr_Kick095.wav
36,192,82778,1,0,0:0:0:85:PianoD_A1_6.wav
402,192,82949,1,0,0:0:0:85:PianoD_C4_8.wav
109,192,83292,1,0,0:0:0:85:PianoD_A1_2.wav
329,192,83292,1,0,0:0:0:85:PianoD_A3_4.wav
402,192,83292,1,0,0:0:0:85:Dr_Clap100.wav
182,192,83463,1,0,0:0:0:85:PianoD_C2_2.wav
36,192,83635,1,0,0:0:0:85:Dr_Kick100.wav
256,192,83635,1,0,0:0:0:85:PianoD_D3_8.wav
402,192,83635,1,0,0:0:0:85:PianoD_F4_8.wav
109,192,83635,1,0,0:0:0:85:PianoD_D2_8.wav
475,192,83635,1,0,0:0:0:85:PianoD_AD_8.wav
109,192,83892,1,0,0:0:0:85:Dr_Kick090.wav
329,192,83978,1,0,0:0:0:85:Dr_Clap100.wav
402,192,84149,1,0,0:0:0:85:Dr_Kick095.wav
36,192,84321,1,0,0:0:0:85:PianoD_C2_8.wav
182,192,84321,1,0,0:0:0:85:PianoD_C3_8.wav
256,192,84321,1,0,0:0:0:85:PianoD_G4_8.wav
475,192,84321,1,0,0:0:0:85:PianoD_CE_8.wav
109,192,84492,1,0,0:0:0:85:Dr_Kick090.wav
402,192,84663,1,0,0:0:0:85:Dr_SnRoll100.wav
256,192,84663,1,0,0:0:0:85:Dr_Clap100.wav
182,192,84749,1,0,0:0:0:85:Dr_SnRoll100.wav
109,192,84835,1,0,0:0:0:85:Dr_Kick090.wav
329,192,84835,1,0,0:0:0:85:Dr_SnRoll100.wav
182,192,84921,1,0,0:0:0:85:Dr_Kick080.wav
402,192,84921,1,0,0:0:0:85:Dr_SnRoll100.wav
256,192,85006,1,0,0:0:0:85:ChimeD_06.wav
475,192,85006,1,0,0:0:0:85:Dr_Kick100.wav
36,192,85006,1,0,0:0:0:85:Dr_CymA100.wav
182,192,85178,1,0,0:0:0:85:Dr_OHH100.wav
36,192,85349,1,0,0:0:0:85:Dr_Clap100.wav
109,192,85349,1,0,0:0:0:85:Dr_Kick100.wav
182,192,85521,1,0,0:0:0:85:Dr_OHH100.wav
256,192,85692,1,0,0:0:0:85:Dr_Kick100.wav
329,192,85863,1,0,0:0:0:85:Dr_OHH100.wav
402,192,86035,1,0,0:0:0:85:Dr_Kick100.wav
256,192,86035,1,0,0:0:0:85:Dr_Clap100.wav
182,192,86206,1,0,0:0:0:85:Dr_OHH100.wav
36,192,86378,1,0,0:0:0:85:Dr_Kick100.wav
475,192,86378,1,0,0:0:0:85:ChimeD_07.wav
182,192,86549,1,0,0:0:0:85:Dr_OHH100.wav
402,192,86721,1,0,0:0:0:85:Dr_Kick100.wav
256,192,86721,1,0,0:0:0:85:Dr_Clap100.wav
329,192,86892,1,0,0:0:0:85:Dr_OHH100.wav
109,192,87063,1,0,0:0:0:85:Dr_Kick100.wav
182,192,87235,1,0,0:0:0:85:Dr_OHH100.wav
402,192,87406,1,0,0:0:0:85:Dr_Kick100.wav
256,192,87406,1,0,0:0:0:85:Dr_Clap100.wav
182,192,87578,1,0,0:0:0:85:Dr_OHH100.wav
109,192,87749,1,0,0:0:0:85:Dr_Kick100.wav
329,192,87749,1,0,0:0:0:85:ChimeD_08.wav
402,192,87921,1,0,0:0:0:85:Dr_OHH100.wav
329,192,88092,1,0,0:0:0:85:Dr_Kick100.wav
475,192,88092,1,0,0:0:0:85:Dr_Clap100.wav
182,192,88263,1,0,0:0:0:85:Dr_OHH100.wav
256,192,88435,1,0,0:0:0:85:Dr_Kick100.wav
182,192,88606,1,0,0:0:0:85:Dr_OHH100.wav
109,192,88778,1,0,0:0:0:85:Dr_Kick100.wav
36,192,88778,1,0,0:0:0:85:Dr_Clap100.wav
182,192,88949,1,0,0:0:0:85:Dr_OHH100.wav
256,192,89121,1,0,0:0:0:85:Dr_Kick100.wav
475,192,89121,1,0,0:0:0:85:ChimeD_09.wav
329,192,89292,1,0,0:0:0:85:Dr_OHH100.wav
36,192,89463,1,0,0:0:0:85:Dr_Clap100.wav
109,192,89463,1,0,0:0:0:85:Dr_Kick100.wav
182,192,89635,1,0,0:0:0:85:Dr_OHH100.wav
256,192,89806,1,0,0:0:0:85:Dr_Kick100.wav
109,192,89978,1,0,0:0:0:85:Dr_OHH100.wav
402,192,90149,1,0,0:0:0:85:Dr_Kick100.wav
256,192,90149,1,0,0:0:0:85:Dr_Clap100.wav
182,192,90321,1,0,0:0:0:85:Dr_OHH100.wav
36,192,90492,1,0,0:0:0:85:Dr_Kick100.wav
256,192,90492,1,0,0:0:0:85:ChimeD_06.wav
475,192,90492,1,0,0:0:0:85:Dr_CymA100.wav
182,192,90663,1,0,0:0:0:85:Dr_OHH100.wav
475,192,90835,1,0,0:0:0:85:Dr_Kick100.wav
402,192,90835,1,0,0:0:0:85:Dr_Clap100.wav
256,192,91006,1,0,0:0:0:85:Dr_OHH100.wav
109,192,91178,1,0,0:0:0:85:Dr_Kick100.wav
475,192,91349,1,0,0:0:0:85:Dr_OHH100.wav
329,192,91521,1,0,0:0:0:85:Dr_Kick100.wav
402,192,91521,1,0,0:0:0:85:Dr_Clap100.wav
182,192,91692,1,0,0:0:0:85:Dr_OHH100.wav
36,192,91863,1,0,0:0:0:85:Dr_Kick100.wav
329,192,91863,1,0,0:0:0:85:TGD_Am3_1.wav
475,192,91863,1,0,0:0:0:85:ChimeD_07.wav
402,192,91949,1,0,0:0:0:85:TGD_Am3_1.wav
182,192,92035,1,0,0:0:0:85:Dr_OHH100.wav
329,192,92035,1,0,0:0:0:85:TGD_Am3_2.wav
402,192,92206,1,0,0:0:0:85:Dr_Clap100.wav
109,192,92206,1,0,0:0:0:85:Dr_Kick100.wav
329,192,92206,1,0,0:0:0:85:TGD_Am3_1.wav
256,192,92292,1,0,0:0:0:85:TGD_Am3_1.wav
36,192,92378,1,0,0:0:0:85:Dr_OHH100.wav
182,192,92378,1,0,0:0:0:85:TGD_Am3_2.wav
109,192,92549,1,0,0:0:0:85:Dr_Kick100.wav
329,192,92549,1,0,0:0:0:85:TGD_Am3_1.wav
402,192,92635,1,0,0:0:0:85:TGD_Am3_1.wav
256,192,92721,1,0,0:0:0:85:Dr_OHH100.wav
475,192,92721,1,0,0:0:0:85:TGD_Am3_2.wav
36,192,92892,1,0,0:0:0:85:Dr_Kick100.wav
475,192,92892,1,0,0:0:0:85:Dr_Clap100.wav
329,192,92892,1,0,0:0:0:85:TGD_Am3_1.wav
182,192,92978,1,0,0:0:0:85:TGD_Am3_1.wav
402,192,93063,1,0,0:0:0:85:Dr_OHH100.wav
36,192,93063,1,0,0:0:0:85:TGD_Am3_2.wav
109,192,93235,1,0,0:0:0:85:ChimeD_08.wav
256,192,93235,1,0,0:0:0:85:Dr_SnRoll060.wav
402,192,93235,1,0,0:0:0:85:Dr_Kick100.wav
329,192,93321,1,0,0:0:0:85:Dr_SnRoll060.wav
109,192,93406,1,0,0:0:0:85:Dr_SnRoll065.wav
256,192,93406,1,0,0:0:0:85:Dr_OHH100.wav
402,192,93492,1,0,0:0:0:85:Dr_SnRoll065.wav
182,192,93578,1,0,0:0:0:85:Dr_Clap100.wav
329,192,93578,1,0,0:0:0:85:Dr_SnRoll070.wav
36,192,93578,1,0,0:0:0:85:Dr_Kick100.wav
256,192,93663,1,0,0:0:0:85:Dr_SnRoll070.wav
109,192,93749,1,0,0:0:0:85:Dr_SnRoll070.wav
402,192,93749,1,0,0:0:0:85:Dr_OHH100.wav
182,192,93835,1,0,0:0:0:85:Dr_SnRoll070.wav
402,192,93921,1,0,0:0:0:85:Dr_SnRoll075.wav
329,192,93921,1,0,0:0:0:85:Dr_Kick100.wav
256,192,94006,1,0,0:0:0:85:Dr_SnRoll075.wav
182,192,94092,1,0,0:0:0:85:Dr_SnRoll075.wav
36,192,94092,1,0,0:0:0:85:Dr_OHH100.wav
109,192,94178,1,0,0:0:0:85:Dr_SnRoll075.wav
475,192,94263,1,0,0:0:0:85:Dr_Clap100.wav
329,192,94263,1,0,0:0:0:85:Dr_Kick100.wav
182,192,94263,1,0,0:0:0:85:Dr_SnRoll080.wav
256,192,94349,1,0,0:0:0:85:Dr_SnRoll080.wav
182,192,94435,1,0,0:0:0:85:Dr_SnRoll080.wav
329,192,94435,1,0,0:0:0:85:Dr_OHH100.wav
402,192,94521,1,0,0:0:0:85:Dr_SnRoll080.wav
475,192,94606,1,0,0:0:0:85:Dr_SnRoll085.wav
36,192,94606,1,0,0:0:0:85:Dr_Kick100.wav
402,192,94692,1,0,0:0:0:85:Dr_SnRoll085.wav
109,192,94778,1,0,0:0:0:85:Dr_Kick090.wav
256,192,94778,1,0,0:0:0:85:Dr_SnRoll085.wav
475,192,94778,1,0,0:0:0:85:Dr_OHH100.wav
402,192,94863,1,0,0:0:0:85:Dr_SnRoll085.wav
182,192,94949,1,0,0:0:0:85:Dr_Kick100.wav
256,192,94949,1,0,0:0:0:85:Dr_SnRoll090.wav
329,192,94949,1,0,0:0:0:85:Dr_Clap100.wav
475,192,95035,1,0,0:0:0:85:Dr_SnRoll090.wav
109,192,95121,1,0,0:0:0:85:Dr_Kick090.wav
182,192,95121,1,0,0:0:0:85:Dr_SnRoll090.wav
329,192,95121,1,0,0:0:0:85:Dr_OHH100.wav
402,192,95206,1,0,0:0:0:85:Dr_SnRoll090.wav
36,192,95292,1,0,0:0:0:85:Dr_Kick100.wav
256,192,95292,1,0,0:0:0:85:Dr_SnRoll095.wav
475,192,95292,1,0,0:0:0:85:SE_RevCR.wav
402,192,95378,1,0,0:0:0:85:Dr_SnRoll095.wav
109,192,95463,1,0,0:0:0:85:Dr_Kick090.wav
182,192,95463,1,0,0:0:0:85:Dr_SnRoll095.wav
329,192,95463,1,0,0:0:0:85:Dr_OHH100.wav
402,192,95549,1,0,0:0:0:85:Dr_SnRoll095.wav
182,192,95635,1,0,0:0:0:85:Dr_Kick100.wav
256,192,95635,1,0,0:0:0:85:Dr_SnRoll100.wav
329,192,95635,1,0,0:0:0:85:Dr_Clap100.wav
475,192,95721,1,0,0:0:0:85:Dr_SnRoll100.wav
182,192,95806,1,0,0:0:0:85:Dr_SnRoll100.wav
109,192,95806,1,0,0:0:0:85:Dr_Kick090.wav
329,192,95806,1,0,0:0:0:85:Dr_OHH100.wav
402,192,95892,1,0,0:0:0:85:Dr_SnRoll100.wav
256,192,95978,1,0,0:0:0:85:Dr_Kick100.wav
36,192,95978,1,0,0:0:0:85:Dr_CymA100.wav
475,192,95978,1,0,0:0:0:85:SE_Exp03.wav
109,192,97349,1,0,0:0:0:85:Dr_Kick100.wav
36,192,97349,1,0,0:0:0:85:Dr_CymC100.wav
109,192,98721,1,0,0:0:0:85:PianoL_D1#_16.wav
256,192,98721,1,0,0:0:0:85:PianoL_D#3_16.wav
475,192,98721,1,0,0:0:0:85:SE_Exp01.wav
36,192,98721,1,0,0:0:0:85:Dr_CymA100.wav
402,192,98721,128,0,99749:0:0:0:85:SynthS_D#m5_16.wav
182,192,98892,1,0,0:0:0:85:PianoL_F3#_14.wav
329,192,99063,1,0,0:0:0:85:PianoL_A3#_12.wav
109,192,99235,1,0,0:0:0:85:PianoL_A1#_10.wav
475,192,99235,1,0,0:0:0:85:PianoL_D4#_10.wav
36,192,100092,1,0,0:0:0:85:PianoL_B0_16.wav
182,192,100092,1,0,0:0:0:85:PianoL_B2_16.wav
109,192,100092,128,0,101121:0:0:0:85:SynthS_B4_16.wav
256,192,100263,1,0,0:0:0:85:PianoL_D3#_14.wav
329,192,100435,1,0,0:0:0:85:PianoL_F3#_12.wav
475,192,100606,1,0,0:0:0:85:PianoL_B3_10.wav
36,192,100606,1,0,0:0:0:85:PianoL_F1#_10.wav
256,192,100778,128,0,101378:0:0:0:85:SE_RevCR.wav
182,192,101121,1,0,0:0:0:85:Dr_Kick100.wav
329,192,101121,1,0,0:0:0:85:StringsSs_C#3_1.wav
109,192,101206,1,0,0:0:0:85:Dr_Kick080.wav
402,192,101206,1,0,0:0:0:85:StringsSs_D#3_1.wav
36,192,101292,1,0,0:0:0:85:Dr_Kick090.wav
475,192,101292,1,0,0:0:0:85:StringsSs_F3_1.wav
109,192,101378,1,0,0:0:0:85:Dr_Kick080.wav
402,192,101378,1,0,0:0:0:85:StringsSs_F#3_1.wav
256,192,101463,1,0,0:0:0:85:SynthS_C#5_16.wav
182,192,101463,1,0,0:0:0:85:Dr_Kick100.wav
329,192,101463,1,0,0:0:0:85:StringsS_G#3_8.wav
36,192,101463,1,0,0:0:0:85:Dr_CymA100.wav
475,192,101463,1,0,0:0:0:85:TGS_C#4_1.wav
109,192,101549,1,0,0:0:0:85:TGS_C#4_1.wav
182,192,101635,1,0,0:0:0:85:Dr_OHH100.wav
329,192,101635,1,0,0:0:0:85:TGS_C#4_2.wav
109,192,101806,1,0,0:0:0:85:Dr_Clap100.wav
256,192,101806,1,0,0:0:0:85:Dr_Kick100.wav
402,192,101806,1,0,0:0:0:85:TGS_C#4_1.wav
329,192,101892,1,0,0:0:0:85:TGS_C#4_1.wav
36,192,101978,1,0,0:0:0:85:Dr_OHH100.wav
256,192,101978,1,0,0:0:0:85:TGS_C#4_2.wav
402,192,102149,1,0,0:0:0:85:TGS_C#4_1.wav
36,192,102149,1,0,0:0:0:85:Dr_Kick100.wav
256,192,102235,1,0,0:0:0:85:TGS_C#4_1.wav
109,192,102321,1,0,0:0:0:85:Dr_OHH100.wav
329,192,102321,1,0,0:0:0:85:StringsSs_F#3_2.wav
475,192,102321,1,0,0:0:0:85:TGS_C#4_2.wav
109,192,102492,1,0,0:0:0:85:Dr_Clap100.wav
329,192,102492,1,0,0:0:0:85:StringsSs_G#3_2.wav
36,192,102492,1,0,0:0:0:85:Dr_Kick100.wav
475,192,102492,1,0,0:0:0:85:TGS_C#4_1.wav
256,192,102578,1,0,0:0:0:85:TGS_C#4_1.wav
402,192,102663,1,0,0:0:0:85:Dr_OHH100.wav
182,192,102663,1,0,0:0:0:85:TGS_C#4_2.wav
329,192,102663,1,0,0:0:0:85:StringsS_A#3_6.wav
109,192,102835,1,0,0:0:0:85:SynthS_A#m4_16.wav
475,192,102835,1,0,0:0:0:85:TGS_A#m4_1.wav
36,192,102835,1,0,0:0:0:85:Dr_Kick100.wav
329,192,102921,1,0,0:0:0:85:TGS_A#m4_1.wav
182,192,103006,1,0,0:0:0:85:TGS_A#m4_2.wav
109,192,103006,1,0,0:0:0:85:Dr_OHH100.wav
109,192,103178,1,0,0:0:0:85:Dr_Clap100.wav
402,192,103178,1,0,0:0:0:85:StringsS_B3_4.wav
36,192,103178,1,0,0:0:0:85:Dr_Kick100.wav
475,192,103178,1,0,0:0:0:85:TGS_A#m4_1.wav
256,192,103263,1,0,0:0:0:85:TGS_A#m4_1.wav
109,192,103349,1,0,0:0:0:85:Dr_OHH100.wav
402,192,103349,1,0,0:0:0:85:TGS_A#m4_2.wav
182,192,103521,1,0,0:0:0:85:TGS_A#m4_1.wav
402,192,103521,1,0,0:0:0:85:StringsS_A#3_4.wav
36,192,103521,1,0,0:0:0:85:Dr_Kick100.wav
256,192,103606,1,0,0:0:0:85:TGS_A#m4_1.wav
109,192,103692,1,0,0:0:0:85:Dr_OHH100.wav
329,192,103692,1,0,0:0:0:85:TGS_A#m4_2.wav
109,192,103863,1,0,0:0:0:85:Dr_Clap100.wav
256,192,103863,1,0,0:0:0:85:TGS_A#m4_1.wav
36,192,103863,1,0,0:0:0:85:Dr_Kick100.wav
475,192,103863,1,0,0:0:0:85:StringsS_G#3_4.wav
329,192,103949,1,0,0:0:0:85:TGS_A#m4_1.wav
182,192,104035,1,0,0:0:0:85:Dr_OHH100.wav
256,192,104035,1,0,0:0:0:85:TGS_A#m4_2.wav
109,192,104206,1,0,0:0:0:85:Dr_Kick100.wav
256,192,104206,1,0,0:0:0:85:StringsS_F#3_8.wav
402,192,104206,1,0,0:0:0:85:SynthS_B4_16.wav
36,192,104206,1,0,0:0:0:85:Dr_CymA100.wav
475,192,104206,1,0,0:0:0:85:TGS_B3_1.wav
329,192,104292,1,0,0:0:0:85:TGS_B3_1.wav
182,192,104378,1,0,0:0:0:85:Dr_OHH100.wav
475,192,104378,1,0,0:0:0:85:TGS_B3_2.wav
36,192,104549,1,0,0:0:0:85:Dr_Kick100.wav
256,192,104549,1,0,0:0:0:85:Dr_Clap100.wav
475,192,104549,1,0,0:0:0:85:TGS_B3_1.wav
329,192,104635,1,0,0:0:0:85:TGS_B3_1.wav
109,192,104721,1,0,0:0:0:85:Dr_OHH100.wav
475,192,104721,1,0,0:0:0:85:TGS_B3_2.wav
36,192,104892,1,0,0:0:0:85:Dr_Kick100.wav
256,192,104892,1,0,0:0:0:85:TGS_B3_1.wav
402,192,104978,1,0,0:0:0:85:TGS_B3_1.wav
256,192,105063,1,0,0:0:0:85:StringsSs_F3_2.wav
182,192,105063,1,0,0:0:0:85:Dr_OHH100.wav
475,192,105063,1,0,0:0:0:85:TGS_B3_2.wav
109,192,105235,1,0,0:0:0:85:Dr_Kick100.wav
329,192,105235,1,0,0:0:0:85:Dr_Clap100.wav
36,192,105235,1,0,0:0:0:85:StringsSs_F#3_2.wav
475,192,105235,1,0,0:0:0:85:TGS_B3_1.wav
256,192,105321,1,0,0:0:0:85:TGS_B3_1.wav
329,192,105406,1,0,0:0:0:85:StringsS_G#3_10.wav
182,192,105406,1,0,0:0:0:85:Dr_OHH100.wav
475,192,105406,1,0,0:0:0:85:TGS_B3_2.wav
36,192,105578,1,0,0:0:0:85:Dr_Kick100.wav
256,192,105578,1,0,0:0:0:85:SynthS_G#m4_16.wav
475,192,105578,1,0,0:0:0:85:TGS_G#m3_1.wav
182,192,105663,1,0,0:0:0:85:TGS_G#m3_1.wav
109,192,105749,1,0,0:0:0:85:Dr_OHH100.wav
329,192,105749,1,0,0:0:0:85:TGS_G#m3_2.wav
36,192,105921,1,0,0:0:0:85:Dr_Kick100.wav
256,192,105921,1,0,0:0:0:85:Dr_Clap100.wav
402,192,105921,1,0,0:0:0:85:TGS_G#m3_1.wav
329,192,106006,1,0,0:0:0:85:TGS_G#m3_1.wav
182,192,106092,1,0,0:0:0:85:Dr_OHH100.wav
402,192,106092,1,0,0:0:0:85:TGS_G#m3_2.wav
109,192,106263,1,0,0:0:0:85:Dr_Kick100.wav
329,192,106263,1,0,0:0:0:85:StringsS_D#4_8.wav
475,192,106263,1,0,0:0:0:85:TGS_G#m3_1.wav
182,192,106349,1,0,0:0:0:85:TGS_G#m3_1.wav
36,192,106435,1,0,0:0:0:85:Dr_OHH100.wav
256,192,106435,1,0,0:0:0:85:TGS_G#m3_2.wav
182,192,106606,1,0,0:0:0:85:Dr_Clap100.wav
109,192,106606,1,0,0:0:0:85:Dr_Kick100.wav
475,192,106606,1,0,0:0:0:85:TGS_G#m3_1.wav
256,192,106692,1,0,0:0:0:85:TGS_G#m3_1.wav
182,192,106778,1,0,0:0:0:85:Dr_OHH100.wav
329,192,106778,1,0,0:0:0:85:TGS_G#m3_2.wav
109,192,106949,1,0,0:0:0:85:Dr_Kick100.wav
256,192,106949,1,0,0:0:0:85:SynthS_A#sus4_14.wav
402,192,106949,1,0,0:0:0:85:StringsS_F4_6.wav
36,192,106949,1,0,0:0:0:85:Dr_CymA100.wav
475,192,106949,1,0,0:0:0:85:TGS_A#sus3_1.wav
329,192,107035,1,0,0:0:0:85:TGS_A#sus3_1.wav
182,192,107121,1,0,0:0:0:85:Dr_OHH100.wav
402,192,107121,1,0,0:0:0:85:TGS_A#sus3_2.wav
109,192,107292,1,0,0:0:0:85:Dr_Kick100.wav
256,192,107292,1,0,0:0:0:85:Dr_Clap100.wav
402,192,107292,1,0,0:0:0:85:TGS_A#sus3_1.wav
329,192,107378,1,0,0:0:0:85:TGS_A#sus3_1.wav
256,192,107463,1,0,0:0:0:85:TGS_A#sus3_2.wav
36,192,107463,1,0,0:0:0:85:Dr_OHH100.wav
475,192,107463,1,0,0:0:0:85:StringsS_D#4_8.wav
109,192,107635,1,0,0:0:0:85:Dr_Kick100.wav
182,192,107635,1,0,0:0:0:85:TGS_A#sus3_1.wav
329,192,107721,1,0,0:0:0:85:TGS_A#sus3_1.wav
182,192,107806,1,0,0:0:0:85:Dr_OHH100.wav
402,192,107806,1,0,0:0:0:85:TGS_A#sus3_2.wav
109,192,107978,1,0,0:0:0:85:Dr_Kick100.wav
256,192,107978,1,0,0:0:0:85:Dr_Clap100.wav
402,192,107978,1,0,0:0:0:85:TGS_A#sus3_1.wav
329,192,108063,1,0,0:0:0:85:TGS_A#sus3_1.wav
109,192,108149,1,0,0:0:0:85:Dr_Kick100.wav
182,192,108149,1,0,0:0:0:85:Dr_OHH100.wav
256,192,108149,1,0,0:0:0:85:SynthS_A#4_18.wav
402,192,108149,1,0,0:0:0:85:TGS_A#3_2.wav
36,192,108149,1,0,0:0:0:85:Dr_CymB100.wav
475,192,108149,1,0,0:0:0:85:StringsSs_A#3_2.wav
329,192,108321,1,0,0:0:0:85:Dr_SnRoll060.wav
182,192,108406,1,0,0:0:0:85:Dr_SnRoll065.wav
36,192,108492,1,0,0:0:0:85:Dr_Kick090.wav
256,192,108492,1,0,0:0:0:85:StringsSs_G#3_1.wav
402,192,108492,1,0,0:0:0:85:Dr_SnRoll070.wav
109,192,108578,1,0,0:0:0:85:Dr_Kick080.wav
329,192,108578,1,0,0:0:0:85:StringsSs_A#3_1.wav
182,192,108578,1,0,0:0:0:85:Dr_SnRoll070.wav
36,192,108663,1,0,0:0:0:85:Dr_Kick100.wav
256,192,108663,1,0,0:0:0:85:Dr_Clap100.wav
402,192,108663,1,0,0:0:0:85:Dr_SnRoll075.wav
475,192,108663,1,0,0:0:0:85:StringsSs_D4_2.wav
182,192,108749,1,0,0:0:0:85:Dr_SnRoll075.wav
109,192,108835,1,0,0:0:0:85:StringsSs_C4_1.wav
402,192,108835,1,0,0:0:0:85:Dr_SnRoll080.wav
182,192,108921,1,0,0:0:0:85:Dr_Kick080.wav
329,192,108921,1,0,0:0:0:85:StringsSs_D4_1.wav
475,192,108921,1,0,0:0:0:85:Dr_SnRoll080.wav
36,192,109006,1,0,0:0:0:85:Dr_CymA100.wav
256,192,109006,1,0,0:0:0:85:StringsSs_F4_2.wav
109,192,109006,1,0,0:0:0:85:Dr_Kick100.wav
402,192,109006,1,0,0:0:0:85:Dr_SnRoll085.wav
329,192,109092,1,0,0:0:0:85:Dr_SnRoll085.wav
109,192,109178,1,0,0:0:0:85:Dr_Kick090.wav
182,192,109178,1,0,0:0:0:85:StringsSs_D#4_1.wav
402,192,109178,1,0,0:0:0:85:Dr_SnRoll090.wav
256,192,109263,1,0,0:0:0:85:StringsSs_F4_1.wav
475,192,109263,1,0,0:0:0:85:Dr_SnRoll090.wav
36,192,109349,1,0,0:0:0:85:Dr_CymB100.wav
109,192,109349,1,0,0:0:0:85:Dr_Kick100.wav
182,192,109349,1,0,0:0:0:85:Dr_Clap100.wav
329,192,109349,1,0,0:0:0:85:Dr_SnRoll095.wav
402,192,109349,1,0,0:0:0:85:StringsSs_G#4_2.wav
475,192,109435,1,0,0:0:0:85:Dr_SnRoll095.wav
109,192,109521,1,0,0:0:0:85:Dr_Kick090.wav
256,192,109521,1,0,0:0:0:85:StringsSs_F#4_1.wav
329,192,109521,1,0,0:0:0:85:Dr_SnRoll100.wav
182,192,109606,1,0,0:0:0:85:StringsSs_G#4_1.wav
402,192,109606,1,0,0:0:0:85:Dr_SnRoll100.wav
109,192,109692,1,0,0:0:0:85:Dr_Kick100.wav
256,192,109692,1,0,0:0:0:85:SynthS_D#m5_16.wav
329,192,109692,1,0,0:0:0:85:StringsS_A#3_8.wav
36,192,109692,1,0,0:0:0:85:Dr_CymA100.wav
475,192,109692,1,0,0:0:0:85:TGS_D#m4_1.wav
402,192,109778,1,0,0:0:0:85:TGS_D#m4_1.wav
109,192,109863,1,0,0:0:0:85:Dr_OHH100.wav
329,192,109863,1,0,0:0:0:85:TGS_D#m4_2.wav
109,192,110035,1,0,0:0:0:85:Dr_Kick100.wav
329,192,110035,1,0,0:0:0:85:TGS_D#m4_1.wav
475,192,110035,1,0,0:0:0:85:Dr_Clap100.wav
256,192,110121,1,0,0:0:0:85:TGS_D#m4_1.wav
182,192,110206,1,0,0:0:0:85:TGS_D#m4_2.wav
36,192,110206,1,0,0:0:0:85:Dr_OHH100.wav
402,192,110378,1,0,0:0:0:85:Dr_Kick100.wav
109,192,110378,1,0,0:0:0:85:TGS_D#m4_1.wav
182,192,110463,1,0,0:0:0:85:TGS_D#m4_1.wav
256,192,110549,1,0,0:0:0:85:StringsSs_G#3_2.wav
475,192,110549,1,0,0:0:0:85:Dr_OHH100.wav
329,192,110549,1,0,0:0:0:85:TGS_D#m4_2.wav
182,192,110721,1,0,0:0:0:85:Dr_Clap100.wav
329,192,110721,1,0,0:0:0:85:StringsSs_A#3_2.wav
36,192,110721,1,0,0:0:0:85:Dr_Kick100.wav
475,192,110721,1,0,0:0:0:85:TGS_D#m4_1.wav
256,192,110806,1,0,0:0:0:85:TGS_D#m4_1.wav
329,192,110892,1,0,0:0:0:85:Dr_OHH100.wav
109,192,110892,1,0,0:0:0:85:TGS_D#m4_2.wav
36,192,110892,1,0,0:0:0:85:StringsS_B3_18.wav
182,192,111063,1,0,0:0:0:85:Dr_Kick100.wav
109,192,111063,1,0,0:0:0:85:SynthS_B4_16.wav
329,192,111063,1,0,0:0:0:85:TGS_B3_1.wav
256,192,111149,1,0,0:0:0:85:TGS_B3_1.wav
182,192,111235,1,0,0:0:0:85:Dr_OHH100.wav
402,192,111235,1,0,0:0:0:85:TGS_B3_2.wav
256,192,111406,1,0,0:0:0:85:TGS_B3_1.wav
109,192,111406,1,0,0:0:0:85:Dr_Clap100.wav
36,192,111406,1,0,0:0:0:85:Dr_Kick100.wav
329,192,111492,1,0,0:0:0:85:TGS_B3_1.wav
182,192,111578,1,0,0:0:0:85:TGS_B3_2.wav
402,192,111578,1,0,0:0:0:85:Dr_OHH100.wav
256,192,111749,1,0,0:0:0:85:TGS_B3_1.wav
36,192,111749,1,0,0:0:0:85:Dr_Kick100.wav
329,192,111835,1,0,0:0:0:85:TGS_B3_1.wav
402,192,111921,1,0,0:0:0:85:Dr_OHH100.wav
256,192,111921,1,0,0:0:0:85:TGS_B3_2.wav
182,192,112092,1,0,0:0:0:85:Dr_Clap100.wav
36,192,112092,1,0,0:0:0:85:Dr_Kick100.wav
475,192,112092,1,0,0:0:0:85:TGS_B3_1.wav
329,192,112178,1,0,0:0:0:85:TGS_B3_1.wav
256,192,112263,1,0,0:0:0:85:Dr_OHH100.wav
182,192,112263,1,0,0:0:0:85:TGS_B3_2.wav
109,192,112435,1,0,0:0:0:85:TGS_C#4_1.wav
329,192,112435,1,0,0:0:0:85:StringsS_G#3_8.wav
36,192,112435,1,0,0:0:0:85:Dr_Kick100.wav
475,192,112435,1,0,0:0:0:85:SynthS_C#5_16.wav
182,192,112521,1,0,0:0:0:85:TGS_C#4_1.wav
402,192,112606,1,0,0:0:0:85:TGS_C#4_2.wav
109,192,112606,1,0,0:0:0:85:Dr_OHH100.wav
256,192,112778,1,0,0:0:0:85:Dr_Clap100.wav
36,192,112778,1,0,0:0:0:85:TGS_C#4_1.wav
475,192,112778,1,0,0:0:0:85:Dr_Kick100.wav
182,192,112863,1,0,0:0:0:85:TGS_C#4_1.wav
475,192,112949,1,0,0:0:0:85:TGS_C#4_2.wav
329,192,112949,1,0,0:0:0:85:Dr_OHH100.wav
36,192,113121,1,0,0:0:0:85:TGS_C#4_1.wav
256,192,113121,1,0,0:0:0:85:Dr_Kick100.wav
109,192,113206,1,0,0:0:0:85:TGS_C#4_1.wav
182,192,113292,1,0,0:0:0:85:TGS_C#4_2.wav
402,192,113292,1,0,0:0:0:85:Dr_OHH100.wav
475,192,113292,1,0,0:0:0:85:StringsSs_F#3_2.wav
329,192,113463,1,0,0:0:0:85:TGS_C#4_1.wav
109,192,113463,1,0,0:0:0:85:StringsSs_G#3_2.wav
36,192,113463,1,0,0:0:0:85:Dr_Clap100.wav
475,192,113463,1,0,0:0:0:85:Dr_Kick100.wav
256,192,113549,1,0,0:0:0:85:TGS_C#4_1.wav
109,192,113635,1,0,0:0:0:85:Dr_OHH100.wav
182,192,113635,1,0,0:0:0:85:TGS_C#4_2.wav
402,192,113635,1,0,0:0:0:85:StringsS_A#3_6.wav
36,192,113806,1,0,0:0:0:85:Dr_Kick100.wav
329,192,113806,1,0,0:0:0:85:SynthS_A#m4_16.wav
475,192,113806,1,0,0:0:0:85:TGS_A#m4_1.wav
256,192,113892,1,0,0:0:0:85:TGS_A#m4_1.wav
109,192,113978,1,0,0:0:0:85:Dr_OHH100.wav
182,192,113978,1,0,0:0:0:85:TGS_A#m4_2.wav
36,192,114149,1,0,0:0:0:85:StringsS_B3_4.wav
109,192,114149,1,0,0:0:0:85:Dr_Kick100.wav
256,192,114149,1,0,0:0:0:85:Dr_Clap100.wav
402,192,114149,1,0,0:0:0:85:TGS_A#m4_1.wav
329,192,114235,1,0,0:0:0:85:TGS_A#m4_1.wav
182,192,114321,1,0,0:0:0:85:Dr_OHH100.wav
402,192,114321,1,0,0:0:0:85:TGS_A#m4_2.wav
36,192,114492,1,0,0:0:0:85:Dr_Kick100.wav
109,192,114492,1,0,0:0:0:85:TGS_A#m4_1.wav
329,192,114492,1,0,0:0:0:85:StringsS_C#4_4.wav
256,192,114578,1,0,0:0:0:85:TGS_A#m4_1.wav
402,192,114663,1,0,0:0:0:85:TGS_A#m4_2.wav
329,192,114749,1,0,0:0:0:85:Dr_Kick080.wav
109,192,114835,1,0,0:0:0:85:Dr_Kick100.wav
182,192,114835,1,0,0:0:0:85:Dr_Clap100.wav
402,192,114835,1,0,0:0:0:85:TGS_A#m4_1.wav
475,192,114835,1,0,0:0:0:85:StringsS_F4_4.wav
329,192,114921,1,0,0:0:0:85:TGS_A#m4_1.wav
36,192,115006,1,0,0:0:0:85:Dr_Kick090.wav
256,192,115006,1,0,0:0:0:85:TGS_A#m4_2.wav
109,192,115178,1,0,0:0:0:85:Dr_Kick100.wav
182,192,115178,1,0,0:0:0:85:SynthS_G#m4_16.wav
402,192,115178,1,0,0:0:0:85:TGS_G#m3_1.wav
36,192,115178,1,0,0:0:0:85:Dr_CymA100.wav
475,192,115178,1,0,0:0:0:85:StringsS_D#4_6.wav
329,192,115263,1,0,0:0:0:85:TGS_G#m3_1.wav
402,192,115349,1,0,0:0:0:85:TGS_G#m3_2.wav
256,192,115349,1,0,0:0:0:85:Dr_OHH100.wav
182,192,115521,1,0,0:0:0:85:Dr_Clap100.wav
329,192,115521,1,0,0:0:0:85:TGS_G#m3_1.wav
109,192,115521,1,0,0:0:0:85:Dr_Kick100.wav
36,192,115606,1,0,0:0:0:85:TGS_G#m3_1.wav
256,192,115692,1,0,0:0:0:85:Dr_OHH100.wav
329,192,115692,1,0,0:0:0:85:StringsSs_G#3_2.wav
475,192,115692,1,0,0:0:0:85:TGS_G#m3_2.wav
182,192,115863,1,0,0:0:0:85:TGS_G#m3_1.wav
36,192,115863,1,0,0:0:0:85:Dr_Kick100.wav
256,192,115949,1,0,0:0:0:85:TGS_G#m3_1.wav
329,192,116035,1,0,0:0:0:85:Dr_OHH100.wav
402,192,116035,1,0,0:0:0:85:TGS_G#m3_2.wav
475,192,116035,1,0,0:0:0:85:StringsSs_A#3_2.wav
36,192,116206,1,0,0:0:0:85:StringsSs_B3_2.wav
402,192,116206,1,0,0:0:0:85:Dr_Clap100.wav
109,192,116206,1,0,0:0:0:85:Dr_Kick100.wav
475,192,116206,1,0,0:0:0:85:TGS_G#m3_1.wav
329,192,116292,1,0,0:0:0:85:TGS_G#m3_1.wav
109,192,116378,1,0,0:0:0:85:Dr_OHH100.wav
182,192,116378,1,0,0:0:0:85:StringsS_C#4_14.wav
402,192,116378,1,0,0:0:0:85:TGS_G#m3_2.wav
475,192,116549,1,0,0:0:0:85:SynthS_C#5_16.wav
109,192,116549,1,0,0:0:0:85:Dr_Kick100.wav
256,192,116549,1,0,0:0:0:85:TGS_C#4_1.wav
329,192,116635,1,0,0:0:0:85:TGS_C#4_1.wav
36,192,116721,1,0,0:0:0:85:Dr_OHH100.wav
402,192,116721,1,0,0:0:0:85:TGS_C#4_2.wav
109,192,116892,1,0,0:0:0:85:Dr_Kick100.wav
256,192,116892,1,0,0:0:0:85:Dr_Clap100.wav
402,192,116892,1,0,0:0:0:85:TGS_C#4_1.wav
182,192,116978,1,0,0:0:0:85:TGS_C#4_1.wav
36,192,117063,1,0,0:0:0:85:Dr_OHH100.wav
109,192,117063,1,0,0:0:0:85:TGS_C#4_2.wav
182,192,117235,1,0,0:0:0:85:Dr_Kick100.wav
402,192,117235,1,0,0:0:0:85:TGS_C#4_1.wav
256,192,117321,1,0,0:0:0:85:Dr_SnRoll100.wav
329,192,117321,1,0,0:0:0:85:TGS_C#4_1.wav
402,192,117406,1,0,0:0:0:85:TGS_C#4_2.wav
36,192,117492,1,0,0:0:0:85:Dr_Kick080.wav
109,192,117578,1,0,0:0:0:85:Dr_Kick100.wav
256,192,117578,1,0,0:0:0:85:Dr_Clap100.wav
402,192,117578,1,0,0:0:0:85:Dr_SnRoll100.wav
475,192,117578,1,0,0:0:0:85:StringsSs_G#3_1.wav
182,192,117663,1,0,0:0:0:85:Dr_SnRoll100.wav
329,192,117663,1,0,0:0:0:85:StringsSs_A#3_1.wav
109,192,117749,1,0,0:0:0:85:Dr_Kick090.wav
256,192,117749,1,0,0:0:0:85:Dr_SnRoll100.wav
402,192,117749,1,0,0:0:0:85:StringsSs_B3_1.wav
182,192,117835,1,0,0:0:0:85:Dr_Kick080.wav
329,192,117835,1,0,0:0:0:85:Dr_SnRoll100.wav
475,192,117835,1,0,0:0:0:85:StringsSs_C#4_1.wav
109,192,117921,1,0,0:0:0:85:Dr_Kick100.wav
256,192,117921,1,0,0:0:0:85:StringsSs_D#4_2.wav
402,192,117921,1,0,0:0:0:85:StringsSs_A#4s_2.wav
36,192,117921,1,0,0:0:0:85:Dr_CymA100.wav
475,192,117921,1,0,0:0:0:85:StringsSs_G#4s_2.wav
36,192,118263,1,0,0:0:0:85:StringsSs_G#4s_2.wav
109,192,118263,1,0,0:0:0:85:Dr_Kick095.wav
402,192,118263,1,0,0:0:0:85:StringsSs_A#4s_2.wav
475,192,118263,1,0,0:0:0:85:StringsSs_D#4_2.wav
109,192,118435,1,0,0:0:0:85:Dr_Kick100.wav
36,192,118435,1,0,0:0:0:85:StringsSs_G#4s_2.wav
402,192,118435,1,0,0:0:0:85:StringsSs_A#4s_2.wav
256,192,118435,1,0,0:0:0:85:Dr_CymB100.wav
475,192,118435,1,0,0:0:0:85:StringsSs_D#4_2.wav
36,192,118778,1,0,0:0:0:85:Dr_Kick090.wav
182,192,118778,1,0,0:0:0:85:StringsSs_G#4s_2.wav
329,192,118778,1,0,0:0:0:85:StringsSs_A#4s_2.wav
475,192,118778,1,0,0:0:0:85:StringsSs_D#4_2.wav
36,192,118949,1,0,0:0:0:85:Dr_Kick095.wav
182,192,118949,1,0,0:0:0:85:StringsSs_G#4s_2.wav
329,192,118949,1,0,0:0:0:85:StringsSs_A#4s_2.wav
475,192,118949,1,0,0:0:0:85:StringsSs_D#4_2.wav
109,192,119121,1,0,0:0:0:85:Dr_Kick100.wav
36,192,119121,1,0,0:0:0:85:StringsSs_G4s_18.wav
329,192,119121,1,0,0:0:0:85:SynthS_D#5_18.wav
402,192,119121,1,0,0:0:0:85:StringsSs_A#4s_18.wav
182,192,119121,1,0,0:0:0:85:Dr_CymC100.wav
475,192,119121,1,0,0:0:0:85:StringsSs_D#4_18.wav
329,192,119292,1,0,0:0:0:85:Dr_SnRoll085.wav
256,192,119292,1,0,0:0:0:85:TGCend_D#02.wav
182,192,119378,1,0,0:0:0:85:Dr_SnRoll085.wav
36,192,119378,1,0,0:0:0:85:TGCend_D#02.wav
256,192,119463,1,0,0:0:0:85:TGCend_D#03.wav
402,192,119463,1,0,0:0:0:85:Dr_SnRoll085.wav
109,192,119549,1,0,0:0:0:85:Dr_SnRoll085.wav
329,192,119635,1,0,0:0:0:85:Dr_SnRoll090.wav
182,192,119635,1,0,0:0:0:85:TGCend_D#04.wav
256,192,119721,1,0,0:0:0:85:Dr_SnRoll090.wav
402,192,119721,1,0,0:0:0:85:TGCend_D#04.wav
329,192,119806,1,0,0:0:0:85:Dr_SnRoll090.wav
475,192,119806,1,0,0:0:0:85:TGCend_D#05.wav
256,192,119892,1,0,0:0:0:85:Dr_SnRoll090.wav
182,192,119978,1,0,0:0:0:85:Dr_SnRoll095.wav
36,192,119978,1,0,0:0:0:85:TGCend_D#06.wav
109,192,120063,1,0,0:0:0:85:Dr_SnRoll095.wav
329,192,120063,1,0,0:0:0:85:TGCend_D#06.wav
256,192,120149,1,0,0:0:0:85:Dr_SnRoll095.wav
402,192,120149,1,0,0:0:0:85:TGCend_D#07.wav
329,192,120235,1,0,0:0:0:85:Dr_SnRoll095.wav
182,192,120321,1,0,0:0:0:85:TGCend_D#08.wav
109,192,120321,1,0,0:0:0:85:Dr_Kick100.wav
402,192,120321,1,0,0:0:0:85:Dr_SnRoll100.wav
475,192,120406,1,0,0:0:0:85:TGCend_D#08.wav
256,192,120406,1,0,0:0:0:85:Dr_Kick080.wav
329,192,120406,1,0,0:0:0:85:Dr_SnRoll100.wav
182,192,120492,1,0,0:0:0:85:Dr_Kick090.wav
109,192,120492,1,0,0:0:0:85:TGCend_D#09.wav
402,192,120492,1,0,0:0:0:85:Dr_SnRoll100.wav
256,192,120578,1,0,0:0:0:85:Dr_Kick080.wav
329,192,120578,1,0,0:0:0:85:Dr_SnRoll100.wav
109,192,120663,1,0,0:0:0:85:Dr_Kick100.wav
402,192,120663,1,0,0:0:0:85:ChimeEnd01.wav
36,192,120663,1,0,0:0:0:85:Dr_CymA100.wav
475,192,120663,1,0,0:0:0:85:SE_Exp02.wav
