osu file format v14

[General]
AudioFilename: Scarlet_Faith.mp3
AudioLeadIn: 0
PreviewTime: 70299
Countdown: 1
SampleSet: Normal
StackLeniency: 0.7
Mode: 1
LetterboxInBreaks: 1
WidescreenStoryboard: 0

[Editor]
DistanceSpacing: 1.1
BeatDivisor: 6
GridSize: 4
TimelineZoom: 2.16

[Metadata]
Title:Scarlet Faith
TitleUnicode:Scarlet Faith
Artist:Nakamura Meiko
ArtistUnicode:仲村芽衣子
Creator:LunaticP
Version:Inner Oni
Source:
Tags:
BeatmapID:696717
BeatmapSetID:312006

[Difficulty]
HPDrainRate:6
CircleSize:5
OverallDifficulty:5
ApproachRate:5
SliderMultiplier:1.4
SliderTickRate:1

[Events]
//Background and Video events
0,0,"Scarlet Faith.jpg",0,100
//Break Periods
//Storyboard Layer 0 (Background)
//Storyboard Layer 1 (Fail)
//Storyboard Layer 2 (Pass)
//Storyboard Layer 3 (Foreground)
//Storyboard Sound Samples

[TimingPoints]
1160,397.350993377483,4,1,0,60,1,0
9901,-100,4,1,0,70,0,0
15464,-100,4,1,0,80,0,1
31358,-100,4,1,0,70,0,0
44471,-100,4,1,0,50,0,0
50431,-100,4,1,0,60,0,0
64736,-100,4,1,0,70,0,0
71093,-90.9090909090909,4,1,0,80,0,1
83411,-90.9090909090909,4,1,0,80,0,0
83809,-90.9090909090909,4,1,0,80,0,1
99703,-100,4,1,0,70,0,0
107451,-125,4,1,0,60,0,0
111126,-125,4,1,0,70,0,0
112815,-111.111111111111,4,1,0,70,0,0
118775,-100,4,1,0,70,0,0
133080,-90.9090909090909,4,1,0,80,0,1
145398,-90.9090909090909,4,1,0,80,0,0
145795,-90.9090909090909,4,1,0,80,0,1
161689,-100,4,1,0,80,0,0
188709,-166.666666666667,4,1,0,60,0,0
193477,-142.857142857143,4,1,0,60,0,0
195067,-125,4,1,0,70,0,0
198643,-111.111111111111,4,1,0,70,0,0
201027,-100,4,1,0,80,0,0
203014,-90.9090909090909,4,1,0,80,0,1
215332,-90.9090909090909,4,1,0,80,0,0
215729,-90.9090909090909,4,1,0,80,0,1
236391,-90.9090909090909,4,1,0,80,0,0

[HitObjects]
268,180,1160,5,4,0:0:0:0:
304,248,1358,1,0,0:0:0:0:
340,316,1557,1,0,0:0:0:0:
304,248,1756,1,8,0:0:0:0:
152,256,2153,1,0,0:0:0:0:
296,208,2550,1,0,0:0:0:0:
368,184,2749,1,0,0:0:0:0:
269,103,3047,1,8,0:0:0:0:
323,163,3146,1,0,0:0:0:0:
323,163,3345,1,0,0:0:0:0:
323,163,3544,1,0,0:0:0:0:
330,199,3842,1,0,0:0:0:0:
330,199,3941,1,0,0:0:0:0:
404,210,4140,1,0,0:0:0:0:
404,210,4239,1,8,0:0:0:0:
404,210,4338,1,0,0:0:0:0:
308,185,4537,1,0,0:0:0:0:
308,185,4736,1,0,0:0:0:0:
265,37,4934,1,8,0:0:0:0:
342,172,5133,1,0,0:0:0:0:
358,179,5332,1,8,0:0:0:0:
318,203,5729,1,8,0:0:0:0:
318,203,5928,1,0,0:0:0:0:
493,131,6226,1,0,0:0:0:0:
493,131,6524,1,0,0:0:0:0:
311,99,6722,1,4,0:0:0:0:
311,99,7020,1,4,0:0:0:0:
311,99,7318,1,4,0:0:0:0:
191,161,7517,1,0,0:0:0:0:
375,215,7616,1,0,0:0:0:0:
191,161,7716,1,8,0:0:0:0:
375,215,7815,1,8,0:0:0:0:
191,161,7914,1,0,0:0:0:0:
375,215,8014,1,8,0:0:0:0:
256,194,8113,1,8,0:0:0:0:
256,194,8212,1,8,0:0:0:0:
256,194,8312,1,0,0:0:0:0:
375,215,8411,1,0,0:0:0:0:
256,194,8510,1,8,0:0:0:0:
375,215,8610,1,0,0:0:0:0:
375,215,8709,1,0,0:0:0:0:
362,217,8809,1,0,0:0:0:0:
362,217,8908,1,8,0:0:0:0:
362,217,9007,1,0,0:0:0:0:
362,217,9107,1,8,0:0:0:0:
362,217,9206,1,0,0:0:0:0:
362,217,9305,1,8,0:0:0:0:
362,217,9405,1,0,0:0:0:0:
362,217,9504,1,8,0:0:0:0:
307,211,9603,1,0,0:0:0:0:
244,216,9703,1,8,0:0:0:0:
329,149,9901,1,4,0:0:0:0:
329,149,10199,1,4,0:0:0:0:
329,149,10497,1,4,0:0:0:0:
228,101,10696,1,0,0:0:0:0:
228,101,10795,1,0,0:0:0:0:
228,101,10895,1,8,0:0:0:0:
228,101,10994,1,0,0:0:0:0:
228,101,11093,1,8,0:0:0:0:
228,101,11193,1,8,0:0:0:0:
228,101,11292,1,8,0:0:0:0:
228,101,11391,1,8,0:0:0:0:
228,101,11491,1,0,0:0:0:0:
228,101,11590,1,0,0:0:0:0:
228,101,11689,1,8,0:0:0:0:
228,101,11789,1,0,0:0:0:0:
395,76,11888,1,0,0:0:0:0:
271,163,11987,1,0,0:0:0:0:
353,156,12087,1,8,0:0:0:0:
353,156,12153,1,8,0:0:0:0:
353,156,12219,1,8,0:0:0:0:
353,156,12285,1,0,0:0:0:0:
422,193,13676,1,0,0:0:0:0:
422,193,13875,1,8,0:0:0:0:
248,156,14272,1,8,0:0:0:0:
248,156,14471,1,0,0:0:0:0:
248,156,14570,1,0,0:0:0:0:
248,156,14669,1,8,0:0:0:0:
248,156,14868,1,0,0:0:0:0:
288,192,14967,1,0,0:0:0:0:
288,192,15067,1,8,0:0:0:0:
296,244,15166,1,0,0:0:0:0:
288,192,15265,1,0,0:0:0:0:
296,244,15365,1,0,0:0:0:0:
288,192,15464,1,8,0:0:0:0:
428,196,15762,1,0,0:0:0:0:
348,136,15861,1,8,0:0:0:0:
348,136,16060,1,0,0:0:0:0:
348,136,16159,1,8,0:0:0:0:
248,136,16259,1,0,0:0:0:0:
248,136,16358,1,0,0:0:0:0:
200,104,16458,1,8,0:0:0:0:
200,104,16656,1,0,0:0:0:0:
380,152,16756,1,8,0:0:0:0:
304,164,16855,1,8,0:0:0:0:
248,184,17054,1,8,0:0:0:0:
248,184,17252,1,0,0:0:0:0:
248,184,17451,1,0,0:0:0:0:
248,184,17650,1,8,0:0:0:0:
320,160,17749,1,8,0:0:0:0:
248,88,17848,1,0,0:0:0:0:
320,160,18047,1,8,0:0:0:0:
320,160,18146,1,0,0:0:0:0:
392,112,18246,1,0,0:0:0:0:
392,112,18444,1,8,0:0:0:0:
392,112,18643,1,0,0:0:0:0:
288,184,18941,1,0,0:0:0:0:
288,184,19040,1,8,0:0:0:0:
288,184,19239,1,0,0:0:0:0:
288,184,19338,1,8,0:0:0:0:
328,88,19537,1,0,0:0:0:0:
228,80,19636,1,8,0:0:0:0:
288,184,19736,1,0,0:0:0:0:
348,192,19835,1,0,0:0:0:0:
348,192,20034,1,8,0:0:0:0:
348,192,20232,1,0,0:0:0:0:
332,140,20332,1,0,0:0:0:0:
332,140,20431,1,0,0:0:0:0:
332,140,20630,1,0,0:0:0:0:
332,140,20828,1,0,0:0:0:0:
348,192,20928,1,0,0:0:0:0:
332,140,21027,1,8,0:0:0:0:
484,120,21226,1,0,0:0:0:0:
484,120,21424,1,8,0:0:0:0:
484,120,21623,1,0,0:0:0:0:
340,88,21822,1,8,0:0:0:0:
376,164,22219,1,8,0:0:0:0:
376,164,22418,1,0,0:0:0:0:
376,164,22517,1,8,0:0:0:0:
376,164,22716,1,0,0:0:0:0:
364,240,22815,1,0,0:0:0:0:
364,240,22914,1,0,0:0:0:0:
364,240,23014,1,8,0:0:0:0:
364,240,23212,1,0,0:0:0:0:
256,112,23411,1,8,0:0:0:0:
256,112,23510,1,0,0:0:0:0:
256,112,23610,1,8,0:0:0:0:
240,68,23809,1,0,0:0:0:0:
348,84,24007,1,0,0:0:0:0:
240,152,24107,1,0,0:0:0:0:
240,152,24206,1,8,0:0:0:0:
256,112,24305,1,0,0:0:0:0:
348,84,24504,1,8,0:0:0:0:
348,84,24603,1,0,0:0:0:0:
376,168,24802,1,0,0:0:0:0:
376,168,24901,1,0,0:0:0:0:
376,168,25001,1,8,0:0:0:0:
376,168,25199,1,0,0:0:0:0:
312,168,25398,1,12,0:0:0:0:
280,140,25795,1,8,0:0:0:0:
340,176,25994,1,8,0:0:0:0:
252,104,26093,1,0,0:0:0:0:
340,176,26193,1,0,0:0:0:0:
276,104,26391,1,8,0:0:0:0:
204,168,26590,1,8,0:0:0:0:
204,168,26689,1,0,0:0:0:0:
204,168,26789,1,8,0:0:0:0:
204,168,26888,1,0,0:0:0:0:
204,168,26987,1,8,0:0:0:0:
204,168,27087,1,8,0:0:0:0:
204,168,27186,1,0,0:0:0:0:
204,168,27285,1,0,0:0:0:0:
204,168,27385,1,8,0:0:0:0:
324,156,27484,1,8,0:0:0:0:
324,156,27583,1,8,0:0:0:0:
324,156,27683,1,8,0:0:0:0:
324,156,27782,1,0,0:0:0:0:
324,156,27881,1,8,0:0:0:0:
324,156,27981,1,8,0:0:0:0:
304,100,28179,1,4,0:0:0:0:
380,204,28775,1,0,0:0:0:0:
380,204,28974,1,4,0:0:0:0:
328,92,29272,1,4,0:0:0:0:
328,92,29570,1,4,0:0:0:0:
248,108,29769,1,8,0:0:0:0:
308,192,29868,1,0,0:0:0:0:
308,192,29967,1,0,0:0:0:0:
308,192,30067,1,0,0:0:0:0:
308,192,30166,1,8,0:0:0:0:
200,200,30265,1,8,0:0:0:0:
200,200,30365,1,0,0:0:0:0:
200,200,30464,1,0,0:0:0:0:
416,192,30563,1,0,0:0:0:0:
416,192,30663,1,8,0:0:0:0:
416,192,30762,1,8,0:0:0:0:
416,192,30861,1,8,0:0:0:0:
272,236,30961,1,0,0:0:0:0:
400,120,31358,1,8,0:0:0:0:
400,120,31557,1,0,0:0:0:0:
380,248,31656,1,0,0:0:0:0:
400,120,31756,1,8,0:0:0:0:
512,192,31855,1,0,0:0:0:0:
292,112,32054,1,8,0:0:0:0:
296,256,32153,1,0,0:0:0:0:
304,260,32352,1,8,0:0:0:0:
304,260,32550,1,0,0:0:0:0:
232,188,32650,1,0,0:0:0:0:
304,260,32749,1,8,0:0:0:0:
280,160,32948,1,8,0:0:0:0:
280,160,33146,1,0,0:0:0:0:
292,112,33246,1,0,0:0:0:0:
280,160,33345,1,8,0:0:0:0:
420,196,33643,1,0,0:0:0:0:
420,196,33742,1,8,0:0:0:0:
264,152,33842,1,8,0:0:0:0:
264,152,33941,1,0,0:0:0:0:
264,152,34140,1,8,0:0:0:0:
368,112,34338,1,0,0:0:0:0:
368,112,34537,1,8,0:0:0:0:
328,232,34736,1,0,0:0:0:0:
328,224,34835,1,0,0:0:0:0:
328,224,34934,1,8,0:0:0:0:
292,144,35232,1,0,0:0:0:0:
292,144,35332,1,0,0:0:0:0:
292,144,35530,1,0,0:0:0:0:
232,168,35729,1,0,0:0:0:0:
232,168,35828,1,8,0:0:0:0:
232,168,35928,1,8,0:0:0:0:
232,168,36027,1,0,0:0:0:0:
232,168,36126,1,8,0:0:0:0:
332,200,36325,1,0,0:0:0:0:
200,220,36524,1,8,0:0:0:0:
200,220,36623,1,8,0:0:0:0:
200,220,36722,1,0,0:0:0:0:
448,152,36921,1,8,0:0:0:0:
368,96,37120,1,8,0:0:0:0:
288,112,37318,1,0,0:0:0:0:
288,120,37418,1,0,0:0:0:0:
288,120,37517,1,0,0:0:0:0:
288,120,37616,1,0,0:0:0:0:
288,120,37716,1,8,0:0:0:0:
304,240,37914,1,0,0:0:0:0:
304,240,38113,1,8,0:0:0:0:
200,192,38212,1,8,0:0:0:0:
200,192,38312,1,0,0:0:0:0:
200,192,38411,1,0,0:0:0:0:
200,192,38510,1,8,0:0:0:0:
200,192,38709,1,0,0:0:0:0:
304,196,38908,1,0,0:0:0:0:
436,240,39007,1,0,0:0:0:0:
436,240,39107,1,8,0:0:0:0:
304,196,39305,1,8,0:0:0:0:
432,84,39504,1,0,0:0:0:0:
376,196,39703,1,0,0:0:0:0:
376,196,40001,1,0,0:0:0:0:
376,196,40100,1,8,0:0:0:0:
376,196,40199,1,8,0:0:0:0:
376,196,40299,1,0,0:0:0:0:
376,196,40497,1,8,0:0:0:0:
376,196,40696,1,0,0:0:0:0:
224,96,40895,1,8,0:0:0:0:
224,96,40994,1,8,0:0:0:0:
224,96,41093,1,8,0:0:0:0:
244,204,41193,1,0,0:0:0:0:
244,204,41292,1,8,0:0:0:0:
244,204,41491,1,0,0:0:0:0:
344,272,41689,1,8,0:0:0:0:
344,272,41789,1,8,0:0:0:0:
344,272,41888,1,8,0:0:0:0:
344,272,41987,1,8,0:0:0:0:
344,272,42087,1,0,0:0:0:0:
344,272,42186,1,0,0:0:0:0:
344,272,42285,1,8,0:0:0:0:
344,272,42484,1,0,0:0:0:0:
300,192,42683,1,0,0:0:0:0:
300,192,42782,1,0,0:0:0:0:
300,192,42881,1,8,0:0:0:0:
300,192,43080,1,0,0:0:0:0:
488,232,43179,1,8,0:0:0:0:
468,132,43279,1,8,0:0:0:0:
488,232,43378,1,0,0:0:0:0:
468,132,43477,1,0,0:0:0:0:
292,96,43577,1,0,0:0:0:0:
468,132,43676,1,8,0:0:0:0:
292,136,43775,1,8,0:0:0:0:
292,136,43875,1,0,0:0:0:0:
292,136,43974,1,0,0:0:0:0:
292,136,44073,1,8,0:0:0:0:
348,136,44471,1,0,0:0:0:0:
348,136,44868,1,0,0:0:0:0:
320,264,45067,1,8,0:0:0:0:
320,264,45265,1,0,0:0:0:0:
320,264,45663,1,8,0:0:0:0:
368,92,46060,1,0,0:0:0:0:
384,188,46458,1,8,0:0:0:0:
384,188,46656,1,0,0:0:0:0:
384,188,46855,1,0,0:0:0:0:
324,148,47252,1,8,0:0:0:0:
304,220,47650,1,0,0:0:0:0:
420,256,48047,1,0,0:0:0:0:
420,256,48246,1,0,0:0:0:0:
420,256,48444,1,8,0:0:0:0:
420,256,48842,1,8,0:0:0:0:
344,104,49239,1,0,0:0:0:0:
340,196,49636,1,0,0:0:0:0:
340,196,49835,1,0,0:0:0:0:
340,196,50034,1,8,0:0:0:0:
248,220,50431,1,0,0:0:0:0:
248,220,50828,1,0,0:0:0:0:
268,140,51027,1,0,0:0:0:0:
268,140,51226,1,8,0:0:0:0:
408,144,51623,1,8,0:0:0:0:
408,144,51822,1,0,0:0:0:0:
412,148,52020,1,8,0:0:0:0:
432,204,52418,1,0,0:0:0:0:
312,280,52616,1,8,0:0:0:0:
312,280,52815,1,0,0:0:0:0:
312,280,53212,1,8,0:0:0:0:
280,112,53610,1,0,0:0:0:0:
452,188,53809,1,0,0:0:0:0:
452,188,54007,1,8,0:0:0:0:
372,156,54405,1,0,0:0:0:0:
372,156,54802,1,12,0:0:0:0:
384,280,55199,1,8,0:0:0:0:
384,280,55299,1,0,0:0:0:0:
384,280,55398,1,0,0:0:0:0:
384,280,55497,1,0,0:0:0:0:
384,280,55597,1,8,0:0:0:0:
384,280,55696,1,8,0:0:0:0:
384,280,55795,1,0,0:0:0:0:
268,188,55895,1,0,0:0:0:0:
268,188,55994,1,8,0:0:0:0:
268,188,56093,1,0,0:0:0:0:
268,188,56193,1,8,0:0:0:0:
268,188,56292,1,0,0:0:0:0:
268,188,56391,1,8,0:0:0:0:
472,184,56491,1,0,0:0:0:0:
472,184,56590,1,0,0:0:0:0:
472,184,56689,1,0,0:0:0:0:
472,184,56789,1,8,0:0:0:0:
348,260,57186,1,0,0:0:0:0:
348,260,57385,1,0,0:0:0:0:
348,260,57484,1,0,0:0:0:0:
348,260,57583,1,8,0:0:0:0:
348,260,57782,1,0,0:0:0:0:
384,160,57981,1,8,0:0:0:0:
384,160,58179,1,0,0:0:0:0:
172,152,58378,1,8,0:0:0:0:
220,156,58477,1,0,0:0:0:0:
220,156,58577,1,0,0:0:0:0:
220,156,58676,1,8,0:0:0:0:
220,156,58775,1,0,0:0:0:0:
220,156,58974,1,8,0:0:0:0:
356,120,59173,1,8,0:0:0:0:
356,120,59272,1,0,0:0:0:0:
356,120,59371,1,8,0:0:0:0:
356,120,59471,1,8,0:0:0:0:
356,120,59570,1,0,0:0:0:0:
472,148,59769,1,0,0:0:0:0:
472,148,59967,1,0,0:0:0:0:
360,160,60365,1,8,0:0:0:0:
400,244,60563,1,0,0:0:0:0:
400,244,60663,1,0,0:0:0:0:
464,244,60762,1,8,0:0:0:0:
320,64,60861,1,0,0:0:0:0:
360,160,61060,1,0,0:0:0:0:
312,124,61159,1,8,0:0:0:0:
268,156,61358,1,0,0:0:0:0:
268,192,61557,1,8,0:0:0:0:
268,192,61656,1,0,0:0:0:0:
268,192,61756,1,8,0:0:0:0:
268,192,61855,1,8,0:0:0:0:
268,192,61954,1,8,0:0:0:0:
268,192,62153,1,8,0:0:0:0:
268,192,62352,1,0,0:0:0:0:
268,192,62550,1,8,0:0:0:0:
392,192,62650,1,8,0:0:0:0:
392,192,62749,1,0,0:0:0:0:
408,116,62948,1,0,0:0:0:0:
408,116,63146,1,8,0:0:0:0:
408,116,63345,1,0,0:0:0:0:
408,116,63444,1,0,0:0:0:0:
408,116,63544,1,8,0:0:0:0:
340,132,63941,1,8,0:0:0:0:
344,136,64140,1,0,0:0:0:0:
344,136,64239,1,0,0:0:0:0:
344,136,64338,1,8,0:0:0:0:
344,76,64736,1,0,0:0:0:0:
344,76,64934,1,0,0:0:0:0:
400,176,65034,1,0,0:0:0:0:
344,76,65133,1,8,0:0:0:0:
344,76,65332,1,0,0:0:0:0:
304,164,65530,1,0,0:0:0:0:
304,168,65630,1,0,0:0:0:0:
304,168,65729,1,0,0:0:0:0:
304,168,65828,1,0,0:0:0:0:
304,168,65928,1,8,0:0:0:0:
304,168,66126,1,0,0:0:0:0:
392,200,66325,1,8,0:0:0:0:
232,200,66722,1,8,0:0:0:0:
232,200,66921,1,0,0:0:0:0:
232,200,67020,1,0,0:0:0:0:
232,200,67120,1,0,0:0:0:0:
344,204,67318,1,0,0:0:0:0:
344,204,67517,1,8,0:0:0:0:
424,152,67716,1,0,0:0:0:0:
340,144,67914,1,8,0:0:0:0:
304,192,68014,1,8,0:0:0:0:
340,144,68113,1,0,0:0:0:0:
340,144,68212,1,0,0:0:0:0:
340,144,68312,1,0,0:0:0:0:
304,192,68411,1,0,0:0:0:0:
340,144,68510,1,8,0:0:0:0:
380,160,68610,1,8,0:0:0:0:
240,164,68709,1,8,0:0:0:0:
384,164,68809,1,0,0:0:0:0:
240,164,68908,1,8,0:0:0:0:
384,164,69007,1,8,0:0:0:0:
240,164,69107,1,0,0:0:0:0:
384,164,69206,1,8,0:0:0:0:
240,164,69305,1,8,0:0:0:0:
384,164,69405,1,8,0:0:0:0:
240,164,69504,1,0,0:0:0:0:
340,124,69901,1,8,0:0:0:0:
340,124,70100,1,0,0:0:0:0:
340,124,70199,1,8,0:0:0:0:
372,68,70299,1,0,0:0:0:0:
504,164,70497,1,0,0:0:0:0:
504,164,70597,1,0,0:0:0:0:
504,164,70696,1,8,0:0:0:0:
488,200,70895,1,0,0:0:0:0:
488,200,71093,1,8,0:0:0:0:
348,136,71391,1,0,0:0:0:0:
348,136,71490,1,8,0:0:0:0:
248,136,71689,1,0,0:0:0:0:
348,136,71788,1,8,0:0:0:0:
248,136,71987,1,0,0:0:0:0:
200,104,72087,1,8,0:0:0:0:
380,152,72186,1,8,0:0:0:0:
200,104,72285,1,0,0:0:0:0:
304,164,72484,1,8,0:0:0:0:
304,248,72683,1,8,0:0:0:0:
432,280,72782,1,8,0:0:0:0:
248,184,72881,1,0,0:0:0:0:
248,184,73080,1,0,0:0:0:0:
248,184,73279,1,8,0:0:0:0:
320,160,73378,1,8,0:0:0:0:
248,88,73477,1,0,0:0:0:0:
320,160,73676,1,8,0:0:0:0:
320,160,73775,1,0,0:0:0:0:
392,112,73875,1,0,0:0:0:0:
392,112,74073,1,8,0:0:0:0:
392,112,74272,1,0,0:0:0:0:
288,184,74570,1,0,0:0:0:0:
288,184,74669,1,0,0:0:0:0:
288,184,74868,1,0,0:0:0:0:
288,184,74967,1,8,0:0:0:0:
328,88,75166,1,0,0:0:0:0:
228,80,75265,1,8,0:0:0:0:
288,184,75365,1,0,0:0:0:0:
348,192,75464,1,0,0:0:0:0:
348,192,75663,1,8,0:0:0:0:
348,192,75861,1,0,0:0:0:0:
332,140,75961,1,0,0:0:0:0:
332,140,76060,1,0,0:0:0:0:
332,140,76259,1,8,0:0:0:0:
332,140,76457,1,0,0:0:0:0:
348,192,76557,1,0,0:0:0:0:
332,140,76656,1,8,0:0:0:0:
484,120,76855,1,0,0:0:0:0:
484,120,77053,1,8,0:0:0:0:
484,120,77252,1,0,0:0:0:0:
340,88,77451,1,8,0:0:0:0:
376,164,77848,1,8,0:0:0:0:
376,164,78047,1,0,0:0:0:0:
376,164,78146,1,8,0:0:0:0:
376,164,78345,1,0,0:0:0:0:
364,240,78444,1,0,0:0:0:0:
364,240,78543,1,0,0:0:0:0:
364,240,78643,1,8,0:0:0:0:
364,240,78841,1,0,0:0:0:0:
256,112,79040,1,8,0:0:0:0:
256,112,79139,1,8,0:0:0:0:
256,112,79239,1,0,0:0:0:0:
240,68,79438,1,8,0:0:0:0:
348,84,79636,1,0,0:0:0:0:
240,152,79736,1,0,0:0:0:0:
240,152,79835,1,8,0:0:0:0:
256,112,79934,1,0,0:0:0:0:
348,84,80034,1,8,0:0:0:0:
348,84,80232,1,0,0:0:0:0:
376,168,80431,1,0,0:0:0:0:
376,168,80530,1,0,0:0:0:0:
376,168,80630,1,8,0:0:0:0:
376,168,80828,1,0,0:0:0:0:
312,168,81027,1,8,0:0:0:0:
368,200,81126,1,8,0:0:0:0:
368,200,81226,1,0,0:0:0:0:
280,140,81424,1,8,0:0:0:0:
340,176,81623,1,8,0:0:0:0:
252,104,81722,1,0,0:0:0:0:
376,184,81822,1,0,0:0:0:0:
276,104,82020,1,8,0:0:0:0:
204,168,82219,1,8,0:0:0:0:
204,168,82318,1,0,0:0:0:0:
204,168,82418,1,8,0:0:0:0:
204,168,82517,1,0,0:0:0:0:
204,168,82616,1,8,0:0:0:0:
204,168,82716,1,8,0:0:0:0:
204,168,82815,1,0,0:0:0:0:
204,168,82914,1,0,0:0:0:0:
204,168,83014,1,0,0:0:0:0:
324,156,83113,1,8,0:0:0:0:
324,156,83212,1,8,0:0:0:0:
324,156,83312,1,8,0:0:0:0:
324,156,83411,1,0,0:0:0:0:
324,156,83477,1,8,0:0:0:0:
324,156,83544,1,8,0:0:0:0:
392,140,83610,1,8,0:0:0:0:
332,184,83676,1,8,0:0:0:0:
332,184,83742,1,8,0:0:0:0:
304,100,83808,1,0,0:0:0:0:
428,196,84107,1,0,0:0:0:0:
348,136,84206,1,8,0:0:0:0:
348,136,84405,1,0,0:0:0:0:
348,136,84504,1,8,0:0:0:0:
248,136,84604,1,8,0:0:0:0:
248,136,84703,1,0,0:0:0:0:
200,104,84803,1,8,0:0:0:0:
200,104,85001,1,0,0:0:0:0:
304,164,85200,1,8,0:0:0:0:
248,184,85399,1,8,0:0:0:0:
288,88,85497,1,0,0:0:0:0:
288,88,85597,1,8,0:0:0:0:
248,184,85796,1,0,0:0:0:0:
248,184,85995,1,8,0:0:0:0:
320,160,86094,1,0,0:0:0:0:
248,88,86292,1,0,0:0:0:0:
320,160,86392,1,8,0:0:0:0:
320,160,86491,1,0,0:0:0:0:
392,112,86591,1,0,0:0:0:0:
392,112,86789,1,8,0:0:0:0:
392,112,86988,1,0,0:0:0:0:
288,184,87286,1,0,0:0:0:0:
288,184,87385,1,8,0:0:0:0:
288,184,87584,1,0,0:0:0:0:
288,184,87683,1,8,0:0:0:0:
328,88,87882,1,8,0:0:0:0:
228,80,87981,1,0,0:0:0:0:
288,184,88081,1,0,0:0:0:0:
348,192,88180,1,8,0:0:0:0:
348,192,88379,1,8,0:0:0:0:
348,192,88577,1,0,0:0:0:0:
332,140,88677,1,0,0:0:0:0:
332,140,88776,1,0,0:0:0:0:
332,140,88975,1,0,0:0:0:0:
332,140,89173,1,0,0:0:0:0:
348,192,89273,1,8,0:0:0:0:
332,140,89372,1,8,0:0:0:0:
484,120,89571,1,0,0:0:0:0:
484,120,89769,1,8,0:0:0:0:
484,120,89968,1,0,0:0:0:0:
340,88,90167,1,8,0:0:0:0:
376,164,90564,1,8,0:0:0:0:
376,164,90763,1,0,0:0:0:0:
376,164,90862,1,8,0:0:0:0:
376,164,91061,1,0,0:0:0:0:
364,240,91160,1,0,0:0:0:0:
364,240,91259,1,0,0:0:0:0:
364,240,91359,1,8,0:0:0:0:
364,240,91557,1,0,0:0:0:0:
256,112,91756,1,8,0:0:0:0:
256,112,91855,1,0,0:0:0:0:
256,112,91955,1,8,0:0:0:0:
240,68,92154,1,0,0:0:0:0:
348,84,92352,1,0,0:0:0:0:
240,152,92452,1,0,0:0:0:0:
240,152,92551,1,8,0:0:0:0:
256,112,92749,1,0,0:0:0:0:
348,84,92849,1,8,0:0:0:0:
348,84,92948,1,0,0:0:0:0:
376,168,93147,1,0,0:0:0:0:
376,168,93246,1,0,0:0:0:0:
376,168,93346,1,8,0:0:0:0:
376,168,93544,1,0,0:0:0:0:
312,168,93743,1,12,0:0:0:0:
280,140,94140,1,8,0:0:0:0:
340,176,94339,1,8,0:0:0:0:
252,104,94438,1,0,0:0:0:0:
340,176,94538,1,0,0:0:0:0:
276,104,94736,1,8,0:0:0:0:
204,168,94935,1,8,0:0:0:0:
204,168,95034,1,0,0:0:0:0:
204,168,95134,1,8,0:0:0:0:
204,168,95233,1,0,0:0:0:0:
204,168,95332,1,8,0:0:0:0:
204,168,95432,1,8,0:0:0:0:
204,168,95531,1,0,0:0:0:0:
204,168,95630,1,0,0:0:0:0:
204,168,95730,1,0,0:0:0:0:
324,156,95829,1,0,0:0:0:0:
324,156,95928,1,8,0:0:0:0:
324,156,96028,1,8,0:0:0:0:
324,156,96127,1,0,0:0:0:0:
324,156,96226,1,0,0:0:0:0:
324,156,96326,1,8,0:0:0:0:
304,100,96524,1,4,0:0:0:0:
380,204,97120,1,0,0:0:0:0:
380,204,97319,1,4,0:0:0:0:
328,92,97617,1,4,0:0:0:0:
328,92,97915,1,4,0:0:0:0:
248,108,98114,1,8,0:0:0:0:
308,192,98213,1,0,0:0:0:0:
308,192,98312,1,0,0:0:0:0:
308,192,98412,1,0,0:0:0:0:
308,192,98511,1,8,0:0:0:0:
200,200,98610,1,8,0:0:0:0:
200,200,98710,1,0,0:0:0:0:
200,200,98809,1,0,0:0:0:0:
416,192,98908,1,0,0:0:0:0:
416,192,99008,1,8,0:0:0:0:
416,192,99107,1,8,0:0:0:0:
416,192,99206,1,8,0:0:0:0:
272,236,99306,1,0,0:0:0:0:
428,88,99703,1,0,0:0:0:0:
424,280,99901,1,0,0:0:0:0:
424,280,100100,1,8,0:0:0:0:
308,184,100398,1,0,0:0:0:0:
308,184,100497,1,8,0:0:0:0:
308,184,100696,1,0,0:0:0:0:
308,184,100895,1,8,0:0:0:0:
308,184,100994,1,0,0:0:0:0:
236,136,101093,1,0,0:0:0:0:
468,168,101292,1,8,0:0:0:0:
468,168,101391,1,8,0:0:0:0:
468,168,101491,1,0,0:0:0:0:
468,168,101689,1,8,0:0:0:0:
360,156,101987,1,0,0:0:0:0:
360,156,102087,1,8,0:0:0:0:
360,156,102186,1,8,0:0:0:0:
360,156,102285,1,0,0:0:0:0:
360,156,102484,1,8,0:0:0:0:
324,264,102683,1,0,0:0:0:0:
308,244,102881,1,8,0:0:0:0:
308,244,102981,1,0,0:0:0:0:
240,156,103080,1,0,0:0:0:0:
308,244,103179,1,8,0:0:0:0:
240,156,103279,1,8,0:0:0:0:
256,172,103477,1,0,0:0:0:0:
288,144,103676,1,8,0:0:0:0:
288,144,103775,1,8,0:0:0:0:
288,144,103875,1,0,0:0:0:0:
288,144,103974,1,0,0:0:0:0:
288,144,104073,1,8,0:0:0:0:
288,144,104272,1,0,0:0:0:0:
376,180,104471,1,8,0:0:0:0:
376,180,104570,1,8,0:0:0:0:
376,180,104669,1,8,0:0:0:0:
376,180,104769,1,0,0:0:0:0:
376,180,104868,1,8,0:0:0:0:
376,180,104967,1,8,0:0:0:0:
376,180,105067,1,8,0:0:0:0:
376,180,105166,1,0,0:0:0:0:
376,180,105265,1,8,0:0:0:0:
376,180,105365,1,0,0:0:0:0:
376,180,105464,1,8,0:0:0:0:
376,180,105563,1,0,0:0:0:0:
376,180,105663,1,8,0:0:0:0:
276,52,105762,1,8,0:0:0:0:
280,56,105861,1,0,0:0:0:0:
332,100,105961,1,0,0:0:0:0:
332,100,106060,1,8,0:0:0:0:
468,192,107451,1,0,0:0:0:0:
468,192,107650,1,0,0:0:0:0:
408,120,108246,1,0,0:0:0:0:
400,120,108444,1,0,0:0:0:0:
220,148,108742,1,0,0:0:0:0:
272,156,109040,1,0,0:0:0:0:
364,228,109140,1,0,0:0:0:0:
364,228,109239,1,8,0:0:0:0:
420,188,110034,1,0,0:0:0:0:
348,176,110630,1,0,0:0:0:0:
348,176,110828,1,0,0:0:0:0:
348,176,111126,1,0,0:0:0:0:
248,48,111424,1,0,0:0:0:0:
248,48,111623,1,8,0:0:0:0:
464,168,111822,1,0,0:0:0:0:
464,168,112020,1,0,0:0:0:0:
388,256,112219,1,0,0:0:0:0:
388,256,112318,1,0,0:0:0:0:
388,256,112418,1,8,0:0:0:0:
348,160,112815,1,0,0:0:0:0:
256,160,113014,1,0,0:0:0:0:
256,160,113212,1,8,0:0:0:0:
332,104,113610,1,0,0:0:0:0:
388,112,114007,1,8,0:0:0:0:
420,176,114206,1,0,0:0:0:0:
420,176,114405,1,8,0:0:0:0:
360,188,114802,1,0,0:0:0:0:
360,188,115199,1,8,0:0:0:0:
284,164,115597,1,12,0:0:0:0:
412,140,115994,1,0,0:0:0:0:
416,144,116391,1,8,0:0:0:0:
440,204,116789,1,8,0:0:0:0:
336,152,116888,1,8,0:0:0:0:
336,152,116987,1,0,0:0:0:0:
336,152,117087,1,0,0:0:0:0:
336,152,117186,1,8,0:0:0:0:
272,192,117285,1,8,0:0:0:0:
280,200,117385,1,8,0:0:0:0:
280,200,117484,1,8,0:0:0:0:
320,120,117583,1,8,0:0:0:0:
320,120,117650,1,8,0:0:0:0:
320,120,117716,1,8,0:0:0:0:
320,120,117782,1,8,0:0:0:0:
320,120,117848,1,8,0:0:0:0:
320,120,117914,1,8,0:0:0:0:
320,120,117981,1,8,0:0:0:0:
320,120,118047,1,8,0:0:0:0:
320,120,118113,1,8,0:0:0:0:
320,120,118179,1,8,0:0:0:0:
320,120,118246,1,8,0:0:0:0:
320,120,118312,1,8,0:0:0:0:
320,120,118378,1,8,0:0:0:0:
404,184,118775,1,4,0:0:0:0:
348,260,119173,1,0,0:0:0:0:
348,260,119372,1,0,0:0:0:0:
348,260,119471,1,8,0:0:0:0:
348,260,119570,1,8,0:0:0:0:
316,140,119669,1,0,0:0:0:0:
348,260,119769,1,0,0:0:0:0:
384,160,119968,1,8,0:0:0:0:
384,160,120166,1,0,0:0:0:0:
172,152,120365,1,8,0:0:0:0:
220,156,120464,1,0,0:0:0:0:
220,156,120564,1,0,0:0:0:0:
220,156,120762,1,0,0:0:0:0:
220,156,120861,1,8,0:0:0:0:
220,156,120961,1,8,0:0:0:0:
356,120,121160,1,8,0:0:0:0:
356,120,121259,1,0,0:0:0:0:
356,120,121358,1,0,0:0:0:0:
356,120,121458,1,0,0:0:0:0:
356,120,121557,1,8,0:0:0:0:
472,148,121756,1,0,0:0:0:0:
472,148,121954,1,0,0:0:0:0:
360,160,122352,1,8,0:0:0:0:
400,244,122550,1,0,0:0:0:0:
400,244,122650,1,0,0:0:0:0:
464,244,122749,1,8,0:0:0:0:
320,64,122848,1,0,0:0:0:0:
360,160,123047,1,0,0:0:0:0:
312,124,123146,1,8,0:0:0:0:
268,156,123345,1,0,0:0:0:0:
268,192,123544,1,8,0:0:0:0:
268,192,123643,1,8,0:0:0:0:
268,192,123743,1,8,0:0:0:0:
268,192,123842,1,0,0:0:0:0:
268,192,123941,1,8,0:0:0:0:
268,192,124140,1,8,0:0:0:0:
276,96,124239,1,8,0:0:0:0:
268,192,124339,1,0,0:0:0:0:
268,192,124537,1,8,0:0:0:0:
392,192,124736,1,0,0:0:0:0:
408,116,124935,1,0,0:0:0:0:
408,116,125133,1,8,0:0:0:0:
408,116,125332,1,0,0:0:0:0:
408,116,125431,1,0,0:0:0:0:
408,116,125531,1,8,0:0:0:0:
340,132,125928,1,8,0:0:0:0:
344,136,126127,1,0,0:0:0:0:
344,136,126226,1,0,0:0:0:0:
344,136,126325,1,8,0:0:0:0:
344,76,126723,1,0,0:0:0:0:
344,76,126921,1,0,0:0:0:0:
400,176,127021,1,0,0:0:0:0:
344,76,127120,1,8,0:0:0:0:
344,76,127319,1,0,0:0:0:0:
304,164,127517,1,8,0:0:0:0:
304,168,127617,1,8,0:0:0:0:
304,168,127716,1,0,0:0:0:0:
304,168,127915,1,8,0:0:0:0:
304,168,128113,1,0,0:0:0:0:
304,168,128212,1,0,0:0:0:0:
392,200,128312,1,8,0:0:0:0:
400,120,128510,1,0,0:0:0:0:
232,200,128709,1,8,0:0:0:0:
232,200,129107,1,0,0:0:0:0:
452,264,129206,1,0,0:0:0:0:
344,204,129405,1,0,0:0:0:0:
344,204,129504,1,8,0:0:0:0:
424,152,129703,1,0,0:0:0:0:
340,144,129901,1,8,0:0:0:0:
304,192,130001,1,8,0:0:0:0:
340,144,130100,1,0,0:0:0:0:
340,144,130199,1,0,0:0:0:0:
340,144,130299,1,0,0:0:0:0:
304,192,130398,1,0,0:0:0:0:
340,144,130497,1,8,0:0:0:0:
380,160,130597,1,8,0:0:0:0:
240,164,130696,1,8,0:0:0:0:
384,164,130796,1,0,0:0:0:0:
240,164,130895,1,8,0:0:0:0:
384,164,130994,1,0,0:0:0:0:
240,164,131094,1,0,0:0:0:0:
384,164,131193,1,8,0:0:0:0:
240,164,131292,1,8,0:0:0:0:
384,164,131392,1,8,0:0:0:0:
240,164,131491,1,0,0:0:0:0:
340,124,131888,1,8,0:0:0:0:
340,124,132087,1,0,0:0:0:0:
340,124,132186,1,8,0:0:0:0:
372,68,132286,1,0,0:0:0:0:
504,164,132484,1,0,0:0:0:0:
504,164,132584,1,0,0:0:0:0:
504,164,132683,1,8,0:0:0:0:
488,200,132882,1,0,0:0:0:0:
488,200,133080,1,8,0:0:0:0:
348,136,133378,1,0,0:0:0:0:
348,136,133477,1,8,0:0:0:0:
248,136,133676,1,0,0:0:0:0:
348,136,133775,1,8,0:0:0:0:
248,136,133974,1,0,0:0:0:0:
200,104,134074,1,8,0:0:0:0:
380,152,134173,1,8,0:0:0:0:
200,104,134272,1,0,0:0:0:0:
328,248,134371,1,0,0:0:0:0:
304,164,134471,1,8,0:0:0:0:
304,248,134670,1,8,0:0:0:0:
248,184,134868,1,0,0:0:0:0:
432,280,134967,1,0,0:0:0:0:
248,184,135067,1,8,0:0:0:0:
248,184,135266,1,0,0:0:0:0:
320,160,135365,1,8,0:0:0:0:
248,88,135464,1,0,0:0:0:0:
320,160,135663,1,8,0:0:0:0:
392,112,135862,1,0,0:0:0:0:
320,160,135961,1,0,0:0:0:0:
392,112,136060,1,8,0:0:0:0:
392,112,136259,1,0,0:0:0:0:
288,184,136557,1,0,0:0:0:0:
288,184,136656,1,0,0:0:0:0:
288,184,136855,1,0,0:0:0:0:
288,184,136954,1,8,0:0:0:0:
328,88,137153,1,0,0:0:0:0:
228,80,137252,1,8,0:0:0:0:
288,184,137352,1,8,0:0:0:0:
348,192,137451,1,0,0:0:0:0:
348,192,137650,1,8,0:0:0:0:
348,192,137848,1,0,0:0:0:0:
332,140,137948,1,0,0:0:0:0:
332,140,138047,1,0,0:0:0:0:
332,140,138246,1,8,0:0:0:0:
332,140,138444,1,0,0:0:0:0:
348,192,138544,1,0,0:0:0:0:
332,140,138643,1,8,0:0:0:0:
364,256,138842,1,0,0:0:0:0:
484,120,139040,1,8,0:0:0:0:
484,120,139239,1,0,0:0:0:0:
340,88,139438,1,8,0:0:0:0:
376,164,139835,1,8,0:0:0:0:
376,164,140034,1,0,0:0:0:0:
376,164,140133,1,8,0:0:0:0:
376,164,140332,1,0,0:0:0:0:
364,240,140431,1,0,0:0:0:0:
364,240,140530,1,0,0:0:0:0:
364,240,140630,1,8,0:0:0:0:
364,240,140828,1,0,0:0:0:0:
256,112,141027,1,8,0:0:0:0:
256,112,141126,1,8,0:0:0:0:
256,112,141226,1,0,0:0:0:0:
240,68,141425,1,8,0:0:0:0:
348,84,141623,1,0,0:0:0:0:
240,152,141723,1,0,0:0:0:0:
240,152,141822,1,8,0:0:0:0:
256,112,141921,1,0,0:0:0:0:
348,84,142021,1,8,0:0:0:0:
348,84,142219,1,0,0:0:0:0:
376,168,142418,1,0,0:0:0:0:
376,168,142517,1,0,0:0:0:0:
376,168,142617,1,8,0:0:0:0:
376,168,142815,1,0,0:0:0:0:
312,168,143014,1,8,0:0:0:0:
368,200,143113,1,8,0:0:0:0:
368,200,143213,1,0,0:0:0:0:
280,140,143411,1,8,0:0:0:0:
404,216,143510,1,0,0:0:0:0:
340,176,143610,1,8,0:0:0:0:
252,104,143709,1,0,0:0:0:0:
376,184,143809,1,0,0:0:0:0:
276,104,144007,1,8,0:0:0:0:
204,168,144206,1,8,0:0:0:0:
204,168,144305,1,0,0:0:0:0:
204,168,144405,1,8,0:0:0:0:
204,168,144504,1,0,0:0:0:0:
204,168,144603,1,8,0:0:0:0:
204,168,144703,1,8,0:0:0:0:
204,168,144802,1,8,0:0:0:0:
204,168,144901,1,8,0:0:0:0:
204,168,145001,1,0,0:0:0:0:
324,156,145100,1,8,0:0:0:0:
324,156,145199,1,8,0:0:0:0:
324,156,145299,1,8,0:0:0:0:
324,156,145398,1,0,0:0:0:0:
324,156,145464,1,8,0:0:0:0:
324,156,145531,1,8,0:0:0:0:
392,140,145597,1,8,0:0:0:0:
332,184,145663,1,8,0:0:0:0:
332,184,145729,1,8,0:0:0:0:
304,100,145795,1,0,0:0:0:0:
428,196,146094,1,0,0:0:0:0:
348,136,146193,1,8,0:0:0:0:
348,136,146392,1,0,0:0:0:0:
348,136,146491,1,8,0:0:0:0:
248,136,146690,1,0,0:0:0:0:
200,104,146790,1,8,0:0:0:0:
200,104,146888,1,0,0:0:0:0:
248,136,146987,1,8,0:0:0:0:
304,164,147187,1,8,0:0:0:0:
248,184,147386,1,8,0:0:0:0:
288,88,147484,1,0,0:0:0:0:
288,88,147584,1,8,0:0:0:0:
248,184,147783,1,0,0:0:0:0:
248,184,147982,1,8,0:0:0:0:
320,160,148081,1,0,0:0:0:0:
248,88,148279,1,0,0:0:0:0:
320,160,148379,1,8,0:0:0:0:
320,160,148478,1,0,0:0:0:0:
392,112,148578,1,0,0:0:0:0:
392,112,148776,1,8,0:0:0:0:
392,112,148975,1,0,0:0:0:0:
288,184,149273,1,0,0:0:0:0:
288,184,149372,1,8,0:0:0:0:
288,184,149571,1,0,0:0:0:0:
288,184,149670,1,8,0:0:0:0:
328,88,149869,1,8,0:0:0:0:
228,80,149968,1,0,0:0:0:0:
288,184,150068,1,0,0:0:0:0:
348,192,150167,1,8,0:0:0:0:
348,192,150366,1,8,0:0:0:0:
348,192,150564,1,0,0:0:0:0:
332,140,150664,1,0,0:0:0:0:
332,140,150763,1,0,0:0:0:0:
332,140,150962,1,0,0:0:0:0:
332,140,151160,1,0,0:0:0:0:
348,192,151260,1,8,0:0:0:0:
332,140,151359,1,8,0:0:0:0:
484,120,151558,1,0,0:0:0:0:
484,120,151756,1,8,0:0:0:0:
484,120,151955,1,0,0:0:0:0:
340,88,152154,1,8,0:0:0:0:
376,164,152551,1,8,0:0:0:0:
376,164,152750,1,0,0:0:0:0:
376,164,152849,1,8,0:0:0:0:
376,164,153048,1,0,0:0:0:0:
364,240,153147,1,0,0:0:0:0:
364,240,153246,1,8,0:0:0:0:
364,240,153346,1,8,0:0:0:0:
364,240,153544,1,0,0:0:0:0:
256,112,153743,1,8,0:0:0:0:
256,112,153842,1,0,0:0:0:0:
256,112,153942,1,8,0:0:0:0:
240,152,154040,1,0,0:0:0:0:
240,68,154141,1,0,0:0:0:0:
348,84,154339,1,0,0:0:0:0:
240,152,154538,1,8,0:0:0:0:
348,84,154636,1,8,0:0:0:0:
256,112,154736,1,0,0:0:0:0:
348,84,154935,1,0,0:0:0:0:
376,168,155134,1,0,0:0:0:0:
376,168,155233,1,0,0:0:0:0:
376,168,155333,1,8,0:0:0:0:
376,168,155531,1,0,0:0:0:0:
312,168,155730,1,12,0:0:0:0:
280,140,156127,1,8,0:0:0:0:
340,176,156326,1,8,0:0:0:0:
252,104,156425,1,0,0:0:0:0:
340,176,156525,1,0,0:0:0:0:
276,104,156723,1,8,0:0:0:0:
204,168,156922,1,8,0:0:0:0:
204,168,157021,1,0,0:0:0:0:
204,168,157121,1,8,0:0:0:0:
204,168,157220,1,0,0:0:0:0:
204,168,157319,1,8,0:0:0:0:
204,168,157419,1,8,0:0:0:0:
204,168,157518,1,0,0:0:0:0:
204,168,157617,1,0,0:0:0:0:
204,168,157717,1,0,0:0:0:0:
324,156,157816,1,0,0:0:0:0:
324,156,157915,1,8,0:0:0:0:
324,156,158015,1,8,0:0:0:0:
324,156,158114,1,0,0:0:0:0:
324,156,158213,1,0,0:0:0:0:
324,156,158313,1,8,0:0:0:0:
304,100,158511,1,4,0:0:0:0:
380,204,159107,1,0,0:0:0:0:
380,204,159306,1,4,0:0:0:0:
328,92,159604,1,4,0:0:0:0:
328,92,159902,1,4,0:0:0:0:
248,108,160101,1,8,0:0:0:0:
308,192,160200,1,0,0:0:0:0:
308,192,160299,1,0,0:0:0:0:
308,192,160399,1,0,0:0:0:0:
308,192,160498,1,8,0:0:0:0:
200,200,160597,1,8,0:0:0:0:
200,200,160697,1,0,0:0:0:0:
200,200,160796,1,0,0:0:0:0:
416,192,160895,1,8,0:0:0:0:
416,192,160961,1,8,0:0:0:0:
468,172,161027,1,8,0:0:0:0:
468,172,161093,1,8,0:0:0:0:
468,172,161159,1,8,0:0:0:0:
416,192,161226,1,8,0:0:0:0:
272,236,161293,1,0,0:0:0:0:
428,88,161689,1,0,0:0:0:0:
424,280,161887,1,0,0:0:0:0:
424,280,162086,1,8,0:0:0:0:
308,184,162384,1,0,0:0:0:0:
308,184,162483,1,8,0:0:0:0:
308,184,162682,1,0,0:0:0:0:
308,184,162881,1,8,0:0:0:0:
308,184,162981,1,8,0:0:0:0:
236,136,163079,1,0,0:0:0:0:
468,168,163278,1,8,0:0:0:0:
468,168,163477,1,0,0:0:0:0:
468,168,163675,1,8,0:0:0:0:
360,156,163973,1,0,0:0:0:0:
360,156,164073,1,8,0:0:0:0:
360,156,164172,1,8,0:0:0:0:
360,156,164271,1,0,0:0:0:0:
360,156,164470,1,8,0:0:0:0:
324,264,164669,1,0,0:0:0:0:
308,244,164867,1,8,0:0:0:0:
308,244,164967,1,0,0:0:0:0:
240,156,165066,1,0,0:0:0:0:
308,244,165165,1,8,0:0:0:0:
240,156,165265,1,8,0:0:0:0:
256,172,165463,1,0,0:0:0:0:
288,144,165662,1,8,0:0:0:0:
288,144,165761,1,8,0:0:0:0:
288,144,165861,1,8,0:0:0:0:
288,144,165960,1,0,0:0:0:0:
288,144,166059,1,8,0:0:0:0:
288,144,166258,1,0,0:0:0:0:
376,180,166457,1,8,0:0:0:0:
376,180,166556,1,8,0:0:0:0:
376,180,166655,1,0,0:0:0:0:
376,180,166755,1,0,0:0:0:0:
376,180,166854,1,8,0:0:0:0:
376,180,166953,1,8,0:0:0:0:
376,180,167053,1,0,0:0:0:0:
376,180,167152,1,0,0:0:0:0:
376,180,167251,1,8,0:0:0:0:
376,180,167351,1,0,0:0:0:0:
376,180,167450,1,8,0:0:0:0:
376,180,167549,1,0,0:0:0:0:
376,180,167649,1,8,0:0:0:0:
276,52,167748,1,8,0:0:0:0:
280,56,167847,1,0,0:0:0:0:
332,100,167947,1,0,0:0:0:0:
332,100,168046,1,8,0:0:0:0:
356,128,168146,1,8,0:0:0:0:
356,128,168246,1,8,0:0:0:0:
356,128,168345,1,8,0:0:0:0:
356,128,168444,1,8,0:0:0:0:
356,128,168544,1,8,0:0:0:0:
356,128,168643,1,8,0:0:0:0:
356,128,168742,1,8,0:0:0:0:
356,128,168842,1,8,0:0:0:0:
456,200,168908,1,8,0:0:0:0:
456,200,168974,1,8,0:0:0:0:
456,200,169040,1,8,0:0:0:0:
456,200,169107,1,8,0:0:0:0:
456,200,169173,1,8,0:0:0:0:
456,200,169239,1,8,0:0:0:0:
456,200,169305,1,8,0:0:0:0:
456,200,169371,1,8,0:0:0:0:
456,200,169438,1,8,0:0:0:0:
456,200,169504,1,8,0:0:0:0:
456,200,169570,1,8,0:0:0:0:
456,200,169636,1,0,0:0:0:0:
380,128,169835,1,8,0:0:0:0:
380,128,170034,1,8,0:0:0:0:
332,108,170232,1,0,0:0:0:0:
344,120,170332,1,8,0:0:0:0:
308,208,170431,1,8,0:0:0:0:
308,208,170530,1,0,0:0:0:0:
368,156,170630,1,8,0:0:0:0:
396,176,170828,1,0,0:0:0:0:
396,176,170928,1,8,0:0:0:0:
264,260,171126,1,0,0:0:0:0:
264,260,171226,1,8,0:0:0:0:
384,236,171325,1,8,0:0:0:0:
264,260,171424,1,0,0:0:0:0:
384,236,171524,1,0,0:0:0:0:
384,236,171623,1,8,0:0:0:0:
324,100,171822,1,8,0:0:0:0:
324,100,171921,1,0,0:0:0:0:
324,100,172020,1,0,0:0:0:0:
324,100,172219,1,8,0:0:0:0:
424,116,172418,1,0,0:0:0:0:
424,116,172616,1,8,0:0:0:0:
424,116,172815,1,0,0:0:0:0:
244,236,172914,1,0,0:0:0:0:
244,236,173014,1,0,0:0:0:0:
244,236,173113,1,0,0:0:0:0:
244,236,173212,1,8,0:0:0:0:
244,236,173411,1,0,0:0:0:0:
296,152,173610,1,8,0:0:0:0:
296,152,173709,1,8,0:0:0:0:
296,152,173809,1,0,0:0:0:0:
296,152,173908,1,0,0:0:0:0:
296,152,174007,1,8,0:0:0:0:
296,152,174206,1,0,0:0:0:0:
356,192,174405,1,8,0:0:0:0:
304,208,174703,1,0,0:0:0:0:
304,208,174802,1,0,0:0:0:0:
304,208,175001,1,0,0:0:0:0:
340,116,175199,1,0,0:0:0:0:
340,116,175398,1,0,0:0:0:0:
340,116,175597,1,8,0:0:0:0:
416,92,175994,1,0,0:0:0:0:
316,204,176193,1,8,0:0:0:0:
316,204,176292,1,0,0:0:0:0:
236,40,176391,1,8,0:0:0:0:
488,176,176590,1,8,0:0:0:0:
280,216,176789,1,0,0:0:0:0:
296,248,176888,1,0,0:0:0:0:
296,248,177087,1,0,0:0:0:0:
296,248,177186,1,8,0:0:0:0:
296,248,177385,1,0,0:0:0:0:
168,168,177583,1,0,0:0:0:0:
168,168,177683,1,0,0:0:0:0:
168,168,177782,1,8,0:0:0:0:
168,168,177881,1,0,0:0:0:0:
168,168,177981,1,8,0:0:0:0:
168,168,178179,1,0,0:0:0:0:
344,136,178378,1,0,0:0:0:0:
344,136,178477,1,0,0:0:0:0:
344,136,178577,1,0,0:0:0:0:
344,136,178676,1,0,0:0:0:0:
344,136,178775,1,8,0:0:0:0:
344,136,178974,1,0,0:0:0:0:
320,192,179173,1,8,0:0:0:0:
320,192,179272,1,8,0:0:0:0:
320,192,179371,1,0,0:0:0:0:
320,192,179570,1,8,0:0:0:0:
256,148,179769,1,8,0:0:0:0:
256,148,179868,1,8,0:0:0:0:
256,148,179967,1,0,0:0:0:0:
256,148,180166,1,0,0:0:0:0:
264,216,180365,1,0,0:0:0:0:
264,216,180563,1,8,0:0:0:0:
328,140,180762,1,8,0:0:0:0:
328,140,180861,1,8,0:0:0:0:
328,140,180961,1,0,0:0:0:0:
328,140,181060,1,8,0:0:0:0:
328,140,181159,1,0,0:0:0:0:
328,140,181358,1,8,0:0:0:0:
304,212,181557,1,0,0:0:0:0:
328,216,181656,1,0,0:0:0:0:
328,216,181756,1,0,0:0:0:0:
328,216,181855,1,0,0:0:0:0:
328,216,181954,1,8,0:0:0:0:
328,216,182153,1,0,0:0:0:0:
440,160,182352,1,0,0:0:0:0:
384,264,182451,1,0,0:0:0:0:
440,160,182650,1,0,0:0:0:0:
384,264,182749,1,8,0:0:0:0:
440,160,182948,1,0,0:0:0:0:
340,96,183146,1,8,0:0:0:0:
344,176,183246,1,0,0:0:0:0:
340,96,183444,1,0,0:0:0:0:
344,176,183544,1,8,0:0:0:0:
340,96,183742,1,0,0:0:0:0:
340,96,183941,1,8,0:0:0:0:
232,144,184040,1,8,0:0:0:0:
232,144,184140,1,0,0:0:0:0:
232,144,184239,1,0,0:0:0:0:
232,144,184338,1,8,0:0:0:0:
232,144,184438,1,0,0:0:0:0:
232,144,184537,1,0,0:0:0:0:
232,144,184636,1,0,0:0:0:0:
232,144,184736,1,8,0:0:0:0:
276,164,184835,1,8,0:0:0:0:
276,164,184934,1,8,0:0:0:0:
276,164,185034,1,8,0:0:0:0:
224,228,185133,1,8,0:0:0:0:
224,228,185199,1,8,0:0:0:0:
224,228,185265,1,8,0:0:0:0:
224,228,185332,1,8,0:0:0:0:
224,228,185398,1,8,0:0:0:0:
224,228,185464,1,8,0:0:0:0:
224,228,185530,1,0,0:0:0:0:
348,200,188709,1,0,0:0:0:0:
344,224,190299,1,0,0:0:0:0:
400,156,191888,1,0,0:0:0:0:
232,148,192683,1,8,0:0:0:0:
304,192,193477,1,0,0:0:0:0:
416,192,193875,1,0,0:0:0:0:
416,192,194272,1,0,0:0:0:0:
416,192,194669,1,0,0:0:0:0:
376,120,195067,1,8,0:0:0:0:
288,148,195365,1,0,0:0:0:0:
244,168,195464,1,8,0:0:0:0:
332,172,195663,1,0,0:0:0:0:
332,172,195861,1,8,0:0:0:0:
392,184,196060,1,0,0:0:0:0:
392,184,196259,1,8,0:0:0:0:
392,184,196458,1,0,0:0:0:0:
304,188,196656,1,8,0:0:0:0:
304,188,196756,1,8,0:0:0:0:
304,188,196855,1,0,0:0:0:0:
304,188,197054,1,8,0:0:0:0:
392,120,197252,1,0,0:0:0:0:
392,120,197451,1,8,0:0:0:0:
388,152,197650,1,8,0:0:0:0:
388,152,197848,1,8,0:0:0:0:
392,144,198047,1,0,0:0:0:0:
388,152,198146,1,0,0:0:0:0:
388,152,198246,1,8,0:0:0:0:
456,48,198643,1,0,0:0:0:0:
240,224,198842,1,0,0:0:0:0:
264,148,199040,1,8,0:0:0:0:
364,264,199239,1,0,0:0:0:0:
344,176,199438,1,8,0:0:0:0:
344,176,199537,1,8,0:0:0:0:
344,176,199636,1,0,0:0:0:0:
344,176,199835,1,8,0:0:0:0:
408,152,199934,1,0,0:0:0:0:
408,152,200034,1,0,0:0:0:0:
336,56,200232,1,8,0:0:0:0:
336,56,200332,1,8,0:0:0:0:
336,56,200431,1,0,0:0:0:0:
336,56,200630,1,8,0:0:0:0:
336,56,200729,1,0,0:0:0:0:
336,56,200828,1,0,0:0:0:0:
336,56,201027,1,0,0:0:0:0:
408,208,201226,1,8,0:0:0:0:
272,136,201424,1,8,0:0:0:0:
272,136,201524,1,8,0:0:0:0:
272,136,201623,1,0,0:0:0:0:
272,136,201722,1,0,0:0:0:0:
272,136,201822,1,0,0:0:0:0:
272,136,201921,1,8,0:0:0:0:
272,136,202020,1,8,0:0:0:0:
272,136,202120,1,0,0:0:0:0:
272,136,202219,1,8,0:0:0:0:
272,136,202318,1,8,0:0:0:0:
272,136,202418,1,8,0:0:0:0:
272,136,202517,1,8,0:0:0:0:
272,136,202616,1,0,0:0:0:0:
416,140,203014,1,0,0:0:0:0:
348,136,203312,1,0,0:0:0:0:
348,136,203411,1,8,0:0:0:0:
248,136,203610,1,0,0:0:0:0:
348,136,203709,1,8,0:0:0:0:
248,136,203908,1,0,0:0:0:0:
200,104,204008,1,8,0:0:0:0:
380,152,204107,1,8,0:0:0:0:
200,104,204206,1,0,0:0:0:0:
304,164,204405,1,8,0:0:0:0:
304,248,204604,1,8,0:0:0:0:
432,280,204703,1,8,0:0:0:0:
248,184,204802,1,0,0:0:0:0:
248,184,205001,1,8,0:0:0:0:
320,160,205100,1,8,0:0:0:0:
248,184,205299,1,8,0:0:0:0:
248,88,205398,1,0,0:0:0:0:
320,160,205597,1,8,0:0:0:0:
392,112,205796,1,0,0:0:0:0:
320,160,205895,1,0,0:0:0:0:
392,112,205994,1,8,0:0:0:0:
392,112,206193,1,0,0:0:0:0:
288,184,206491,1,0,0:0:0:0:
288,184,206590,1,0,0:0:0:0:
288,184,206789,1,0,0:0:0:0:
288,184,206888,1,8,0:0:0:0:
328,88,207087,1,0,0:0:0:0:
228,80,207186,1,8,0:0:0:0:
288,184,207286,1,0,0:0:0:0:
348,192,207385,1,0,0:0:0:0:
348,192,207584,1,8,0:0:0:0:
348,192,207782,1,0,0:0:0:0:
332,140,207882,1,0,0:0:0:0:
332,140,207981,1,0,0:0:0:0:
332,140,208180,1,8,0:0:0:0:
332,140,208378,1,0,0:0:0:0:
348,192,208478,1,0,0:0:0:0:
332,140,208577,1,8,0:0:0:0:
484,120,208776,1,0,0:0:0:0:
484,120,208974,1,8,0:0:0:0:
484,120,209173,1,0,0:0:0:0:
340,88,209372,1,8,0:0:0:0:
376,164,209769,1,8,0:0:0:0:
376,164,209968,1,0,0:0:0:0:
376,164,210067,1,8,0:0:0:0:
376,164,210266,1,0,0:0:0:0:
364,240,210365,1,0,0:0:0:0:
364,240,210464,1,0,0:0:0:0:
364,240,210564,1,8,0:0:0:0:
364,240,210762,1,0,0:0:0:0:
256,112,210961,1,8,0:0:0:0:
256,112,211060,1,8,0:0:0:0:
256,112,211160,1,0,0:0:0:0:
240,68,211359,1,8,0:0:0:0:
348,84,211557,1,0,0:0:0:0:
240,152,211657,1,0,0:0:0:0:
240,152,211756,1,8,0:0:0:0:
256,112,211855,1,0,0:0:0:0:
348,84,211955,1,8,0:0:0:0:
348,84,212153,1,0,0:0:0:0:
376,168,212352,1,0,0:0:0:0:
376,168,212451,1,0,0:0:0:0:
376,168,212551,1,8,0:0:0:0:
376,168,212749,1,0,0:0:0:0:
312,168,212948,1,8,0:0:0:0:
368,200,213047,1,8,0:0:0:0:
368,200,213147,1,0,0:0:0:0:
280,140,213345,1,8,0:0:0:0:
340,176,213544,1,8,0:0:0:0:
252,104,213643,1,0,0:0:0:0:
376,184,213743,1,0,0:0:0:0:
276,104,213941,1,8,0:0:0:0:
204,168,214140,1,8,0:0:0:0:
204,168,214239,1,0,0:0:0:0:
204,168,214339,1,8,0:0:0:0:
204,168,214438,1,0,0:0:0:0:
204,168,214537,1,8,0:0:0:0:
204,168,214637,1,8,0:0:0:0:
204,168,214736,1,0,0:0:0:0:
204,168,214835,1,0,0:0:0:0:
204,168,214935,1,0,0:0:0:0:
324,156,215034,1,8,0:0:0:0:
324,156,215133,1,8,0:0:0:0:
324,156,215233,1,8,0:0:0:0:
324,156,215332,1,0,0:0:0:0:
324,156,215398,1,8,0:0:0:0:
324,156,215465,1,8,0:0:0:0:
392,140,215531,1,8,0:0:0:0:
332,184,215597,1,8,0:0:0:0:
332,184,215663,1,8,0:0:0:0:
304,100,215729,1,0,0:0:0:0:
428,196,216028,1,0,0:0:0:0:
348,136,216127,1,8,0:0:0:0:
348,136,216326,1,0,0:0:0:0:
348,136,216425,1,8,0:0:0:0:
248,136,216624,1,0,0:0:0:0:
200,104,216724,1,8,0:0:0:0:
248,136,216822,1,8,0:0:0:0:
200,104,216922,1,0,0:0:0:0:
304,164,217121,1,8,0:0:0:0:
248,184,217320,1,8,0:0:0:0:
288,88,217418,1,0,0:0:0:0:
288,88,217518,1,8,0:0:0:0:
248,184,217717,1,0,0:0:0:0:
248,184,217916,1,8,0:0:0:0:
320,160,218015,1,0,0:0:0:0:
248,88,218213,1,0,0:0:0:0:
320,160,218313,1,8,0:0:0:0:
320,160,218412,1,0,0:0:0:0:
392,112,218512,1,0,0:0:0:0:
392,112,218710,1,8,0:0:0:0:
392,112,218909,1,0,0:0:0:0:
288,184,219207,1,0,0:0:0:0:
288,184,219306,1,8,0:0:0:0:
288,184,219505,1,0,0:0:0:0:
288,184,219604,1,8,0:0:0:0:
328,88,219803,1,8,0:0:0:0:
228,80,219902,1,0,0:0:0:0:
288,184,220002,1,0,0:0:0:0:
348,192,220101,1,8,0:0:0:0:
348,192,220300,1,8,0:0:0:0:
348,192,220498,1,0,0:0:0:0:
332,140,220598,1,0,0:0:0:0:
332,140,220697,1,0,0:0:0:0:
332,140,220896,1,0,0:0:0:0:
332,140,221094,1,0,0:0:0:0:
348,192,221194,1,8,0:0:0:0:
332,140,221293,1,8,0:0:0:0:
484,120,221492,1,0,0:0:0:0:
484,120,221690,1,8,0:0:0:0:
484,120,221889,1,0,0:0:0:0:
340,88,222088,1,8,0:0:0:0:
376,164,222485,1,8,0:0:0:0:
376,164,222684,1,0,0:0:0:0:
376,164,222783,1,8,0:0:0:0:
376,164,222982,1,0,0:0:0:0:
364,240,223081,1,0,0:0:0:0:
364,240,223180,1,0,0:0:0:0:
364,240,223280,1,8,0:0:0:0:
364,240,223478,1,0,0:0:0:0:
256,112,223677,1,8,0:0:0:0:
256,112,223776,1,0,0:0:0:0:
256,112,223876,1,8,0:0:0:0:
240,68,224075,1,0,0:0:0:0:
348,84,224273,1,0,0:0:0:0:
240,152,224373,1,0,0:0:0:0:
240,152,224472,1,8,0:0:0:0:
256,112,224670,1,0,0:0:0:0:
348,84,224770,1,8,0:0:0:0:
348,84,224869,1,0,0:0:0:0:
376,168,225068,1,0,0:0:0:0:
376,168,225167,1,0,0:0:0:0:
376,168,225267,1,8,0:0:0:0:
376,168,225465,1,0,0:0:0:0:
312,168,225664,1,12,0:0:0:0:
280,140,226061,1,8,0:0:0:0:
340,176,226260,1,8,0:0:0:0:
252,104,226359,1,0,0:0:0:0:
340,176,226459,1,0,0:0:0:0:
276,104,226657,1,8,0:0:0:0:
204,168,226856,1,8,0:0:0:0:
204,168,226955,1,0,0:0:0:0:
204,168,227055,1,8,0:0:0:0:
204,168,227154,1,0,0:0:0:0:
204,168,227253,1,8,0:0:0:0:
204,168,227353,1,8,0:0:0:0:
204,168,227452,1,0,0:0:0:0:
204,168,227551,1,0,0:0:0:0:
204,168,227651,1,0,0:0:0:0:
324,156,227750,1,0,0:0:0:0:
324,156,227849,1,8,0:0:0:0:
324,156,227949,1,8,0:0:0:0:
324,156,228048,1,0,0:0:0:0:
324,156,228147,1,0,0:0:0:0:
324,156,228247,1,8,0:0:0:0:
304,100,228445,1,4,0:0:0:0:
468,180,228842,1,12,0:0:0:0:
368,144,229239,1,8,0:0:0:0:
368,144,229338,1,0,0:0:0:0:
332,208,229537,1,0,0:0:0:0:
332,208,229636,1,8,0:0:0:0:
332,208,229835,1,0,0:0:0:0:
344,280,230034,1,8,0:0:0:0:
288,164,230133,1,0,0:0:0:0:
288,164,230232,1,0,0:0:0:0:
288,164,230332,1,0,0:0:0:0:
288,164,230431,1,8,0:0:0:0:
380,112,230530,1,0,0:0:0:0:
380,112,230630,1,8,0:0:0:0:
380,112,230729,1,0,0:0:0:0:
380,112,230828,1,8,0:0:0:0:
380,112,230928,1,8,0:0:0:0:
380,112,231027,1,8,0:0:0:0:
380,112,231126,1,8,0:0:0:0:
380,112,231226,1,0,0:0:0:0:
392,236,231325,1,8,0:0:0:0:
392,236,231424,1,0,0:0:0:0:
352,132,231623,1,4,0:0:0:0:
376,176,232219,1,8,0:0:0:0:
456,136,232418,1,12,0:0:0:0:
456,136,232716,1,4,0:0:0:0:
456,136,233014,1,12,0:0:0:0:
284,144,233212,1,8,0:0:0:0:
284,144,233312,1,8,0:0:0:0:
284,144,233411,1,0,0:0:0:0:
284,144,233510,1,0,0:0:0:0:
284,144,233610,1,0,0:0:0:0:
284,144,233709,1,0,0:0:0:0:
284,144,233809,1,8,0:0:0:0:
284,144,233908,1,8,0:0:0:0:
284,184,234007,1,0,0:0:0:0:
284,184,234107,1,0,0:0:0:0:
284,184,234206,1,8,0:0:0:0:
284,184,234305,1,8,0:0:0:0:
284,184,234405,1,0,0:0:0:0:
284,184,234504,1,0,0:0:0:0:
284,184,234603,1,0,0:0:0:0:
284,184,234703,1,0,0:0:0:0:
284,184,234802,1,8,0:0:0:0:
336,80,234901,1,8,0:0:0:0:
336,80,235001,1,8,0:0:0:0:
336,80,235100,1,8,0:0:0:0:
336,80,235199,1,8,0:0:0:0:
336,80,235299,1,8,0:0:0:0:
336,80,235398,1,8,0:0:0:0:
336,80,235497,1,8,0:0:0:0:
336,80,235597,1,8,0:0:0:0:
336,80,235696,1,8,0:0:0:0:
336,80,235795,1,8,0:0:0:0:
336,80,235895,1,8,0:0:0:0:
336,80,235994,1,8,0:0:0:0:
460,136,236060,1,8,0:0:0:0:
460,136,236126,1,8,0:0:0:0:
460,136,236193,1,8,0:0:0:0:
460,136,236259,1,8,0:0:0:0:
460,136,236325,1,8,0:0:0:0:
460,136,236391,1,0,0:0:0:0:
