osu file format v13

[General]
AudioFilename: Dispel.mp3
AudioLeadIn: 0
PreviewTime: 124103
Countdown: 0
SampleSet: Normal
StackLeniency: 0.7
Mode: 0
LetterboxInBreaks: 1
WidescreenStoryboard: 0

[Editor]
DistanceSpacing: 1.5
BeatDivisor: 4
GridSize: 4
TimelineZoom: 1

[Metadata]
Title:Dispel
TitleUnicode:Dispel
Artist:Nakamura Meiko
ArtistUnicode:仲村芽衣子
Creator:reyder
Version:Insane
Source:
Tags:Levitation pkmnyab
BeatmapID:387027
BeatmapSetID:141522

[Difficulty]
HPDrainRate:8
CircleSize:4
OverallDifficulty:8
ApproachRate:9
SliderMultiplier:2
SliderTickRate:1

[Events]
//Background and Video events
0,0,"Dispel Background.jpg",0,0
//Break Periods
2,84253,93203
2,145903,154703
2,167303,175103
//Storyboard Layer 0 (Background)
//Storyboard Layer 1 (Fail)
//Storyboard Layer 2 (Pass)
//Storyboard Layer 3 (Foreground)
//Storyboard Sound Samples
//Background Colour Transformations
3,100,163,162,255

[TimingPoints]
20903,300,4,1,0,70,1,0
20903,-100,4,2,0,70,0,0
40103,-200,4,2,0,70,0,0
49703,-100,4,2,0,70,0,0
60503,-100,4,1,0,45,0,1
81953,-100,4,1,0,45,0,0
94103,-100,4,2,0,70,0,0
104003,-200,4,2,0,70,0,0
104103,-200,4,2,0,70,0,0
113303,-100,4,2,0,70,0,0
123503,-100,4,1,0,45,0,0
124103,-100,4,1,0,45,0,1
133103,-200,4,1,0,45,0,1
133703,-100,4,1,0,45,0,1
145403,-200,4,1,0,45,0,1
145703,-200,4,2,0,70,0,0
155903,-200,4,1,0,70,0,0
156203,-200,4,2,0,70,0,0
157103,-200,4,1,0,70,0,0
157703,-200,4,2,0,70,0,0
158303,-200,4,1,0,70,0,0
158603,-200,4,2,0,70,0,0
159503,-200,4,1,0,70,0,0
160103,-200,4,2,0,70,0,0
161003,-200,4,1,0,70,0,0
161603,-200,4,2,0,70,0,0
163403,-200,4,1,0,70,0,0
176903,-100,4,1,0,45,0,1
185303,-200,4,1,0,45,0,1
186503,-100,4,1,0,45,0,1
188903,-100,4,1,0,45,0,0

[Colours]
Combo1 : 128,64,64
Combo2 : 128,0,0
Combo3 : 74,0,0
Combo4 : 230,0,0

[HitObjects]
456,32,20903,6,0,B|456:96|456:96|400:136,1,100
392,192,21203,1,8,0:0:0:0:
426,267,21353,2,0,B|456:288|456:288|456:352,2,100
336,264,21803,1,8,0:0:0:0:
248,280,21953,6,0,P|184:264|152:216,1,100
152,160,22253,1,0,0:0:0:0:
152,80,22403,1,8,0:0:0:0:
240,40,22553,2,0,P|288:56|328:128,1,100
320,168,22853,2,0,P|272:152|232:80,1,100
80,64,23153,5,0,0:0:0:0:
40,152,23303,1,0,0:0:0:0:
88,240,23453,1,0,0:0:0:0:
160,304,23603,2,0,P|240:296|288:256,1,100,8|0,0:0|0:0,0:0:0:0:
336,224,23903,1,0,0:0:0:0:
248,168,24053,1,0,0:0:0:0:
168,96,24203,2,0,P|214:77|263:79,1,100,8|0,0:0|0:0,0:0:0:0:
368,48,24503,5,0,0:0:0:0:
368,48,24653,1,0,0:0:0:0:
352,128,24803,2,0,P|320:168|256:184,1,100
200,160,25103,2,0,P|232:120|296:104,1,100
384,240,25403,2,0,P|360:288|296:312,1,100
208,288,25703,5,0,0:0:0:0:
96,256,25853,2,0,P|64:200|72:144,1,100,0|8,0:0|0:0,0:0:0:0:
128,96,26153,1,0,0:0:0:0:
216,48,26303,1,0,0:0:0:0:
312,48,26453,1,0,0:0:0:0:
392,104,26603,1,8,0:0:0:0:
447,166,26753,2,0,P|444:215|416:256,1,100,0|8,0:0|0:0,0:0:0:0:
344,176,27053,1,0,0:0:0:0:
296,256,27203,1,8,0:0:0:0:
192,288,27353,2,0,P|112:272|88:240,1,100
72,72,27653,2,0,P|152:88|176:120,1,100,0|8,0:0|0:0,0:0:0:0:
144,176,27953,5,0,0:0:0:0:
232,224,28103,1,0,0:0:0:0:
240,128,28253,5,0,0:0:0:0:
320,64,28403,2,0,P|384:48|456:56,1,100,8|0,0:0|0:0,0:0:0:0:
448,144,28703,1,0,0:0:0:0:
432,240,28853,1,0,0:0:0:0:
360,312,29003,1,8,0:0:0:0:
256,312,29153,6,0,P|184:296|144:256,1,100
40,96,29453,2,0,P|112:112|152:152,1,100,0|8,0:0|0:0,0:0:0:0:
256,64,29753,1,0,0:0:0:0:
472,96,29903,2,0,P|400:112|360:152,1,100,0|8,0:0|0:0,0:0:0:0:
360,200,30203,2,0,P|432:184|472:144,2,100
256,192,30653,5,0,0:0:0:0:
256,304,30803,2,0,P|200:328|136:288,1,100,8|0,0:0|0:0,0:0:0:0:
256,304,31103,2,0,P|312:328|376:288,1,100
456,280,31403,1,8,0:0:0:0:
456,192,31553,1,0,0:0:0:0:
384,240,31703,1,0,0:0:0:0:
384,152,31853,1,0,0:0:0:0:
320,96,32003,2,0,P|280:64|208:72,1,100
168,104,32303,2,0,P|208:136|280:128,2,100
72,208,32753,1,0,0:0:0:0:
104,304,32903,1,0,0:0:0:0:
40,272,33053,1,0,0:0:0:0:
136,240,33203,1,8,0:0:0:0:
216,272,33353,2,0,P|272:256|320:208,1,100
320,152,33653,2,0,P|264:168|216:216,2,100,0|8|0,0:0|0:0|0:0,0:0:0:0:
256,56,34103,5,0,0:0:0:0:
256,56,34253,1,0,0:0:0:0:
152,40,34403,2,0,P|112:88|96:160,1,100,8|0,0:0|0:0,0:0:0:0:
360,344,34703,2,0,P|400:296|416:224,1,100
416,168,35003,1,8,0:0:0:0:
416,72,35153,1,0,0:0:0:0:
488,120,35303,1,0,0:0:0:0:
496,208,35453,6,0,P|488:272|448:312,1,100,0|8,0:0|0:0,0:0:0:0:
376,264,35753,1,0,0:0:0:0:
272,200,35903,1,0,0:0:0:0:
176,128,36053,1,0,0:0:0:0:
272,200,36203,1,8,0:0:0:0:
200,280,36353,2,0,P|152:296|80:280,1,100
48,232,36653,2,0,P|95:216|144:221,2,100
32,120,37103,1,0,0:0:0:0:
56,40,37253,1,0,0:0:0:0:
32,120,37403,1,8,0:0:0:0:
56,208,37553,1,0,0:0:0:0:
96,288,37703,2,0,B|144:320|144:320|208:304,1,100
176,216,38003,5,8,0:0:0:0:
176,216,38153,1,8,0:0:0:0:
208,104,38303,2,0,P|256:72|304:64,1,100
368,104,38603,2,0,P|320:136|272:144,1,100
256,192,38903,12,0,39803,0:0:0:0:
80,56,40103,6,0,P|144:56|184:80,1,100
112,144,40703,1,8,0:0:0:0:
80,240,41003,6,0,P|144:240|184:216,2,100
112,144,41903,1,8,0:0:0:0:
208,144,42203,2,0,P|256:96|288:88,1,100
288,192,42803,1,0,0:0:0:0:
240,280,43103,1,8,0:0:0:0:
336,296,43403,6,0,P|400:280|432:240,1,100
408,160,44003,2,0,P|344:176|312:216,1,100,0|8,0:0|0:0,0:0:0:0:
232,248,44603,1,0,0:0:0:0:
136,264,44903,2,0,P|88:232|80:176,1,100
256,112,45503,1,8,0:0:0:0:
136,120,45803,2,0,P|88:152|80:208,2,100
256,112,46703,1,8,0:0:0:0:
168,160,47003,6,0,P|184:216|224:256,1,100
312,256,47603,2,0,P|296:200|256:160,1,100,0|8,0:0|0:0,0:0:0:0:
256,72,48203,1,0,0:0:0:0:
352,56,48503,2,0,P|408:72|448:120,1,100,0|8,0:0|0:0,0:0:0:0:
456,176,49103,5,0,0:0:0:0:
480,216,49178,1,0,0:0:0:0:
488,256,49253,1,0,0:0:0:0:
488,296,49328,1,0,0:0:0:0:
480,336,49403,1,0,0:0:0:0:
368,280,49703,6,0,B|368:224|368:224|336:168,1,100
272,136,50003,1,8,0:0:0:0:
272,136,50153,1,0,0:0:0:0:
272,136,50303,2,0,P|225:151|193:189,1,100
264,224,50603,2,0,P|310:208|343:171,1,100,8|0,0:0|0:0,0:0:0:0:
328,96,50903,1,0,0:0:0:0:
288,32,51053,1,0,0:0:0:0:
368,32,51203,2,0,P|432:40|472:80,1,100,8|0,0:0|0:0,0:0:0:0:
480,136,51503,2,0,P|416:128|376:88,1,100,0|0,0:0|0:0,0:0:0:0:
208,48,51803,6,0,P|160:80|128:152,1,100,8|0,0:0|0:0,0:0:0:0:
80,192,52103,1,0,0:0:0:0:
80,288,52253,1,0,0:0:0:0:
192,304,52403,2,0,P|224:264|208:200,1,100
291,217,52703,2,0,P|288:266|320:304,2,100
288,120,53153,1,0,0:0:0:0:
392,160,53303,5,0,0:0:0:0:
376,264,53453,1,0,0:0:0:0:
392,160,53603,1,8,0:0:0:0:
352,48,53753,2,0,P|296:32|232:48,1,100
200,96,54053,2,0,P|256:112|320:96,2,100
120,152,54503,1,0,0:0:0:0:
80,232,54653,1,0,0:0:0:0:
104,312,54803,2,0,P|176:336|224:336,1,100,8|0,0:0|0:0,0:0:0:0:
416,216,55103,2,0,P|344:192|296:192,1,100,0|0,0:0|0:0,0:0:0:0:
256,240,55403,6,0,P|328:264|376:264,1,100,8|0,0:0|0:0,0:0:0:0:
416,216,55703,1,0,0:0:0:0:
448,136,55853,1,0,0:0:0:0:
432,48,56003,2,0,B|380:32|380:32|304:56,1,100,8|0,0:0|0:0,0:0:0:0:
288,112,56303,2,0,B|340:128|340:128|416:104,2,100,0|0|8,0:0|0:0|0:0,0:0:0:0:
200,104,56753,1,0,0:0:0:0:
80,128,56903,6,0,P|64:192|80:240,1,100
432,256,57203,2,0,P|448:192|432:144,1,100,8|0,0:0|0:0,0:0:0:0:
176,128,57503,2,0,P|160:192|192:240,1,100
336,256,57803,2,0,P|352:192|328:152,1,100,8|0,0:0|0:0,0:0:0:0:
256,192,58103,1,0,0:0:0:0:
256,192,58253,12,0,59303,0:0:0:0:
200,136,59903,5,0,0:0:0:0:
312,248,60203,1,0,0:0:0:0:
336,144,60503,6,0,B|360:96|360:96|344:40,1,100,8|0,0:0|0:0,0:0:0:0:
288,0,60803,2,0,B|264:48|264:48|280:104,1,100,8|0,0:0|0:0,0:0:0:0:
200,136,61103,2,0,B|160:96|160:96|96:80,1,100,8|0,0:0|0:0,0:0:0:0:
72,144,61403,1,0,0:0:0:0:
64,224,61553,1,8,0:0:0:0:
128,280,61703,1,8,0:0:0:0:
224,280,61853,6,0,P|256:224|264:184,1,100,0|8,0:0|0:0,0:0:0:0:
304,104,62153,2,0,B|264:64|264:64|192:40,2,100,0|8|0,0:0|0:0|0:0,0:0:0:0:
368,168,62603,1,0,0:0:0:0:
320,248,62753,1,8,0:0:0:0:
224,264,62903,2,0,P|192:216|200:152,1,100,8|0,0:0|0:0,0:0:0:0:
216,32,63203,2,0,P|160:48|128:96,1,100,8|0,0:0|0:0,0:0:0:0:
112,160,63503,5,8,0:0:0:0:
64,232,63653,1,0,0:0:0:0:
144,240,63803,1,0,0:0:0:0:
112,160,63953,1,8,0:0:0:0:
56,96,64103,2,0,B|72:40|72:40|120:24,2,100,8|0|8,0:0|0:0|0:0,0:0:0:0:
160,88,64553,1,0,0:0:0:0:
256,128,64703,1,8,0:0:0:0:
360,152,64853,5,0,0:0:0:0:
360,152,64928,1,0,0:0:0:0:
360,152,65003,1,0,0:0:0:0:
440,184,65153,1,0,0:0:0:0:
440,184,65228,1,0,0:0:0:0:
440,184,65303,1,0,0:0:0:0:
440,264,65453,6,0,B|384:296|384:296|312:264,1,100,0|8,0:0|0:0,0:0:0:0:
256,256,65753,1,0,0:0:0:0:
160,281,65903,2,0,B|128:296|128:296|72:264,2,100,0|0|8,0:0|0:0|0:0,0:0:0:0:
256,256,66353,1,0,0:0:0:0:
256,152,66503,2,0,B|200:120|200:120|144:128,1,100
40,128,66803,1,8,0:0:0:0:
64,224,66953,2,0,B|88:272|88:272|152:304,2,100
40,128,67403,1,8,0:0:0:0:
104,56,67553,6,0,B|144:24|144:24|208:24,1,100
312,24,67853,2,0,B|361:24|361:24|401:56,2,100,0|8|0,0:0|0:0|0:0,0:0:0:0:
432,184,68303,1,0,0:0:0:0:
256,192,68453,1,0,0:0:0:0:
352,272,68603,1,8,0:0:0:0:
256,192,68753,1,0,0:0:0:0:
168,240,68903,2,0,L|76:196,1,100
96,128,69203,2,0,L|192:176,2,100,8|0|8,0:0|0:0|0:0,0:0:0:0:
96,56,69653,5,0,0:0:0:0:
176,40,69803,1,8,0:0:0:0:
180,116,69953,1,0,0:0:0:0:
256,48,70103,1,8,0:0:0:0:
344,32,70253,2,0,P|416:56|448:88,1,100,0|8,0:0|0:0,0:0:0:0:
368,128,70553,2,0,B|368:184|368:184|336:232,1,100,0|8,0:0|0:0,0:0:0:0:
256,192,70853,5,0,0:0:0:0:
176,224,71003,2,0,B|172:272|172:272|224:336,1,100,0|8,0:0|0:0,0:0:0:0:
336,160,71303,2,0,B|336:108|336:108|288:48,2,100,8|0|8,0:0|0:0|0:0,0:0:0:0:
300,256,71753,1,0,0:0:0:0:
380,284,71903,1,8,0:0:0:0:
460,264,72053,1,0,0:0:0:0:
480,184,72203,1,0,0:0:0:0:
432,120,72353,2,8,B|408:68|408:68|352:40,1,100
80,120,72653,2,0,B|108:72|108:72|160:40,2,100,0|8|0,0:0|0:0|0:0,0:0:0:0:
64,208,73103,5,8,0:0:0:0:
96,288,73253,1,0,0:0:0:0:
176,256,73403,2,0,B|216:200|216:200|216:152,1,100,0|8,0:0|0:0,0:0:0:0:
336,128,73703,2,0,B|296:184|296:184|296:232,2,100,8|0|8,0:0|0:0|0:0,0:0:0:0:
392,72,74153,1,0,0:0:0:0:
392,72,74303,1,8,0:0:0:0:
480,72,74453,5,0,0:0:0:0:
480,72,74528,1,0,0:0:0:0:
480,72,74603,1,0,0:0:0:0:
480,160,74753,1,0,0:0:0:0:
480,160,74828,1,0,0:0:0:0:
480,160,74903,1,0,0:0:0:0:
400,208,75053,5,0,0:0:0:0:
304,208,75203,2,0,B|256:240|256:240|184:240,1,100,8|0,0:0|0:0,0:0:0:0:
152,192,75503,2,0,B|200:160|200:160|272:160,2,100,0|0|8,0:0|0:0|0:0,0:0:0:0:
136,104,75953,1,0,0:0:0:0:
64,192,76103,1,0,0:0:0:0:
136,280,76253,1,0,0:0:0:0:
232,328,76403,2,0,L|336:344,1,100,8|0,0:0|0:0,0:0:0:0:
288,56,76703,2,0,L|176:40,2,100,0|0|8,0:0|0:0|0:0,0:0:0:0:
376,72,77153,5,0,0:0:0:0:
448,112,77303,2,0,P|440:168|392:208,1,100
64,272,77603,2,0,P|72:216|120:176,1,100,8|0,0:0|0:0,0:0:0:0:
152,88,77903,1,0,0:0:0:0:
152,88,78053,1,0,0:0:0:0:
232,144,78203,1,8,0:0:0:0:
232,144,78353,1,0,0:0:0:0:
328,192,78503,6,8,B|280:232|280:232|120:232,1,200
142,152,79103,2,8,B|280:152|280:152|328:192,1,200
360,104,79703,6,8,B|400:136|400:136|432:216,1,100
336,184,80003,1,0,0:0:0:0:
272,240,80153,2,0,B|312:272|312:272|408:264,2,100,8|8|8,0:0|0:0|0:0,0:0:0:0:
184,232,80603,1,0,0:0:0:0:
184,232,80753,1,0,0:0:0:0:
88,192,80903,1,0,0:0:0:0:
104,160,80978,1,0,0:0:0:0:
128,136,81053,1,0,0:0:0:0:
160,112,81128,1,0,0:0:0:0:
192,96,81203,1,0,0:0:0:0:
224,88,81278,1,0,0:0:0:0:
264,80,81353,1,0,0:0:0:0:
296,80,81428,1,0,0:0:0:0:
328,88,81503,1,0,0:0:0:0:
360,96,81578,1,0,0:0:0:0:
392,112,81653,1,0,0:0:0:0:
416,136,81728,1,0,0:0:0:0:
440,160,81803,2,0,B|464:216|464:216|432:288,1,100
256,312,82103,6,8,B|200:312|200:312|176:272,1,100
256,192,82403,1,0,0:0:0:0:
256,72,82553,2,8,B|312:72|312:72|336:112,1,100
256,192,82853,1,0,0:0:0:0:
152,192,83003,2,8,B|152:128|152:128|200:96,1,100
256,192,83303,1,0,0:0:0:0:
360,192,83453,2,8,B|360:256|360:256|312:288,1,100
256,192,83753,1,0,0:0:0:0:
256,192,83903,1,8,0:0:0:0:
256,192,84053,5,8,0:0:0:0:
256,64,93803,5,0,0:0:0:0:
256,80,93878,1,0,0:0:0:0:
256,96,93953,1,0,0:0:0:0:
256,192,94103,6,0,B|280:240|280:240|344:280,1,100
336,184,94403,1,8,0:0:0:0:
416,176,94553,2,0,B|392:128|392:128|328:88,2,100
392,256,95003,1,8,0:0:0:0:
320,280,95153,2,0,P|264:288|200:248,1,100
176,192,95453,1,0,0:0:0:0:
176,192,95603,1,8,0:0:0:0:
192,64,95753,2,0,P|248:40|304:40,1,100
320,320,96053,2,0,P|280:360|208:360,1,100
128,312,96353,5,0,0:0:0:0:
104,216,96503,1,0,0:0:0:0:
128,312,96653,1,0,0:0:0:0:
208,248,96803,1,8,0:0:0:0:
296,144,96953,1,0,0:0:0:0:
376,80,97103,1,0,0:0:0:0:
296,144,97253,1,0,0:0:0:0:
376,208,97403,1,8,0:0:0:0:
312,240,97553,6,0,B|312:296|312:296|352:328,2,100
200,144,98003,2,0,B|200:88|200:88|160:56,2,100,8|0|0,0:0|0:0|0:0,0:0:0:0:
200,232,98453,1,0,0:0:0:0:
256,312,98603,1,8,0:0:0:0:
312,232,98753,1,0,0:0:0:0:
312,232,98903,2,0,L|392:160,1,100
392,80,99203,1,8,0:0:0:0:
392,80,99353,1,0,0:0:0:0:
304,40,99503,6,0,B|248:64|248:64|240:104,1,100
256,176,99803,2,0,B|312:152|312:152|320:112,2,100,8|0|0,0:0|0:0|0:0,0:0:0:0:
240,96,100253,1,0,0:0:0:0:
240,96,100403,1,8,0:0:0:0:
152,64,100553,2,0,B|104:112|104:112|96:176,1,100
100,240,100853,2,0,B|104:272|104:272|152:320,1,100,0|8,0:0|0:0,0:0:0:0:
256,320,101153,1,0,0:0:0:0:
411,240,101303,2,0,B|408:272|408:272|360:320,2,100,0|0|8,0:0|0:0|0:0,0:0:0:0:
408,88,101753,5,0,0:0:0:0:
288,32,101903,2,0,B|256:72|256:72|256:160,1,100
224,352,102203,2,0,B|256:312|256:312|256:224,1,100
256,192,102503,12,0,103703,0:0:0:0:
256,192,104003,5,0,0:0:0:0:
256,96,104303,2,0,L|144:96,1,100,8|0,0:0|0:0,0:0:0:0:
88,192,104903,1,0,0:0:0:0:
176,280,105203,1,0,0:0:0:0:
256,288,105503,2,0,B|304:264|304:264|336:208,1,100,8|0,0:0|0:0,0:0:0:0:
384,120,106103,1,0,0:0:0:0:
336,32,106403,2,0,B|296:40|296:40|248:96,1,100,0|8,0:0|0:0,0:0:0:0:
176,32,107003,2,0,B|208:40|208:40|264:96,2,100,0|0|0,0:0|0:0|0:0,0:0:0:0:
80,96,107903,1,8,0:0:0:0:
80,192,108203,6,0,L|184:192,1,100
432,192,108803,2,0,L|328:192,1,100
256,192,109403,1,0,0:0:0:0:
256,120,109703,1,0,0:0:0:0:
256,264,110003,1,0,0:0:0:0:
256,192,110303,2,0,L|360:160,1,100
352,80,110903,1,0,0:0:0:0:
256,32,111203,1,0,0:0:0:0:
176,64,111503,2,0,B|136:88|136:88|72:88,1,100,8|0,0:0|0:0,0:0:0:0:
256,192,111953,12,0,113003,0:0:0:0:
264,88,113303,6,0,B|216:128|216:128|208:184,1,100
208,272,113603,1,8,0:0:0:0:
112,272,113753,2,0,B|56:272|56:272|-8:216,2,100
208,272,114203,1,8,0:0:0:0:
304,272,114353,1,0,0:0:0:0:
344,192,114503,1,0,0:0:0:0:
304,112,114653,1,0,0:0:0:0:
248,48,114803,2,0,L|144:80,1,100
80,120,115103,1,0,0:0:0:0:
144,192,115253,6,0,P|192:160|256:176,2,100
88,272,115703,1,0,0:0:0:0:
192,272,115853,1,0,0:0:0:0:
296,272,116003,2,0,B|344:240|344:240|392:232,1,100,8|0,0:0|0:0,0:0:0:0:
448,192,116303,1,0,0:0:0:0:
296,112,116453,2,0,B|344:144|344:144|392:152,2,100
216,80,116903,1,0,0:0:0:0:
120,88,117053,2,0,P|104:136|120:184,1,100
160,284,117353,1,0,0:0:0:0:
328,252,117503,5,0,0:0:0:0:
256,144,117653,1,0,0:0:0:0:
384,144,117803,1,8,0:0:0:0:
256,144,117953,1,0,0:0:0:0:
168,168,118103,2,0,B|96:184|96:184|32:152,1,100
48,88,118403,1,8,0:0:0:0:
32,232,118553,2,0,B|32:288|32:288|72:328,1,100
152,328,118853,1,0,0:0:0:0:
256,328,119003,1,8,0:0:0:0:
360,328,119153,5,0,0:0:0:0:
448,288,119303,2,0,B|448:232|448:232|400:200,1,100
256,192,119603,1,8,0:0:0:0:
256,96,119753,1,0,0:0:0:0:
344,32,119903,2,0,B|384:72|384:72|392:120,1,100
256,192,120203,1,8,0:0:0:0:
176,88,120353,1,0,0:0:0:0:
72,96,120503,6,0,B|80:160|192:160|208:280,1,200
320,272,121103,6,0,B|368:240|368:240|392:176,1,100
384,120,121403,1,0,0:0:0:0:
296,192,121553,2,0,B|240:192|184:144|96:184,1,200
88,96,122003,5,0,0:0:0:0:
120,80,122078,1,0,0:0:0:0:
152,72,122153,1,0,0:0:0:0:
184,72,122228,1,0,0:0:0:0:
216,88,122303,1,0,0:0:0:0:
248,96,122378,1,0,0:0:0:0:
280,96,122453,1,0,0:0:0:0:
312,88,122528,1,0,0:0:0:0:
344,104,122603,1,0,0:0:0:0:
368,128,122678,1,0,0:0:0:0:
376,160,122753,1,0,0:0:0:0:
368,192,122828,1,0,0:0:0:0:
392,216,122903,1,0,0:0:0:0:
88,264,123503,5,0,0:0:0:0:
424,264,123803,5,0,0:0:0:0:
416,64,124103,6,0,B|344:64|344:64|319:77,2,100,8|0|8,0:0|0:0|0:0,0:0:0:0:
256,184,124552,1,0,0:0:0:0:
256,184,124703,1,8,0:0:0:0:
192,77,124853,2,0,B|168:64|168:64|96:64,1,100,0|0,0:0|0:0,0:0:0:0:
40,168,125154,1,8,0:0:0:0:
40,168,125304,1,8,0:0:0:0:
120,256,125453,2,0,B|152:304|152:304|232:304,1,100,0|8,0:0|0:0,0:0:0:0:
392,256,125753,2,0,B|360:304|360:304|280:304,2,100,0|8|0,0:0|0:0|0:0,0:0:0:0:
392,128,126203,1,0,0:0:0:0:
256,64,126353,5,8,0:0:0:0:
256,64,126503,1,8,0:0:0:0:
256,152,126653,2,0,L|256:256,1,100,0|8,0:0|0:0,0:0:0:0:
176,296,126953,2,0,B|136:248|136:248|136:176,1,100,0|8,0:0|0:0,0:0:0:0:
120,120,127253,1,0,0:0:0:0:
176,40,127403,1,0,0:0:0:0:
336,40,127553,1,8,0:0:0:0:
392,120,127703,1,8,0:0:0:0:
448,216,127853,2,0,B|416:264|416:264|336:288,1,100,0|8,0:0|0:0,0:0:0:0:
304,248,128153,2,0,B|336:200|336:200|416:168,2,100,0|8|0,0:0|0:0|0:0,0:0:0:0:
304,256,128528,5,0,0:0:0:0:
304,256,128603,1,0,0:0:0:0:
224,248,128753,1,0,0:0:0:0:
224,248,128828,1,0,0:0:0:0:
224,248,128903,1,0,0:0:0:0:
136,240,129053,5,0,0:0:0:0:
72,144,129203,2,0,B|120:104|120:104|184:104,1,100,8|0,0:0|0:0,0:0:0:0:
256,104,129503,1,0,0:0:0:0:
352,104,129653,2,0,B|390:104|390:104|438:144,2,100,0|8|0,0:0|0:0|0:0,0:0:0:0:
256,104,130103,1,0,0:0:0:0:
256,200,130253,2,0,B|200:232|200:232|182:263,1,100,0|8,0:0|0:0,0:0:0:0:
72,256,130553,1,0,0:0:0:0:
96,160,130703,1,0,0:0:0:0:
80,64,130853,2,0,P|120:40|184:48,1,100,0|8,0:0|0:0,0:0:0:0:
256,88,131153,6,0,B|304:112|304:112|312:160,2,100
152,88,131603,1,8,0:0:0:0:
96,152,131753,1,0,0:0:0:0:
96,240,131903,1,0,0:0:0:0:
96,152,132053,1,0,0:0:0:0:
152,88,132203,1,8,0:0:0:0:
232,88,132353,2,0,B|280:104|280:104|320:168,1,100
280,296,132653,2,0,B|232:280|232:280|192:216,2,100,0|8|0,0:0|0:0|0:0,0:0:0:0:
336,200,133103,6,12,B|360:152|360:152|352:96,1,100
256,32,133703,6,0,B|208:64|208:64|200:120,1,100
136,192,134003,1,8,0:0:0:0:
202,278,134153,2,0,B|208:320|208:320|256:352,2,100,0|8|0,0:0|0:0|0:0,0:0:0:0:
256,192,134603,1,0,0:0:0:0:
256,192,134753,1,8,0:0:0:0:
352,192,134903,1,8,0:0:0:0:
440,192,135053,1,0,0:0:0:0:
400,112,135203,2,0,B|352:72|352:72|288:72,1,100,8|0,0:0|0:0,0:0:0:0:
112,112,135503,2,0,B|160:72|160:72|224:72,2,100,8|0|0,0:0|0:0|0:0,0:0:0:0:
32,192,135953,5,8,0:0:0:0:
72,272,136103,1,8,0:0:0:0:
120,192,136253,1,0,0:0:0:0:
208,192,136403,2,0,L|320:192,1,100,8|0,0:0|0:0,0:0:0:0:
312,272,136703,2,0,L|200:272,2,100,8|0|0,0:0|0:0|0:0,0:0:0:0:
384,232,137153,1,8,0:0:0:0:
384,232,137303,1,8,0:0:0:0:
384,152,137453,1,0,0:0:0:0:
320,88,137603,1,8,0:0:0:0:
224,88,137753,6,0,L|112:88,1,100,0|8,0:0|0:0,0:0:0:0:
104,184,138053,1,0,0:0:0:0:
104,184,138128,1,0,0:0:0:0:
104,184,138203,1,0,0:0:0:0:
104,272,138353,1,0,0:0:0:0:
104,272,138428,1,0,0:0:0:0:
104,272,138503,1,0,0:0:0:0:
192,272,138653,5,0,0:0:0:0:
320,272,138803,2,0,B|368:240|368:240|376:176,1,100,8|0,0:0|0:0,0:0:0:0:
256,80,139103,1,0,0:0:0:0:
352,24,139253,1,0,0:0:0:0:
440,80,139403,2,0,B|464:128|464:128|464:176,1,100,8|0,0:0|0:0,0:0:0:0:
256,192,139703,1,0,0:0:0:0:
136,192,139853,1,0,0:0:0:0:
112,40,140003,2,0,B|64:72|64:72|64:136,2,100,8|0|0,0:0|0:0|0:0,0:0:0:0:
256,32,140453,5,0,0:0:0:0:
256,32,140603,1,8,0:0:0:0:
256,112,140753,1,0,0:0:0:0:
344,120,140903,2,0,B|384:160|384:160|384:208,1,100
344,272,141203,2,0,B|304:232|304:232|304:184,2,100,8|0|0,0:0|0:0|0:0,0:0:0:0:
424,288,141653,1,0,0:0:0:0:
296,336,141803,2,0,B|240:336|240:336|200:296,1,100,8|0,0:0|0:0,0:0:0:0:
120,272,142103,5,4,0:0:0:0:
160,192,142403,1,4,0:0:0:0:
256,192,142703,1,4,0:0:0:0:
256,104,143003,1,4,0:0:0:0:
472,32,143303,6,0,B|472:88|472:88|424:136,1,100
352,128,143603,1,8,0:0:0:0:
320,48,143753,2,0,B|272:16|272:16|200:16,1,100
152,40,144053,1,8,0:0:0:0:
80,80,144203,2,0,B|80:144|80:144|120:192,1,100
192,192,144503,5,0,0:0:0:0:
272,168,144653,1,0,0:0:0:0:
320,176,144728,1,0,0:0:0:0:
360,200,144803,1,0,0:0:0:0:
384,240,144878,1,0,0:0:0:0:
400,280,144953,1,0,0:0:0:0:
392,328,145028,1,0,0:0:0:0:
360,360,145103,1,0,0:0:0:0:
256,336,145403,6,0,B|200:320|200:320|136:320,1,100
96,40,155303,6,0,P|136:40|192:80,1,100
168,168,155903,5,0,0:0:0:0:
216,256,156203,2,0,B|256:296|256:296|312:296,1,100
360,216,156803,1,0,0:0:0:0:
328,120,157103,1,0,0:0:0:0:
424,80,157403,6,0,B|464:112|464:112|464:168,1,100
432,256,158003,1,0,0:0:0:0:
336,296,158303,1,0,0:0:0:0:
240,264,158603,1,0,0:0:0:0:
160,200,158903,2,0,B|192:160|192:160|256:160,1,100
344,160,159503,5,0,0:0:0:0:
440,160,159803,1,0,0:0:0:0:
256,288,160103,2,0,B|296:256|296:256|296:208,1,100
256,32,160703,1,0,0:0:0:0:
256,32,161003,1,0,0:0:0:0:
472,192,161603,5,0,0:0:0:0:
472,192,161753,1,0,0:0:0:0:
472,192,161903,1,0,0:0:0:0:
256,192,162203,5,0,0:0:0:0:
104,208,162503,2,0,P|104:152|80:112,1,100
40,40,163103,1,0,0:0:0:0:
40,40,163403,1,0,0:0:0:0:
256,192,163553,12,0,164903,0:0:0:0:
24,52,175703,5,0,0:0:0:0:
24,76,175778,1,0,0:0:0:0:
24,96,175853,1,0,0:0:0:0:
24,116,175928,1,0,0:0:0:0:
24,136,176003,1,0,0:0:0:0:
24,156,176078,1,0,0:0:0:0:
28,172,176153,5,0,0:0:0:0:
40,184,176228,1,0,0:0:0:0:
56,192,176303,1,0,0:0:0:0:
72,196,176378,1,0,0:0:0:0:
88,196,176453,1,0,0:0:0:0:
104,196,176528,1,0,0:0:0:0:
120,196,176603,5,0,0:0:0:0:
136,196,176678,1,0,0:0:0:0:
152,196,176753,1,0,0:0:0:0:
168,196,176828,1,0,0:0:0:0:
184,196,176903,6,0,P|252:192|292:168,1,100
464,80,177203,2,0,P|412:72|356:88,1,100,0|0,0:0|0:0,0:0:0:0:
256,192,177503,5,8,0:0:0:0:
168,192,177653,2,0,B|120:224|120:224|120:280,1,100
256,296,177953,1,8,0:0:0:0:
256,296,178103,1,8,0:0:0:0:
344,296,178253,1,0,0:0:0:0:
432,320,178403,2,0,B|432:256|432:256|400:232,1,100,8|0,0:0|0:0,0:0:0:0:
432,64,178703,2,0,B|432:128|432:128|400:152,1,100,8|0,0:0|0:0,0:0:0:0:
304,192,179003,5,0,0:0:0:0:
216,192,179153,2,8,B|160:192|160:192|128:152,1,100
128,72,179453,1,0,0:0:0:0:
200,24,179603,2,0,B|256:24|256:24|280:72,1,100,8|0,0:0|0:0,0:0:0:0:
312,360,179903,2,0,B|256:360|256:360|232:312,1,100,8|0,0:0|0:0,0:0:0:0:
160,304,180203,1,0,0:0:0:0:
72,272,180353,2,8,B|72:208|72:208|128:160,1,100
184,136,180653,1,0,0:0:0:0:
288,96,180803,2,0,B|344:96|344:96|384:144,1,100,8|0,0:0|0:0,0:0:0:0:
312,176,181103,5,0,0:0:0:0:
336,256,181253,1,0,0:0:0:0:
336,256,181328,1,0,0:0:0:0:
336,256,181403,1,0,0:0:0:0:
392,192,181553,1,0,0:0:0:0:
392,192,181628,1,0,0:0:0:0:
392,192,181703,1,0,0:0:0:0:
368,112,181853,5,0,0:0:0:0:
288,16,182003,2,0,B|216:16|216:16|160:48,1,100,8|0,0:0|0:0,0:0:0:0:
136,120,182303,1,0,0:0:0:0:
136,264,182453,1,0,0:0:0:0:
256,264,182603,2,0,L|256:160,1,100,8|0,0:0|0:0,0:0:0:0:
368,112,182903,1,0,0:0:0:0:
408,224,183053,1,0,0:0:0:0:
368,336,183203,2,0,B|312:360|312:360|240:360,1,100,8|0,0:0|0:0,0:0:0:0:
160,344,183503,1,0,0:0:0:0:
56,264,183653,5,0,0:0:0:0:
48,144,183803,2,0,B|48:88|48:88|104:56,1,100,8|0,0:0|0:0,0:0:0:0:
152,144,184103,1,0,0:0:0:0:
256,192,184253,1,0,0:0:0:0:
368,240,184403,2,0,B|368:184|368:184|320:144,1,100,8|0,0:0|0:0,0:0:0:0:
256,72,184703,1,0,0:0:0:0:
352,56,184853,1,0,0:0:0:0:
440,88,185003,2,0,B|480:136|480:136|480:200,1,100,8|0,0:0|0:0,0:0:0:0:
320,184,185303,6,4,P|264:160|184:168,1,100
160,208,185903,2,4,P|216:232|296:224,1,100
64,352,186503,6,8,B|128:352|128:352|152:312,1,100
256,192,186803,1,0,0:0:0:0:
448,32,186953,2,8,B|384:32|384:32|360:72,1,100
368,136,187253,1,0,0:0:0:0:
368,216,187403,1,0,0:0:0:0:
296,264,187553,1,0,0:0:0:0:
256,184,187703,5,0,0:0:0:0:
232,152,187778,1,0,0:0:0:0:
200,128,187853,1,0,0:0:0:0:
168,112,187928,1,0,0:0:0:0:
128,112,188003,1,0,0:0:0:0:
96,128,188078,1,0,0:0:0:0:
72,160,188153,1,0,0:0:0:0:
64,192,188228,1,0,0:0:0:0:
64,232,188303,1,0,0:0:0:0:
80,264,188378,1,0,0:0:0:0:
104,288,188453,1,0,0:0:0:0:
144,296,188528,1,0,0:0:0:0:
176,288,188603,1,4,0:0:0:0:
440,40,188903,5,8,0:0:0:0:
440,40,189053,1,8,0:0:0:0:
440,344,189353,5,8,0:0:0:0:
440,344,189503,1,8,0:0:0:0:
72,344,189803,5,8,0:0:0:0:
72,344,189953,1,8,0:0:0:0:
72,40,190253,5,8,0:0:0:0:
72,40,190403,1,8,0:0:0:0:
256,192,190703,5,8,0:0:0:0:
256,192,190853,1,8,0:0:0:0:
256,192,191303,5,4,0:0:0:0:
