osu file format v13

[General]
AudioFilename: Dispel.mp3
AudioLeadIn: 0
PreviewTime: 124103
Countdown: 0
SampleSet: Normal
StackLeniency: 0.7
Mode: 0
LetterboxInBreaks: 1
WidescreenStoryboard: 1

[Editor]
DistanceSpacing: 1.5
BeatDivisor: 4
GridSize: 4
TimelineZoom: 0.9

[Metadata]
Title:Dispel
TitleUnicode:Dispel
Artist:Nakamura Meiko
ArtistUnicode:仲村芽衣子
Creator:reyder
Version:Hard
Source:
Tags:Levitation pkmnyab
BeatmapID:403805
BeatmapSetID:141522

[Difficulty]
HPDrainRate:6
CircleSize:4
OverallDifficulty:5
ApproachRate:8
SliderMultiplier:1.1
SliderTickRate:1

[Events]
//Background and Video events
0,0,"Dispel Background.jpg",0,0
//Break Periods
2,84252,93353
2,145903,154553
2,167153,176153
//Storyboard Layer 0 (Background)
//Storyboard Layer 1 (Fail)
//Storyboard Layer 2 (Pass)
//Storyboard Layer 3 (Foreground)
//Storyboard Sound Samples
//Background Colour Transformations
3,100,163,162,255

[TimingPoints]
20903,300,4,1,0,70,1,0
20903,-100,4,2,0,70,0,0
40103,-133.333333333333,4,2,0,70,0,0
40203,-200,4,2,0,70,0,0
49703,-100,4,2,0,70,0,0
60503,-100,4,1,0,45,0,1
81953,-100,4,1,0,45,0,0
94103,-100,4,2,0,70,0,0
103703,-200,4,2,0,70,0,0
104003,-200,4,2,0,70,0,0
104103,-200,4,2,0,70,0,0
113303,-100,4,2,0,70,0,0
123503,-100,4,1,0,45,0,0
124103,-100,4,1,0,45,0,1
145403,-200,4,1,0,45,0,1
145703,-200,4,1,0,70,0,0
155903,-200,4,1,0,70,0,0
156203,-200,4,2,0,70,0,0
157103,-200,4,1,0,70,0,0
157703,-200,4,2,0,70,0,0
158303,-200,4,1,0,70,0,0
158603,-200,4,2,0,70,0,0
159503,-200,4,1,0,70,0,0
160103,-200,4,2,0,70,0,0
161003,-200,4,1,0,70,0,0
161603,-200,4,2,0,70,0,0
163403,-200,4,1,0,70,0,0
176903,-100,4,1,0,45,0,1
185303,-200,4,1,0,45,0,1
186503,-100,4,1,0,45,0,1
188903,-100,4,1,0,45,0,0

[Colours]
Combo1 : 128,64,64
Combo2 : 128,0,0
Combo3 : 74,0,0
Combo4 : 230,0,0

[HitObjects]
256,40,20903,6,0,P|256:104|232:152,1,110,0|0,0:0|0:0,0:0:0:0:
324,204,21503,2,0,P|296:248|280:256,2,55,0|0|0,0:0|0:0|0:0,0:0:0:0:
348,156,21953,2,0,P|356:116|328:48,1,110,0|0,0:0|0:0,0:0:0:0:
264,140,22553,2,0,P|228:184|168:200,1,110,0|8,0:0|0:0,0:0:0:0:
68,192,23153,5,0,0:0:0:0:
104,232,23303,2,0,P|140:260|224:272,1,110,0|0,0:0|0:0,0:0:0:0:
244,172,23903,1,0,0:0:0:0:
288,140,24053,1,0,0:0:0:0:
384,192,24353,2,0,P|376:236|352:260,1,55,0|0,0:0|0:0,0:0:0:0:
268,288,24803,2,0,P|220:288|132:208,1,165,8|0,0:0|0:0,0:0:0:0:
128,160,25403,1,0,0:0:0:0:
216,96,25703,6,0,P|272:80|324:104,1,110
412,156,26303,2,0,P|400:188|372:208,3,55
224,232,27203,2,0,P|196:220|184:132,1,110
80,96,27803,2,0,P|44:120|40:148,1,55
28,184,28103,2,0,P|28:248|60:288,1,110
136,212,28703,1,0,0:0:0:0:
180,180,28853,1,0,0:0:0:0:
208,76,29153,2,0,P|256:56|332:80,1,110
352,104,29603,1,0,0:0:0:0:
400,202,29903,2,0,P|369:228|302:246,1,110
148,188,30503,6,0,P|152:228|204:280,1,110
348,208,31103,2,0,P|336:176|308:148,1,55
252,112,31403,2,0,P|240:84|252:52,1,55
416,240,31853,2,0,P|388:292|320:304,1,110
180,268,32453,2,0,P|144:248|128:176,1,110
184,124,32903,6,0,P|204:156|288:160,1,110
416,84,33503,2,0,P|392:56|360:40,1,55
296,56,33803,2,0,P|252:52|224:64,1,55
100,140,34253,2,0,L|92:212,1,55
80,276,34553,1,0,0:0:0:0:
144,328,34703,2,0,P|172:332|228:264,1,110
112,160,35303,6,0,P|164:124|224:120,1,110,0|8,0:0|0:0,0:0:0:0:
368,68,35903,2,0,P|392:84|408:108,1,55
468,160,36203,1,8,0:0:0:0:
480,240,36353,2,0,P|464:288|356:336,1,165,0|8,0:0|0:0,0:0:0:0:
284,336,36953,1,0,0:0:0:0:
200,328,37103,2,0,P|148:320|112:264,1,110,0|8,0:0|0:0,0:0:0:0:
256,192,37703,12,8,39803,0:0:0:0:
440,36,40103,5,0,0:0:0:0:
384,96,40403,1,0,0:0:0:0:
420,168,40703,2,0,L|404:224,1,55,8|0,0:0|0:0,0:0:0:0:
364,232,41153,2,0,L|332:240,3,27.5,0|0|0|0,0:0|0:0|0:0|0:0,0:0:0:0:
308,164,41903,2,0,P|292:136|264:124,1,55,8|0,0:0|0:0,0:0:0:0:
256,44,42503,5,0,0:0:0:0:
192,96,42803,1,0,0:0:0:0:
148,168,43103,2,0,L|172:224,1,55,8|0,0:0|0:0,0:0:0:0:
204,240,43553,2,0,L|228:256,3,27.5,0|0|0|0,0:0|0:0|0:0|0:0,0:0:0:0:
288,312,44303,2,0,P|264:328|232:324,1,55,8|0,0:0|0:0,0:0:0:0:
164,292,44903,5,0,0:0:0:0:
224,236,45203,1,0,0:0:0:0:
240,156,45503,2,0,L|256:100,1,55,8|0,0:0|0:0,0:0:0:0:
296,108,45953,2,0,L|328:112,3,27.5,0|0|0|0,0:0|0:0|0:0|0:0,0:0:0:0:
380,172,46703,2,0,P|384:192|372:228,1,55,8|0,0:0|0:0,0:0:0:0:
324,288,47303,5,0,0:0:0:0:
252,248,47603,1,0,0:0:0:0:
280,168,47903,2,0,L|336:136,1,55,8|0,0:0|0:0,0:0:0:0:
336,100,48353,2,0,L|344:68,3,27.5,0|0|0|0,0:0|0:0|0:0|0:0,0:0:0:0:
396,136,49103,2,0,L|424:160,2,27.5,8|0|8,0:0|0:0|0:0,0:0:0:0:
256,92,49703,6,0,P|200:96|152:128,1,110
24,228,50303,2,0,L|-28:192,2,55,8|0|0,0:0|0:0|0:0,0:0:0:0:
188,236,50903,2,0,P|224:224|256:224,1,55
324,208,51203,2,0,P|352:200|372:176,1,55
408,108,51503,2,0,P|448:92|528:124,1,110,8|0,0:0|0:0,0:0:0:0:
440,256,52103,6,0,P|404:272|320:264,1,110
256,244,52553,1,0,0:0:0:0:
216,172,52703,2,0,B|192:144|212:92|160:80,1,110,8|0,0:0|0:0,0:0:0:0:
104,136,53153,1,0,0:0:0:0:
76,212,53303,2,0,P|88:244|124:268,1,55
176,296,53603,1,0,0:0:0:0:
252,328,53753,2,0,P|304:336|416:304,1,165,4|0,0:0|0:0,0:0:0:0:
364,148,54503,6,0,P|340:124|288:112,1,82.5
172,132,54953,1,0,0:0:0:0:
268,268,55253,2,0,P|220:272|204:256,1,55
144,228,55553,1,0,0:0:0:0:
104,156,55703,2,0,P|132:124|176:124,1,82.5
288,88,56153,1,0,0:0:0:0:
432,180,56453,1,0,0:0:0:0:
304,284,56753,1,0,0:0:0:0:
256,192,56903,12,0,57803,0:0:0:0:
256,32,58103,6,0,P|296:40|316:108,1,110
256,252,58703,1,0,0:0:0:0:
100,196,59003,2,0,P|104:160|184:128,1,110
256,192,59903,5,0,0:0:0:0:
256,192,60203,1,0,0:0:0:0:
256,28,60503,6,0,P|208:28|160:64,1,110
60,192,61103,1,0,0:0:0:0:
164,320,61403,1,0,0:0:0:0:
240,288,61553,1,0,0:0:0:0:
308,244,61703,2,0,P|332:208|304:128,1,110
328,64,62153,1,0,0:0:0:0:
396,112,62303,2,0,P|400:160|408:172,1,55
164,228,62903,6,0,P|128:248|72:208,1,110
120,56,63503,1,0,0:0:0:0:
284,68,63803,1,0,0:0:0:0:
312,144,63953,2,0,P|328:180|260:280,1,165
208,124,64703,5,0,0:0:0:0:
128,104,64853,1,0,0:0:0:0:
64,156,65003,1,0,0:0:0:0:
52,236,65153,1,0,0:0:0:0:
116,288,65303,6,0,P|152:300|224:288,1,110
296,140,65903,1,0,0:0:0:0:
452,192,66203,1,0,0:0:0:0:
336,312,66503,2,0,L|276:320,1,55,0|0,0:0|0:0,0:0:0:0:
252,240,66803,2,0,L|208:196,1,55
180,124,67103,2,0,P|152:112|72:128,1,110
72,292,67703,6,0,P|112:296|184:272,1,110
212,200,68153,1,0,0:0:0:0:
256,132,68303,2,0,P|312:112|368:112,1,110
368,196,68753,1,0,0:0:0:0:
408,268,68903,2,0,P|396:308|316:324,1,110
180,276,69503,5,0,0:0:0:0:
144,116,69803,1,0,0:0:0:0:
288,40,70103,6,0,P|320:64|344:136,1,110
256,268,70703,1,0,0:0:0:0:
92,248,71003,1,0,0:0:0:0:
64,168,71153,1,0,0:0:0:0:
84,88,71303,1,0,0:0:0:0:
248,68,71603,2,0,P|280:88|288:120,1,55
296,184,71903,2,0,P|316:224|336:244,1,55
76,248,72503,6,0,P|44:216|40:144,1,110
172,56,73103,1,0,0:0:0:0:
336,52,73403,1,0,0:0:0:0:
368,128,73553,2,0,P|380:160|300:240,1,165
140,192,74303,6,0,L|168:244,1,55
236,284,74603,2,0,L|312:284,1,55
372,280,74903,6,0,P|408:272|440:200,1,110
344,76,75503,1,0,0:0:0:0:
244,208,75803,1,0,0:0:0:0:
80,228,76103,1,0,0:0:0:0:
44,152,76253,1,0,0:0:0:0:
68,72,76403,2,0,P|108:60|184:72,1,110
216,228,77003,1,0,0:0:0:0:
276,72,77303,6,0,P|324:60|376:100,1,110
420,160,77753,1,0,0:0:0:0:
444,240,77903,2,0,L|344:304,1,110
188,288,78503,6,0,P|152:276|144:208,1,110
168,132,78953,1,0,0:0:0:0:
232,184,79103,2,0,L|300:272,1,110
256,192,79703,12,0,81803,0:0:0:0:
300,148,82103,6,0,L|352:116,1,55
220,228,82553,2,0,L|168:268,1,55
340,280,83003,2,0,L|392:328,1,55
496,184,83453,2,0,L|464:140,1,55,0|0,0:0|0:0,0:0:0:0:
332,40,83903,2,0,L|272:40,1,55
448,32,94103,6,0,P|400:32|344:60,1,110
456,180,94703,2,0,P|448:224|392:268,1,110
256,188,95303,2,0,P|256:136|240:116,1,55
212,64,95603,2,0,P|176:52|140:56,1,55
84,84,95903,2,0,P|64:120|88:188,1,110
128,252,96353,1,0,0:0:0:0:
204,284,96503,2,0,P|256:296|332:280,1,110
252,136,97103,5,0,0:0:0:0:
332,152,97253,1,0,0:0:0:0:
128,292,97553,2,0,P|92:264|112:152,1,165
244,64,98303,1,0,0:0:0:0:
240,228,98603,1,0,0:0:0:0:
476,204,98903,5,0,0:0:0:0:
320,260,99203,6,0,P|292:284|212:280,1,110
156,232,99653,1,0,0:0:0:0:
152,148,99803,1,0,0:0:0:0:
220,100,99953,2,0,P|240:132|328:128,1,110
340,68,100403,1,0,0:0:0:0:
416,104,100553,1,0,0:0:0:0:
468,168,100703,2,0,P|476:200|436:268,1,110
256,192,101303,12,0,103403,0:0:0:0:
504,256,103703,5,0,0:0:0:0:
420,256,104003,1,0,0:0:0:0:
356,204,104303,2,0,L|316:156,1,55
304,124,104753,2,0,L|300:96,3,27.5,0|0|0|0,0:0|0:0|0:0|0:0,0:0:0:0:
368,48,105503,2,0,P|384:60|416:80,1,55
404,156,106103,5,0,0:0:0:0:
328,188,106403,1,0,0:0:0:0:
256,144,106703,2,0,P|228:128|200:120,1,55
176,148,107153,2,0,L|148:164,3,27.5,0|0|0|0,0:0|0:0|0:0|0:0,0:0:0:0:
204,228,107903,2,0,L|212:288,1,55
132,268,108503,5,0,0:0:0:0:
56,232,108803,1,0,0:0:0:0:
16,160,109103,2,0,L|4:100,1,55
44,96,109553,2,0,L|80:92,3,27.5,0|0|0|0,0:0|0:0|0:0|0:0,0:0:0:0:
148,124,110303,2,0,L|168:180,1,55
232,228,110903,5,0,0:0:0:0:
256,148,111203,1,0,0:0:0:0:
312,208,111503,2,0,L|340:264,1,55
380,264,111953,2,0,L|416:268,3,27.5,0|0|0|0,0:0|0:0|0:0|0:0,0:0:0:0:
372,344,112703,2,0,L|312:340,1,55
256,188,113303,6,0,P|256:148|212:88,1,110
104,192,113903,1,0,0:0:0:0:
128,28,114203,2,0,L|192:32,1,55
264,44,114503,2,0,L|316:84,1,55
360,140,114803,2,0,P|380:176|344:244,1,110
272,232,115253,1,0,0:0:0:0:
192,220,115403,1,0,0:0:0:0:
144,152,115553,1,0,0:0:0:0:
64,176,115703,6,0,P|28:212|44:268,1,110
116,296,116153,1,0,0:0:0:0:
192,324,116303,2,0,P|248:336|312:324,1,110
372,292,116753,1,0,0:0:0:0:
440,244,116903,2,0,P|452:212|452:176,1,55
420,116,117203,1,0,0:0:0:0:
340,124,117353,2,0,P|308:144|176:144,1,165
32,84,118103,6,0,P|36:116|64:156,1,82.5
164,232,118553,1,0,0:0:0:0:
320,184,118853,2,0,P|344:172|376:176,1,55
448,208,119153,1,0,0:0:0:0:
440,292,119303,2,0,P|412:328|376:340,1,82.5
268,280,119753,1,0,0:0:0:0:
144,172,120053,2,0,P|156:148|196:132,1,55
244,84,120353,1,0,0:0:0:0:
256,192,120503,12,0,121403,0:0:0:0:
256,188,121703,6,0,P|240:160|280:92,1,110
420,168,122303,1,0,0:0:0:0:
340,312,122603,2,0,P|312:324|220:312,1,110
157,46,123503,6,8,P|111:72|89:138,1,110
112,288,124103,6,0,P|112:240|160:184,1,110
256,68,124703,1,0,0:0:0:0:
368,188,125003,2,0,P|376:224|376:256,1,55
368,324,125303,2,0,P|324:328|256:288,1,110
220,232,125753,1,0,0:0:0:0:
180,160,125903,2,0,P|144:128|128:128,1,55
376,52,126503,6,0,P|336:52|272:88,1,110
112,96,127103,1,0,0:0:0:0:
24,236,127403,1,0,0:0:0:0:
88,288,127553,2,0,P|148:312|200:300,1,110
268,336,128003,1,0,0:0:0:0:
260,172,128303,6,0,P|264:124|312:88,1,110
416,212,128903,6,0,P|392:240|304:248,1,110
172,192,129503,1,0,0:0:0:0:
260,52,129803,2,0,L|260:168,1,110
260,244,130253,1,0,0:0:0:0:
208,308,130403,2,0,P|164:312|136:296,1,55
80,276,130703,1,0,0:0:0:0:
140,124,131003,6,0,P|168:116|256:128,1,110
404,68,131603,1,0,0:0:0:0:
404,232,131903,1,0,0:0:0:0:
252,100,132203,2,0,P|224:64|156:56,1,110
24,140,132803,1,0,0:0:0:0:
92,264,133103,6,8,P|144:312|192:312,1,110
284,184,133703,2,0,P|280:144|316:84,1,110
448,184,134303,1,0,0:0:0:0:
408,256,134453,1,0,0:0:0:0:
340,300,134603,2,0,L|284:304,1,55
204,292,134903,2,0,P|144:272|136:228,1,110
128,148,135353,1,0,0:0:0:0:
148,68,135503,2,0,P|188:56|208:60,1,55
448,44,136103,6,0,P|452:72|416:144,1,110
256,108,136703,1,0,0:0:0:0:
256,272,137003,1,0,0:0:0:0:
172,264,137153,2,0,P|132:244|128:176,1,110
140,104,137603,1,0,0:0:0:0:
304,100,137903,6,0,P|340:132|360:212,1,110
256,272,138503,1,0,0:0:0:0:
92,272,138803,2,0,P|20:256|4:212,1,110
28,148,139253,1,0,0:0:0:0:
112,140,139403,2,0,P|128:168|192:136,1,110
272,148,139853,1,0,0:0:0:0:
336,96,140003,1,0,0:0:0:0:
404,48,140153,2,0,L|456:152,1,110
440,228,140603,1,0,0:0:0:0:
288,292,140903,6,0,P|240:288|184:240,1,110
192,168,141353,1,0,0:0:0:0:
204,88,141503,2,0,P|232:56|300:48,1,110
380,188,142103,1,0,0:0:0:0:
256,300,142403,1,0,0:0:0:0:
132,192,142703,1,0,0:0:0:0:
256,76,143003,1,0,0:0:0:0:
256,240,143303,6,0,L|188:252,1,55
120,240,143603,1,0,0:0:0:0:
140,160,143753,2,0,L|164:104,1,55
224,164,144053,1,0,0:0:0:0:
300,192,144203,2,0,L|328:132,1,55
376,204,144503,1,0,0:0:0:0:
448,240,144653,2,0,L|400:288,1,55
328,288,144953,1,0,0:0:0:0:
248,308,145103,2,0,P|188:316|136:288,1,110
92,232,145703,1,0,0:0:0:0:
464,24,155303,5,0,0:0:0:0:
400,76,155603,1,0,0:0:0:0:
408,160,155903,2,0,L|368:204,1,55
372,240,156353,2,0,L|368:276,3,27.5,0|0|0|0,0:0|0:0|0:0|0:0,0:0:0:0:
301,315,157103,2,0,P|247:335|242:333,1,55
212,265,157703,5,0,0:0:0:0:
273,210,158003,1,0,0:0:0:0:
273,127,158303,2,0,P|258:106|225:97,1,55
251,60,158753,2,0,L|282:52,3,27.5,0|0|0|0,0:0|0:0|0:0|0:0,0:0:0:0:
359,63,159503,2,0,P|386:83|396:106,1,55
402,184,160103,6,0,P|399:206|371:227,1,55
299,191,160703,1,0,0:0:0:0:
228,148,161003,1,0,0:0:0:0:
97,228,162503,6,0,P|102:254|133:276,1,55
183,216,163103,1,0,0:0:0:0:
258,182,163403,1,0,0:0:0:0:
256,52,176903,6,0,P|236:72|224:112,1,55
260,168,177203,1,0,0:0:0:0:
260,332,177503,1,0,0:0:0:0:
180,308,177653,5,0,0:0:0:0:
120,252,177803,2,0,P|112:216|128:200,1,55
96,124,178103,1,0,0:0:0:0:
252,68,178403,6,0,P|284:64|312:76,1,55
352,140,178703,2,0,P|360:176|392:204,1,55
128,244,179303,6,0,P|72:220|56:176,1,110
184,72,179903,1,0,0:0:0:0:
348,64,180203,1,0,0:0:0:0:
412,116,180353,2,0,P|420:156|388:236,1,110
320,240,180803,1,0,0:0:0:0:
248,92,181103,6,0,P|196:88|180:100,1,55,0|0,0:0|0:0,0:0:0:0:
124,128,181403,2,0,P|104:168|108:192,1,55
100,260,181703,2,0,P|112:296|188:296,1,110
256,160,182303,1,0,0:0:0:0:
376,48,182603,1,0,0:0:0:0:
500,156,182903,6,0,P|488:192|464:216,1,55
416,260,183203,2,0,P|380:280|360:280,1,55
284,284,183503,2,0,P|240:288|196:232,1,110
252,88,184103,6,0,P|216:84|152:116,1,110
136,196,184553,1,0,0:0:0:0:
52,188,184703,2,0,P|24:200|24:276,1,110
92,308,185303,5,0,0:0:0:0:
172,296,185603,1,0,0:0:0:0:
244,256,185903,1,0,0:0:0:0:
296,192,186203,1,0,0:0:0:0:
256,32,186503,6,0,P|300:32|352:72,1,110
416,120,186953,2,0,P|436:148|424:232,1,110
368,272,187403,2,0,P|336:292|248:284,1,110
188,264,187853,2,0,P|156:244|152:168,1,110
160,104,188303,2,0,P|188:76|264:68,1,110
420,178,188903,6,0,L|455:220,1,55
394,257,189353,2,0,L|358:214,1,55
92,178,189803,6,0,L|56:220,1,55
118,257,190253,2,0,L|153:214,1,55
256,115,190703,6,0,L|255:184,1,55,0|0,0:0|0:0,0:0:0:0:
435,54,191303,1,0,0:0:0:0:
