osu file format v13

[General]
AudioFilename: Dispel.mp3
AudioLeadIn: 0
PreviewTime: 124103
Countdown: 0
SampleSet: Normal
StackLeniency: 0.7
Mode: 0
LetterboxInBreaks: 1
WidescreenStoryboard: 1

[Editor]
DistanceSpacing: 1.3
BeatDivisor: 4
GridSize: 8
TimelineZoom: 1

[Metadata]
Title:Dispel
TitleUnicode:Dispel
Artist:Nakamura Meiko
ArtistUnicode:仲村芽衣子
Creator:reyder
Version:Easy
Source:
Tags:Levitation pkmnyab
BeatmapID:372753
BeatmapSetID:141522

[Difficulty]
HPDrainRate:2
CircleSize:3
OverallDifficulty:2
ApproachRate:2
SliderMultiplier:0.499999999999999
SliderTickRate:1

[Events]
//Background and Video events
0,0,"Dispel Background.jpg",0,0
//Break Periods
2,40003,48143
2,84852,92543
2,103603,111743
2,145603,153743
2,167153,175343
//Storyboard Layer 0 (Background)
//Storyboard Layer 1 (Fail)
//Storyboard Layer 2 (Pass)
//Storyboard Layer 3 (Foreground)
//Storyboard Sound Samples
//Background Colour Transformations
3,100,163,162,255

[TimingPoints]
20903,300,4,1,0,70,1,0
20903,-100,4,2,0,70,0,0
40103,-200,4,2,0,70,0,0
49703,-100,4,2,0,70,0,0
60503,-100,4,1,0,45,0,1
81953,-100,4,1,0,45,0,0
94103,-100,4,2,0,70,0,0
104003,-200,4,2,0,70,0,0
104103,-200,4,2,0,70,0,0
113303,-100,4,2,0,70,0,0
123503,-100,4,1,0,45,0,0
124103,-100,4,1,0,45,0,1
133103,-200,4,1,0,45,0,1
133703,-100,4,1,0,45,0,1
145403,-200,4,1,0,45,0,1
145703,-100,4,2,0,70,0,0
155903,-200,4,1,0,70,0,0
156203,-100,4,2,0,70,0,0
157103,-100,4,1,0,70,0,0
157703,-100,4,2,0,70,0,0
158303,-100,4,1,0,70,0,0
158603,-100,4,2,0,70,0,0
159503,-100,4,1,0,70,0,0
160103,-100,4,2,0,70,0,0
161003,-100,4,1,0,70,0,0
161603,-100,4,2,0,70,0,0
163403,-100,4,1,0,70,0,0
176903,-100,4,1,0,45,0,1
185303,-100,4,1,0,45,0,1
186503,-100,4,1,0,45,0,1
188903,-100,4,1,0,45,0,0

[Colours]
Combo1 : 128,64,64
Combo2 : 128,0,0
Combo3 : 74,0,0
Combo4 : 230,0,0

[HitObjects]
448,40,20903,6,0,P|448:88|424:136,1,99.9999999999999,0|8,0:0|0:0,0:0:0:0:
303,89,22103,1,0,0:0:0:0:
271,216,22703,1,8,0:0:0:0:
184,120,23303,2,0,P|152:152|152:208,3,99.9999999999999,0|8|0|8,0:0|0:0|0:0|0:0,0:0:0:0:
280,227,25703,5,0,0:0:0:0:
274,96,26303,2,0,L|296:72,3,25,8|0|0|0,0:0|0:0|0:0|0:0,0:0:0:0:
178,66,27203,6,0,P|154:49|130:41,2,49.9999999999999,0|8|0,0:0|0:0|0:0,0:0:0:0:
129,109,28103,6,0,P|161:141|217:149,1,99.9999999999998,0|8,0:0|0:0,0:0:0:0:
312,65,29303,2,0,P|344:65|400:113,1,99.9999999999998,0|8,0:0|0:0,0:0:0:0:
430,230,30503,6,0,P|398:246|334:238,1,99.9999999999998,0|8,0:0|0:0,0:0:0:0:
261,133,31703,1,0,0:0:0:0:
261,264,32303,1,8,0:0:0:0:
151,193,32903,2,0,P|111:177|95:121,1,99.9999999999998,0|8,0:0|0:0,0:0:0:0:
176,24,34103,2,0,P|216:40|232:96,1,99.9999999999998,0|8,0:0|0:0,0:0:0:0:
244,221,35303,6,0,P|196:245|116:197,1,150,0|8,0:0|0:0,0:0:0:0:
115,136,36503,2,0,P|139:88|235:64,1,150,0|8,0:0|0:0,0:0:0:0:
256,192,37703,12,0,39803,0:0:0:0:
48,64,49703,6,0,P|96:64|144:96,1,99.9999999999998,0|8,0:0|0:0,0:0:0:0:
256,146,50903,6,0,P|302:160|320:205,1,99.9999999999998,0|8,0:0|0:0,0:0:0:0:
281,257,51803,1,0,0:0:0:0:
216,266,52103,6,0,P|168:250|152:202,1,99.9999999999998,0|8,0:0|0:0,0:0:0:0:
257,129,53303,2,0,P|257:81|305:57,1,99.9999999999998,0|8,0:0|0:0,0:0:0:0:
404,133,54503,6,0,P|404:189|372:221,1,99.9999999999998,0|8,0:0|0:0,0:0:0:0:
319,185,55403,1,0,0:0:0:0:
254,194,55703,2,0,P|214:234|214:274,1,99.9999999999998,0|8,0:0|0:0,0:0:0:0:
161,313,56603,1,0,0:0:0:0:
96,320,56903,2,0,P|40:304|24:264,1,99.9999999999998,0|8,0:0|0:0,0:0:0:0:
256,192,57803,12,0,59303,0:0:0:0:
256,48,59903,6,0,P|256:80|264:104,1,49.9999999999999
259,162,60503,6,8,P|259:194|203:234,1,99.9999999999998
86,195,61703,2,8,P|46:227|46:283,1,99.9999999999998
163,322,62903,2,8,P|219:322|259:290,1,99.9999999999998
227,226,63803,2,0,L|227:170,3,49.9999999999999,0|8|0|8,0:0|0:0|0:0|0:0,0:0:0:0:
370,131,65303,6,8,P|346:91|290:75,1,99.9999999999998
224,64,66203,1,0,0:0:0:0:
168,96,66503,2,8,P|128:136|136:176,1,99.9999999999998
168,304,67703,6,8,P|200:352|248:360,1,99.9999999999998
328,272,68903,2,8,P|368:232|384:184,1,99.9999999999998
368,128,69803,1,0,0:0:0:0:
320,80,70103,6,8,P|280:48|224:48,1,99.9999999999998
112,96,71303,2,8,P|112:160|144:184,1,99.9999999999998
248,248,72503,2,8,P|304:240|336:200,3,99.9999999999998
416,109,74903,6,8,P|408:53|376:21,1,99.9999999999998
248,29,76103,2,8,P|192:29|152:61,1,99.9999999999998
128,111,77003,1,0,0:0:0:0:
128,176,77303,2,8,P|144:224|184:256,1,99.9999999999998
296,192,78503,6,0,L|336:152,3,49.9999999999999
256,192,79703,12,0,81803,0:0:0:0:
256,192,82103,6,0,P|312:192|352:168,1,99.9999999999998
341,40,83303,2,0,P|285:40|245:64,1,99.9999999999998
184,176,84503,2,0,L|200:208,1,25
256,48,94103,6,8,P|200:48|152:64,1,99.9999999999998
160,192,95303,2,0,P|200:224|256:224,1,99.9999999999998,8|8,0:0|0:0,0:0:0:0:
360,161,96503,2,8,P|416:161|448:201,1,99.9999999999998
437,256,97403,1,0,0:0:0:0:
377,282,97703,2,8,P|329:298|281:290,1,99.9999999999998
234,167,98903,6,8,P|210:119|162:103,1,99.9999999999998
112,136,99803,1,0,0:0:0:0:
99,200,100103,2,8,P|107:256|147:288,1,99.9999999999998
200,304,101003,1,0,0:0:0:0:
256,192,101303,12,8,103403,0:0:0:0:
48,72,113303,6,8,P|88:112|136:120,1,99.9999999999998
259,106,114503,2,8,P|315:122|347:154,1,99.9999999999998
298,273,115703,2,8,P|258:305|210:305,1,99.9999999999998
157,270,116603,1,0,0:0:0:0:
116,219,116903,2,8,P|124:163|156:139,1,99.9999999999998
287,123,118103,6,8,P|330:101|379:106,1,99.9999999999998
451,215,119303,2,8,P|402:220|359:198,1,99.9999999999998
256,192,120503,12,0,122903,0:0:0:0:
122,78,123503,6,0,P|146:110|146:126,1,49.9999999999999
184,172,124103,2,0,P|216:212|272:212,1,99.9999999999998,0|8,0:0|0:0,0:0:0:0:
385,170,125303,2,0,P|433:194|449:242,1,99.9999999999998,0|8,0:0|0:0,0:0:0:0:
430,298,126203,1,0,0:0:0:0:
368,320,126503,2,0,P|312:304|288:264,1,99.9999999999998,0|8,0:0|0:0,0:0:0:0:
269,209,127403,1,0,0:0:0:0:
243,149,127703,2,0,L|219:101|217:97,2,49.9999999999999,0|0|8,0:0|0:0|0:0,0:0:0:0:
336,56,128903,6,0,P|392:40|440:48,1,99.9999999999998,0|8,0:0|0:0,0:0:0:0:
485,166,130103,2,0,P|469:222|429:254,1,99.9999999999998,0|8,0:0|0:0,0:0:0:0:
312,216,131303,2,0,P|256:192|208:192,1,99.9999999999998,0|8,0:0|0:0,0:0:0:0:
152,194,132203,1,0,0:0:0:0:
96,160,132503,2,0,P|72:104|80:64,1,99.9999999999998,0|8,0:0|0:0,0:0:0:0:
111,63,133403,1,8,0:0:0:0:
176,63,133703,6,0,P|232:63|272:79,1,99.9999999999998,0|8,0:0|0:0,0:0:0:0:
342,188,134903,2,0,P|342:244|310:268,1,99.9999999999998,0|8,0:0|0:0,0:0:0:0:
189,216,136103,2,0,P|133:214|93:192,1,99.9999999999998,0|8,0:0|0:0,0:0:0:0:
116,131,137003,1,0,0:0:0:0:
173,99,137303,2,0,P|229:83|277:91,1,99.9999999999998,0|8,0:0|0:0,0:0:0:0:
392,136,138503,6,0,P|400:192|376:232,1,99.9999999999998,0|8,0:0|0:0,0:0:0:0:
248,216,139703,2,0,P|248:160|216:120,1,99.9999999999998,0|8,0:0|0:0,0:0:0:0:
98,159,140903,2,0,P|98:215|122:255,1,99.9999999999998,0|8,0:0|0:0,0:0:0:0:
183,267,141803,1,0,0:0:0:0:
248,256,142103,2,0,L|296:240,3,49.9999999999999,0|8|0|8,0:0|0:0|0:0|0:0,0:0:0:0:
256,192,143303,12,0,145403,0:0:0:0:
144,152,155303,6,0,P|192:128|240:136,1,99.9999999999998,0|0,0:0|0:0,0:0:0:0:
359,176,156503,2,0,P|399:144|399:96,1,99.9999999999998,0|0,0:0|0:0,0:0:0:0:
344,64,157403,1,0,0:0:0:0:
281,47,157703,2,0,P|233:71|209:119,1,99.9999999999998
195,240,158903,2,0,P|171:288|123:288,1,99.9999999999998
79,249,159803,1,0,0:0:0:0:
59,186,160103,6,0,P|56:132|83:83,1,99.9999999999998
126,50,161003,1,0,0:0:0:0:
183,81,161303,1,0,0:0:0:0:
415,198,162503,6,0,P|391:150|359:118,1,99.9999999999998
338,55,163403,1,0,0:0:0:0:
274,68,163703,1,0,0:0:0:0:
293,142,176903,6,0,P|349:118|381:142,1,99.9999999999998,0|8,0:0|0:0,0:0:0:0:
409,264,178103,2,0,P|377:304|321:304,1,99.9999999999998,0|8,0:0|0:0,0:0:0:0:
201,284,179303,2,0,P|169:244|185:196,1,99.9999999999998,0|8,0:0|0:0,0:0:0:0:
187,135,180203,1,0,0:0:0:0:
231,87,180503,2,0,P|287:63|327:79,1,99.9999999999998,0|8,0:0|0:0,0:0:0:0:
360,127,181403,5,0,0:0:0:0:
360,192,181703,2,0,P|344:248|304:272,1,99.9999999999998,0|8,0:0|0:0,0:0:0:0:
253,153,182903,2,0,P|196:92|184:92,1,99.9999999999998,0|8,0:0|0:0,0:0:0:0:
133,128,183803,1,0,0:0:0:0:
169,182,184103,2,0,P|193:230|233:254,1,99.9999999999998,0|8,0:0|0:0,0:0:0:0:
358,224,185303,6,8,L|406:200,3,49.9999999999999,8|8|8|8,0:0|0:0|0:0|0:0,0:0:0:0:
256,192,186503,12,0,188303,0:0:0:0:
256,72,188903,6,0,P|224:80|184:136,3,99.9999999999998,8|8|8|8,0:0|0:0|0:0|0:0,0:0:0:0:
280,216,191303,1,8,0:0:0:0:
