osu file format v12

[General]
AudioFilename: EndingCut.mp3
AudioLeadIn: 0
PreviewTime: 99510
Countdown: 0
SampleSet: Soft
StackLeniency: 0.7
Mode: 0
LetterboxInBreaks: 0
EpilepsyWarning: 1

[Editor]
DistanceSpacing: 1.1
BeatDivisor: 4
GridSize: 4

[Metadata]
Title:Across the Destiny
TitleUnicode:Across the Destiny
Artist:Nakamura Meiko
ArtistUnicode:仲村芽衣子
Creator:baldrace
Version:Hard
Source:BALDR SKY Dive X "DREAM WORLD"
Tags:GIGA BALDR SKY TEAM BALDRHEAD Sweet Vanilla [CSGA]Ar3sgice
BeatmapID:261852
BeatmapSetID:98096

[Difficulty]
HPDrainRate:5
CircleSize:4
OverallDifficulty:6
ApproachRate:7
SliderMultiplier:1.6
SliderTickRate:1

[Events]
//Background and Video events
0,0,"BGB.jpg",0,0
//Break Periods
2,31597,33557
//Storyboard Layer 0 (Background)
//Storyboard Layer 1 (Fail)
//Storyboard Layer 2 (Pass)
//Storyboard Layer 3 (Foreground)
//Storyboard Sound Samples
//Background Colour Transformations
3,100,163,162,255

[TimingPoints]
1159,476.190476190476,4,2,4,50,1,0
80444,-100,4,2,1,50,0,0
100206,-100,4,2,4,60,0,1
130682,-100,4,2,4,50,0,0

[Colours]
Combo1 : 255,255,0
Combo2 : 0,255,255
Combo3 : 255,128,255
Combo4 : 128,0,255

[HitObjects]
28,192,16397,2,0,P|84:284|208:320,1,240,2|2,0:0|0:0,0:0:0:0:
380,316,17587,1,2,0:0:0:0:
452,156,18063,1,0,0:0:0:0:
452,156,18301,2,0,P|492:96|424:24,1,160,2|0,0:0|0:0,0:0:0:0:
360,32,19016,1,2,0:0:0:0:
193,73,19492,1,2,0:0:0:0:
20,208,20087,5,2,0:0:0:0:
20,208,20206,2,0,P|76:220|100:216,1,80,2|0,0:0|0:0,0:0:0:0:
184,208,20682,1,0,0:0:0:0:
355,169,21158,1,2,0:0:0:0:
412,336,21635,2,0,P|356:352|324:340,1,80
256,312,22111,5,2,0:0:0:0:
172,288,22349,1,2,0:0:0:0:
84,304,22587,1,0,0:0:0:0:
76,216,22825,1,2,0:0:0:0:
44,132,23063,2,0,L|16:96,2,40
244,40,23897,5,2,0:0:0:0:
244,40,24016,1,2,0:0:0:0:
384,144,24492,1,2,0:0:0:0:
384,144,24968,1,2,0:0:0:0:
292,296,25444,1,2,0:0:0:0:
292,296,25920,1,2,0:0:0:0:
116,268,26397,5,2,0:0:0:0:
116,268,26873,1,2,0:0:0:0:
244,148,27349,1,2,0:0:0:0:
244,148,27587,1,2,0:0:0:0:
244,148,27825,2,0,P|280:172|292:224,1,80,2|0,0:0|0:0,0:0:0:0:
380,224,28301,2,0,P|420:188|460:188,1,80,2|0,0:0|0:0,0:0:0:0:
453,97,28778,2,0,P|421:77|405:29,1,80,2|0,0:0|0:0,0:0:0:0:
318,25,29254,2,0,P|285:56|234:61,1,80,2|0,0:0|0:0,0:0:0:0:
165,48,29730,5,2,0:0:0:0:
96,103,29968,1,0,0:0:0:0:
142,177,30206,1,2,0:0:0:0:
68,224,30444,1,0,0:0:0:0:
96,308,30682,2,0,L|64:348,2,40,0|0|0,0:0|0:0|0:0,0:0:0:0:
184,316,31158,1,2,0:0:0:0:
184,316,31397,1,2,0:0:0:0:
404,88,34968,5,8,0:0:0:0:
404,88,35444,5,6,0:0:0:0:
320,56,35682,1,0,0:0:0:0:
329,146,35920,2,0,P|348:214|296:292,1,160,8|2,0:0|0:0,0:0:0:0:
228,332,36635,1,0,0:0:0:0:
208,248,36873,1,8,0:0:0:0:
136,296,37111,1,0,0:0:0:0:
98,275,37230,1,0,0:0:0:0:
76,235,37349,2,0,P|49:177|50:143,2,80,2|0|8,0:0|0:0|0:0,0:0:0:0:
64,60,38301,6,0,P|108:108|200:136,1,160,2|10,0:0|0:0,0:0:0:0:
244,64,39016,1,2,0:0:0:0:
292,136,39254,2,0,P|348:104|364:80,2,80,2|0|8,0:0|0:0|0:0,0:0:0:0:
468,140,40206,1,2,0:0:0:0:
468,140,40444,1,0,0:0:0:0:
472,52,40682,1,8,0:0:0:0:
388,204,41039,1,2,0:0:0:0:
388,204,41158,6,0,P|448:244|484:244,2,80,2|2|10,0:0|0:0|0:0,0:0:0:0:
332,272,41873,1,0,0:0:0:0:
252,308,42111,2,0,P|204:316|164:288,1,80
108,252,42587,1,10,0:0:0:0:
76,220,42706,1,2,0:0:0:0:
68,176,42825,1,10,0:0:0:0:
68,176,43063,6,0,P|124:184|232:164,1,160,2|8,0:0|0:0,0:0:0:0:
288,228,43778,1,0,0:0:0:0:
288,228,44016,2,0,P|272:136|296:72,1,160,2|8,0:0|0:0,0:0:0:0:
236,8,44730,1,0,0:0:0:0:
236,8,44968,6,0,P|296:24|392:16,1,160,2|8,0:0|0:0,0:0:0:0:
480,28,45682,1,0,0:0:0:0:
392,16,45920,2,0,P|384:92|416:172,1,160,2|8,0:0|0:0,0:0:0:0:
444,252,46635,1,10,0:0:0:0:
280,308,46873,5,2,0:0:0:0:
364,288,47111,1,2,0:0:0:0:
280,308,47349,1,8,0:0:0:0:
104,324,47825,5,2,0:0:0:0:
132,240,48063,1,2,0:0:0:0:
44,252,48301,1,10,0:0:0:0:
156,116,48778,5,2,0:0:0:0:
100,48,49016,1,2,0:0:0:0:
156,116,49254,2,0,P|224:92|244:92,1,80,8|0,0:0|0:0,0:0:0:0:
276,96,49611,1,0,0:0:0:0:
320,96,49730,2,0,L|368:72,3,40
480,204,50563,5,2,0:0:0:0:
480,204,50682,2,0,P|444:256|416:272,1,80,2|0,0:0|0:0,0:0:0:0:
348,296,51158,1,8,0:0:0:0:
264,272,51397,1,0,0:0:0:0:
264,272,51516,2,0,P|212:304|148:316,1,120
28,208,52111,1,8,0:0:0:0:
72,284,52349,6,0,P|123:231|146:140,1,160
104,71,53063,2,0,P|153:107|218:113,1,120,8|0,0:0|0:0,0:0:0:0:
243,85,53539,1,0,0:0:0:0:
331,90,53778,1,0,0:0:0:0:
404,40,54016,1,8,0:0:0:0:
472,96,54254,6,0,P|484:160|460:252,1,160
388,200,54968,1,8,0:0:0:0:
356,284,55206,1,0,0:0:0:0:
356,284,55325,2,0,P|288:328|240:336,1,120
224,252,55920,1,8,0:0:0:0:
154,305,56158,1,0,0:0:0:0:
224,252,56397,6,0,P|244:192|240:124,1,120,2|0,0:0|0:0,0:0:0:0:
240,92,56873,2,0,P|200:48|156:40,1,80,8|0,0:0|0:0,0:0:0:0:
96,52,57349,1,0,0:0:0:0:
56,132,57587,2,0,P|40:172|32:240,1,80,0|10,0:0|0:0,0:0:0:0:
24,252,57944,1,0,0:0:0:0:
55,285,58063,1,2,0:0:0:0:
114,350,58301,6,0,L|74:390,2,40,6|0|0,0:0|0:0|0:0,0:0:0:0:
162,276,58778,1,8,0:0:0:0:
244,308,59016,1,0,0:0:0:0:
244,308,59135,2,0,P|312:292|364:288,1,120
448,304,59730,1,8,0:0:0:0:
468,220,59968,6,0,P|472:144|432:56,1,160
356,40,60682,1,8,0:0:0:0:
268,52,60920,1,0,0:0:0:0:
356,40,61158,1,2,0:0:0:0:
320,120,61397,1,0,0:0:0:0:
232,132,61635,2,0,P|192:106|185:53,2,80,8|0|0,0:0|0:0|0:0,0:0:0:0:
56,148,62587,5,8,0:0:0:0:
116,212,62825,2,0,P|196:224|208:232,1,80,0|2,0:0|0:0,0:0:0:0:
280,220,63301,1,0,0:0:0:0:
368,200,63539,1,8,0:0:0:0:
456,220,63778,1,0,0:0:0:0:
456,220,63897,1,0,0:0:0:0:
456,220,64016,6,0,P|464:276|440:344,1,120,2|0,0:0|0:0,0:0:0:0:
400,336,64492,2,0,P|340:320|288:340,1,120,8|0,0:0|0:0,0:0:0:0:
248,320,64968,2,0,P|256:236|236:184,1,120
248,160,65444,1,8,0:0:0:0:
248,160,65682,1,8,0:0:0:0:
300,88,65920,5,4,0:0:0:0:
128,48,66397,5,8,0:0:0:0:
76,120,66635,1,0,0:0:0:0:
76,120,66754,2,0,P|56:184|64:232,1,80
68,240,67111,2,0,P|72:292|64:324,2,80,0|8|0,0:0|0:0|0:0,0:0:0:0:
153,262,67825,5,2,0:0:0:0:
236,290,68063,1,0,0:0:0:0:
320,300,68301,2,0,P|380:300|412:284,1,80,8|0,0:0|0:0,0:0:0:0:
440,308,68658,1,0,0:0:0:0:
440,308,68778,2,0,P|460:244|464:204,1,80,2|0,0:0|0:0,0:0:0:0:
420,88,69254,1,8,0:0:0:0:
484,148,69492,1,0,0:0:0:0:
400,168,69730,6,0,L|372:196,2,40,2|0|0,0:0|0:0|0:0,0:0:0:0:
336,108,70206,2,0,L|292:140,1,40,8|0,0:0|0:0,0:0:0:0:
268,156,70444,1,0,0:0:0:0:
268,156,70563,2,0,P|240:172|136:208,1,120
72,212,71158,2,0,P|48:156|56:116,1,80,8|0,0:0|0:0,0:0:0:0:
124,92,71635,6,0,P|204:84|260:48,1,120,2|0,0:0|0:0,0:0:0:0:
276,44,72111,1,8,0:0:0:0:
320,120,72349,2,0,P|372:108|412:84,1,80,0|2,0:0|0:0,0:0:0:0:
476,136,72825,1,0,0:0:0:0:
476,136,72944,1,0,0:0:0:0:
476,136,73063,1,8,0:0:0:0:
400,184,73301,1,0,0:0:0:0:
400,184,73539,6,0,P|339:217|274:192,1,120,2|0,0:0|0:0,0:0:0:0:
248,204,74016,1,8,0:0:0:0:
248,204,74254,2,0,P|187:227|163:245,1,80,0|2,0:0|0:0,0:0:0:0:
46,285,74730,1,0,0:0:0:0:
131,311,74968,1,8,0:0:0:0:
40,196,75206,1,0,0:0:0:0:
96,128,75444,6,0,P|140:108|176:60,1,80,2|0,0:0|0:0,0:0:0:0:
248,72,75920,2,0,L|240:28,2,40,8|0|0,0:0|0:0|0:0,0:0:0:0:
336,88,76397,1,6,0:0:0:0:
280,156,76635,1,0,0:0:0:0:
280,156,76754,2,0,P|296:220|320:264,1,80,0|2,0:0|0:0,0:0:0:0:
337,258,77111,1,2,0:0:0:0:
292,333,77349,6,0,P|431:322|448:296,1,160,4|8,0:0|0:0,0:0:0:0:
487,246,78063,1,0,0:0:0:0:
466,207,78182,1,0,0:0:0:0:
444,168,78301,1,2,0:0:0:0:
386,101,78539,2,0,P|329:108|298:100,1,80,2|10,0:0|0:0,0:0:0:0:
220,88,79016,2,0,P|171:78|146:62,2,80,0|2|2,0:0|0:0|0:0,0:0:0:0:
224,132,79611,1,0,0:0:0:0:
232,176,79730,2,0,P|248:227|238:277,1,80,10|0,0:0|0:0,0:0:0:0:
282,335,80206,1,2,0:0:0:0:
282,335,80444,1,2,0:0:0:0:
368,320,80682,5,2,0:0:0:0:
392,236,80920,1,0,0:0:0:0:
392,148,81158,2,0,P|388:100|408:56,2,80,6|0|0,0:0|0:0|0:0,0:0:0:0:
304,144,81873,1,0,0:0:0:0:
240,84,82111,2,0,P|188:108|136:112,1,80,2|0,0:0|0:0,0:0:0:0:
124,124,82468,2,0,P|92:160|76:220,1,80
89,232,82825,1,0,0:0:0:0:
6,262,83063,6,0,P|70:330|142:350,1,160,2|0,0:0|0:0,0:0:0:0:
216,324,83778,1,0,0:0:0:0:
216,324,84016,2,0,P|232:268|268:244,2,80,2|0|10,0:0|0:0|0:0,0:0:0:0:
304,324,84730,1,0,0:0:0:0:
304,324,84968,6,0,P|376:320|432:284,1,120,2|0,0:0|0:0,0:0:0:0:
456,316,85444,1,8,0:0:0:0:
384,220,85682,1,0,0:0:0:0:
384,220,85920,2,0,P|416:144|424:100,1,120,2|0,0:0|0:0,0:0:0:0:
467,107,86397,1,8,0:0:0:0:
356,64,86635,1,0,0:0:0:0:
356,64,86873,6,0,P|292:84|192:96,1,160,2|8,0:0|0:0,0:0:0:0:
116,68,87587,2,0,P|156:120|172:240,1,160,2|0,0:0|0:0,0:0:0:0:
104,264,88301,2,0,P|160:300|224:280,1,120,8|0,0:0|0:0,0:0:0:0:
252,280,88778,6,0,P|296:268|408:280,1,160,6|8,0:0|0:0,0:0:0:0:
492,255,89492,1,0,0:0:0:0:
440,184,89730,2,0,P|420:128|480:48,2,160,2|8|2,0:0|0:0|0:0,0:0:0:0:
308,68,91158,5,8,0:0:0:0:
308,68,91397,1,0,0:0:0:0:
220,84,91635,1,6,0:0:0:0:
89,101,91992,1,4,0:0:0:0:
31,220,92349,1,4,0:0:0:0:
31,220,92587,6,0,P|94:264|114:313,1,120,6|0,0:0|0:0,0:0:0:0:
155,308,93063,1,8,0:0:0:0:
196,232,93301,2,0,L|192:184,2,40,0|0|2,0:0|0:0|0:0,0:0:0:0:
252,300,93778,1,0,0:0:0:0:
332,336,94016,1,8,0:0:0:0:
408,292,94254,6,0,P|436:248|426:132,1,160,2|0,0:0|0:0,0:0:0:0:
410,105,94849,1,0,0:0:0:0:
384,69,94968,1,8,0:0:0:0:
296,60,95206,2,0,P|244:44|192:52,1,80,0|2,0:0|0:0,0:0:0:0:
140,84,95682,1,0,0:0:0:0:
140,84,95801,1,0,0:0:0:0:
140,84,95920,1,8,0:0:0:0:
72,136,96158,1,0,0:0:0:0:
72,136,96397,6,0,P|108:168|228:168,1,160,2|0,0:0|0:0,0:0:0:0:
300,168,97111,1,0,0:0:0:0:
340,184,97230,1,0,0:0:0:0:
360,224,97349,5,8,0:0:0:0:
320,348,97706,1,8,0:0:0:0:
216,268,98063,1,8,0:0:0:0:
48,216,98539,5,4,0:0:0:0:
48,216,98778,1,6,0:0:0:0:
364,104,99730,6,0,L|360:64,1,40,2|0,0:0|0:0,0:0:0:0:
368,148,99968,1,0,0:0:0:0:
418,220,100206,2,0,P|452:161|441:62,1,160,4|8,0:0|0:0,0:0:0:0:
364,104,100920,1,8,0:0:0:0:
364,104,101158,2,0,P|272:120|208:100,1,160,2|8,0:0|0:0,0:0:0:0:
124,80,101873,1,0,0:0:0:0:
48,120,102111,6,0,P|52:168|83:199,1,80,6|0,0:0|0:0,0:0:0:0:
113,179,102468,2,0,P|162:215|165:295,1,120,8|0,0:0|0:0,0:0:0:0:
85,265,103063,2,0,P|105:339|208:341,1,160,0|8,0:0|0:0,0:0:0:0:
265,343,103778,1,0,0:0:0:0:
265,343,103897,1,0,0:0:0:0:
265,343,104016,6,0,P|309:287|389:255,1,160,6|8,0:0|0:0,0:0:0:0:
475,234,104730,1,8,0:0:0:0:
475,234,104968,2,0,P|447:190|447:150,1,80,2|0,0:0|0:0,0:0:0:0:
455,122,105325,1,0,0:0:0:0:
455,122,105444,2,0,P|475:70|467:34,2,80,8|0|4,0:0|0:0|0:0,0:0:0:0:
367,133,106158,5,0,0:0:0:0:
313,203,106397,1,8,0:0:0:0:
243,257,106635,1,0,0:0:0:0:
161,290,106873,2,0,P|113:281|63:311,1,80,2|0,0:0|0:0,0:0:0:0:
61,269,107230,1,0,0:0:0:0:
75,240,107349,1,10,0:0:0:0:
77,208,107468,1,0,0:0:0:0:
69,176,107587,1,0,0:0:0:0:
56,146,107706,1,0,0:0:0:0:
36,120,107825,6,0,P|125:113|190:76,1,160,6|10,0:0|0:0,0:0:0:0:
268,48,108539,1,0,0:0:0:0:
268,48,108778,2,0,P|324:60|388:108,1,120,2|0,0:0|0:0,0:0:0:0:
375,94,109254,1,8,0:0:0:0:
433,29,109492,1,0,0:0:0:0:
433,29,109730,6,0,P|425:89|453:193,1,160,6|8,0:0|0:0,0:0:0:0:
388,248,110444,1,0,0:0:0:0:
307,210,110682,1,0,0:0:0:0:
244,275,110920,1,0,0:0:0:0:
288,351,111158,1,8,0:0:0:0:
374,335,111397,1,0,0:0:0:0:
454,298,111635,6,0,L|508:312,2,40,6|0|0,0:0|0:0|0:0,0:0:0:0:
471,211,112111,2,0,P|443:167|375:151,1,120,8|0,0:0|0:0,0:0:0:0:
341,130,112587,2,0,P|329:86|377:18,2,120,2|8|10,0:0|0:0|0:0,0:0:0:0:
284,196,113539,5,6,0:0:0:0:
216,256,113778,1,0,0:0:0:0:
136,292,114016,1,8,0:0:0:0:
136,292,114135,1,0,0:0:0:0:
48,308,114373,1,2,0:0:0:0:
48,308,114492,2,0,P|60:244|80:220,1,80,10|0,0:0|0:0,0:0:0:0:
60,144,114968,1,8,0:0:0:0:
60,144,115087,1,2,0:0:0:0:
60,144,115206,2,0,L|0:164,1,40,2|2,0:0|0:0,0:0:0:0:
60,60,115444,6,0,P|120:72|220:56,1,160,6|8,0:0|0:0,0:0:0:0:
304,48,116158,1,0,0:0:0:0:
304,48,116397,2,0,P|360:56|436:142,1,160,2|8,0:0|0:0,0:0:0:0:
388,203,117111,1,0,0:0:0:0:
456,260,117349,6,0,P|424:292|348:304,1,120,6|0,0:0|0:0,0:0:0:0:
320,332,117825,1,8,0:0:0:0:
240,296,118063,1,0,0:0:0:0:
158,328,118301,2,0,P|112:324|63:298,1,80
52,277,118658,1,0,0:0:0:0:
32,237,118778,1,8,0:0:0:0:
68,156,119016,5,2,0:0:0:0:
80,112,119135,1,0,0:0:0:0:
56,76,119254,2,0,P|128:64|168:32,1,120,6|0,0:0|0:0,0:0:0:0:
208,40,119730,2,0,P|272:56|336:36,1,120,8|0,0:0|0:0,0:0:0:0:
364,60,120206,2,0,P|424:76|456:132,1,120,2|0,0:0|0:0,0:0:0:0:
396,176,120682,1,8,0:0:0:0:
480,196,120920,1,0,0:0:0:0:
424,268,121158,5,2,0:0:0:0:
424,268,121278,1,0,0:0:0:0:
424,268,121397,2,0,P|443:325|440:352,2,80,0|8|0,0:0|0:0|0:0,0:0:0:0:
352,316,122111,2,0,P|284:332|216:320,1,120,2|0,0:0|0:0,0:0:0:0:
192,332,122587,2,0,P|128:308|60:316,1,120,8|0,0:0|0:0,0:0:0:0:
40,288,123063,6,0,P|68:228|64:188,1,80,2|0,0:0|0:0,0:0:0:0:
64,172,123420,1,0,0:0:0:0:
104,153,123539,1,8,0:0:0:0:
108,64,123778,1,0,0:0:0:0:
196,52,124016,2,0,P|280:92|368:64,1,160,2|8,0:0|0:0,0:0:0:0:
428,56,124730,1,0,0:0:0:0:
428,56,124968,2,8,P|456:112|444:212,1,160,6|8,0:0|0:0,0:0:0:0:
360,188,125682,5,0,0:0:0:0:
292,132,125920,1,0,0:0:0:0:
224,188,126158,1,0,0:0:0:0:
156,132,126397,1,8,0:0:0:0:
88,188,126635,1,0,0:0:0:0:
156,244,126873,5,6,0:0:0:0:
156,244,127111,1,2,0:0:0:0:
224,300,127349,1,8,0:0:0:0:
224,300,127587,1,8,0:0:0:0:
292,244,127825,2,0,P|352:240|400:192,2,120,4|0|0,0:0|0:0|0:0,0:0:0:0:
224,188,128778,5,4,0:0:0:0:
256,192,128897,12,4,132587,0:0:0:0:
