osu file format v12

[General]
AudioFilename: EndingCut.mp3
AudioLeadIn: 0
PreviewTime: 99510
Countdown: 0
SampleSet: Soft
StackLeniency: 0.7
Mode: 0
LetterboxInBreaks: 0
EpilepsyWarning: 1

[Editor]
DistanceSpacing: 1.1
BeatDivisor: 4
GridSize: 4

[Metadata]
Title:Across the Destiny
TitleUnicode:Across the Destiny
Artist:Nakamura Meiko
ArtistUnicode:仲村芽衣子
Creator:baldrace
Version:Easy
Source:BALDR SKY Dive X "DREAM WORLD"
Tags:GIGA BALDR SKY TEAM BALDRHEAD Sweet Vanilla [CSGA]Ar3sgice
BeatmapID:261851
BeatmapSetID:98096

[Difficulty]
HPDrainRate:2
CircleSize:3
OverallDifficulty:2
ApproachRate:3
SliderMultiplier:1
SliderTickRate:1

[Events]
//Background and Video events
0,0,"BGB.jpg",0,0
//Break Periods
2,31596,33528
//Storyboard Layer 0 (Background)
//Storyboard Layer 1 (Fail)
//Storyboard Layer 2 (Pass)
//Storyboard Layer 3 (Foreground)
//Storyboard Sound Samples
//Background Colour Transformations
3,100,163,162,255

[TimingPoints]
1159,476.190476190476,4,2,4,50,1,0
80444,-100,4,2,1,50,0,0
100206,-100,4,2,4,60,0,1
130682,-100,4,2,4,50,0,0

[Colours]
Combo1 : 255,255,0
Combo2 : 0,255,255
Combo3 : 255,128,255
Combo4 : 128,0,255

[HitObjects]
56,204,16397,2,0,L|112:204,1,50,2|2,0:0|0:0,0:0:0:0:
216,204,17111,2,0,L|272:204,2,50,0|2|0,0:0|0:0|0:0,0:0:0:0:
288,56,18301,2,0,L|208:56,2,75,2|0|2,0:0|0:0|0:0,0:0:0:0:
428,140,19730,5,0,0:0:0:0:
388,244,20206,2,0,P|348:292|304:304,1,100,2|2,0:0|0:0,0:0:0:0:
204,308,21158,2,0,P|136:292|112:260,1,100
80,168,22111,2,0,L|12:156,3,50,2|2|0|2,0:0|0:0|0:0|0:0,0:0:0:0:
292,72,24016,6,0,P|360:96|376:120,1,100,2|2,0:0|0:0,0:0:0:0:
424,216,24968,2,0,P|408:272|424:308,1,100,2|2,0:0|0:0,0:0:0:0:
316,328,25920,2,0,P|256:316|216:332,1,100,2|2,0:0|0:0,0:0:0:0:
116,296,26873,2,0,P|56:264|40:240,2,75,2|2|2,0:0|0:0|0:0,0:0:0:0:
156,260,27825,6,0,P|204:228|220:180,1,100,2|2,0:0|0:0,0:0:0:0:
160,96,28778,2,0,P|192:52|248:36,1,100,2|2,0:0|0:0,0:0:0:0:
344,40,29730,6,0,P|412:72|428:108,1,100,2|2,0:0|0:0,0:0:0:0:
460,196,30682,1,2,0:0:0:0:
352,196,31158,2,0,L|296:196,1,50,2|2,0:0|0:0,0:0:0:0:
364,64,34968,5,0,0:0:0:0:
256,84,35444,2,0,P|192:96|152:92,1,100,6|8,0:0|0:0,0:0:0:0:
72,164,36397,2,0,P|92:216|92:260,1,100,2|8,0:0|0:0,0:0:0:0:
184,320,37349,2,0,P|148:368|128:380,2,75,2|2|2,0:0|0:0|0:0,0:0:0:0:
236,296,38301,2,0,P|296:284|344:296,1,100,0|8,0:0|0:0,0:0:0:0:
428,232,39254,6,0,P|456:172|452:120,1,100,2|8,0:0|0:0,0:0:0:0:
364,84,40206,2,0,P|312:128|268:140,1,100,2|8,0:0|0:0,0:0:0:0:
196,204,41158,2,0,L|168:252,2,50,2|2|8,0:0|0:0|0:0,0:0:0:0:
172,96,42111,2,0,P|108:88|64:104,1,100,2|8,0:0|0:0,0:0:0:0:
52,204,43063,6,0,P|64:272|48:308,1,100,6|8,0:0|0:0,0:0:0:0:
160,324,44016,2,0,P|224:332|256:316,1,100,2|10,0:0|0:0,0:0:0:0:
364,312,44968,5,2,0:0:0:0:
440,232,45444,1,8,0:0:0:0:
392,132,45920,2,0,P|440:104|456:80,2,75,2|0|0,0:0|0:0|0:0,0:0:0:0:
340,112,46873,6,0,L|300:76,2,50,6|2|8,0:0|0:0|0:0,0:0:0:0:
260,188,47825,2,0,L|204:176,2,50,2|2|8,0:0|0:0|0:0,0:0:0:0:
212,288,48778,2,0,L|160:296,2,50,6|2|8,0:0|0:0|0:0,0:0:0:0:
320,264,49730,5,4,0:0:0:0:
256,52,50682,5,4,0:0:0:0:
152,92,51158,2,0,P|108:152|104:180,1,100,8|2,0:0|0:0,0:0:0:0:
108,284,52111,2,0,L|60:328,2,50,8|0|2,0:0|0:0|0:0,0:0:0:0:
216,296,53063,6,0,P|288:304|324:288,1,100,8|2,0:0|0:0,0:0:0:0:
408,244,54016,2,0,L|456:208,2,50,8|0|2,0:0|0:0|0:0,0:0:0:0:
316,184,54968,6,0,P|264:172|220:184,1,100,8|0,0:0|0:0,0:0:0:0:
120,136,55920,1,8,0:0:0:0:
196,56,56397,2,0,P|264:64|304:48,1,100,2|8,0:0|0:0,0:0:0:0:
344,68,57111,2,0,P|396:44|448:64,2,100,2|2|6,0:0|0:0|0:0,0:0:0:0:
212,168,58778,6,0,P|152:180|112:216,1,100,8|2,0:0|0:0,0:0:0:0:
60,296,59730,1,8,0:0:0:0:
160,340,60206,2,0,P|252:340|272:328,1,100,2|8,0:0|0:0,0:0:0:0:
348,276,61158,5,2,0:0:0:0:
420,192,61635,1,8,0:0:0:0:
310,173,62111,1,0,0:0:0:0:
384,88,62587,2,0,P|448:80|484:56,2,100,8|2|8,0:0|0:0|0:0,0:0:0:0:
276,60,64016,5,2,0:0:0:0:
200,140,64492,1,8,0:0:0:0:
116,68,64968,1,0,0:0:0:0:
96,176,65444,2,0,L|52:224,2,50,8|0|4,0:0|0:0|0:0,0:0:0:0:
172,256,66397,6,0,P|220:216|240:176,1,100,8|0,0:0|0:0,0:0:0:0:
276,144,67111,2,0,L|276:84,2,50,0|8|0,0:0|0:0|0:0,0:0:0:0:
432,200,68301,2,0,P|416:256|376:304,1,100,8|2,0:0|0:0,0:0:0:0:
340,308,69016,2,0,L|340:368,2,50,0|8|0,0:0|0:0|0:0,0:0:0:0:
176,308,70206,6,0,P|104:264|88:236,2,100,8|2|10,0:0|0:0|0:0,0:0:0:0:
252,228,71635,2,0,B|288:184|240:128|280:76,1,150,6|0,0:0|0:0,0:0:0:0:
383,69,72825,2,0,P|439:89|463:133,2,100
328,68,74016,6,0,P|280:88|220:74,1,100,8|0,0:0|0:0,0:0:0:0:
135,130,74968,2,0,P|124:181|142:240,1,100,8|0,0:0|0:0,0:0:0:0:
216,300,75920,5,8,0:0:0:0:
324,320,76397,2,0,L|428:320,1,100,0|8,0:0|0:0,0:0:0:0:
256,192,77349,12,0,80206,0:0:0:0:
412,192,81158,6,0,P|384:248|340:284,1,100,4|2,0:0|0:0,0:0:0:0:
264,332,82111,2,0,P|200:356|180:356,2,75,2|2|2,0:0|0:0|0:0,0:0:0:0:
260,276,83063,2,0,P|244:208|264:160,2,100,2|0|2,0:0|0:0|0:0,0:0:0:0:
464,192,84968,6,0,P|448:132|360:76,1,150,6|0,0:0|0:0,0:0:0:0:
216,80,86397,1,2,0:0:0:0:
316,124,86873,2,0,P|280:168|184:188,1,150,2|2,0:0|0:0,0:0:0:0:
64,292,88301,6,0,L|120:312,1,50,8|0,0:0|0:0,0:0:0:0:
164,320,88778,2,0,P|252:324|356:268,2,200,6|2|2,0:0|0:0|0:0,0:0:0:0:
128,216,91158,1,8,0:0:0:0:
172,116,91635,2,0,P|137:64|136:32,2,75
224,100,92587,6,0,P|316:68|408:112,1,200,6|0,0:0|0:0,0:0:0:0:
440,152,93778,2,0,L|448:216,2,50,4|0|0,0:0|0:0|0:0,0:0:0:0:
256,192,94492,12,4,96397,0:0:0:0:
148,284,97349,6,0,P|124:300|80:316,2,75,2|0|2,0:0|0:0|0:0,0:0:0:0:
256,308,98539,2,2,L|256:244,1,50,2|4,0:0|0:0,0:0:0:0:
476,248,99730,5,2,0:0:0:0:
452,140,100206,2,0,L|368:64,1,100,4|8,0:0|0:0,0:0:0:0:
268,68,101158,2,0,P|208:80|164:60,1,100,2|8,0:0|0:0,0:0:0:0:
87,136,102111,2,0,B|87:192|87:192|55:236,2,100,0|8|2,0:0|0:0|0:0,0:0:0:0:
192,172,103539,1,8,0:0:0:0:
268,92,104016,6,0,P|336:100|372:132,1,100,6|8,0:0|0:0,0:0:0:0:
419,210,104968,2,0,B|419:266|419:266|451:310,2,100,2|8|2,0:0|0:0|0:0,0:0:0:0:
320,256,106397,1,8,0:0:0:0:
216,292,106873,2,0,P|156:304|104:296,1,100,2|8,0:0|0:0,0:0:0:0:
36,224,107825,6,0,P|56:172|60:128,1,100,4|8,0:0|0:0,0:0:0:0:
160,84,108778,2,0,P|144:52|140:8,2,75,0|8|8,0:0|0:0|0:0,0:0:0:0:
208,108,109730,2,0,P|280:116|320:100,1,100,4|8,0:0|0:0,0:0:0:0:
416,116,110682,2,0,P|432:172|416:232,1,100,4|8,0:0|0:0,0:0:0:0:
336,280,111635,5,4,0:0:0:0:
232,312,112111,1,8,0:0:0:0:
128,284,112587,2,0,P|80:256|64:236,2,75,4|8|8,0:0|0:0|0:0,0:0:0:0:
164,244,113539,2,0,P|208:196|256:196,2,100,4|8|2,0:0|0:0|0:0,0:0:0:0:
56,224,114968,5,8,0:0:0:0:
128,140,115444,2,0,L|204:60,1,100,4|8,0:0|0:0,0:0:0:0:
308,68,116397,2,0,L|376:140,1,100,0|8,0:0|0:0,0:0:0:0:
424,240,117349,2,0,B|424:296|424:296|464:336,2,100,4|8|2,0:0|0:0|0:0,0:0:0:0:
324,284,118778,1,8,0:0:0:0:
216,308,119254,5,6,0:0:0:0:
248,204,119730,1,8,0:0:0:0:
356,184,120206,2,0,B|396:160|396:160|416:100,1,100,0|8,0:0|0:0,0:0:0:0:
312,60,121158,2,0,B|272:27|257:90|196:58,1,100,6|8,0:0|0:0,0:0:0:0:
108,68,122111,1,2,0:0:0:0:
80,172,122587,1,8,0:0:0:0:
160,248,123063,6,0,L|128:296,2,50,4|0|8,0:0|0:0|0:0,0:0:0:0:
268,268,124016,2,0,P|292:328|308:344,2,75,0|8|8,0:0|0:0|0:0,0:0:0:0:
320,252,124968,2,0,P|376:228|400:192,1,100,4|8,0:0|0:0,0:0:0:0:
337,105,125920,2,0,P|281:129|257:165,1,100,4|8,0:0|0:0,0:0:0:0:
152,132,126873,6,0,P|116:144|68:148,2,75,4|8|8,0:0|0:0|0:0,0:0:0:0:
180,180,127825,1,4,0:0:0:0:
256,260,128301,1,10,0:0:0:0:
332,180,128778,1,4,0:0:0:0:
256,192,129016,12,4,132587,0:0:0:0:
