osu file format v12

[General]
AudioFilename: EndingCut.mp3
AudioLeadIn: 0
PreviewTime: 99510
Countdown: 0
SampleSet: Soft
StackLeniency: 0.7
Mode: 0
LetterboxInBreaks: 0
EpilepsyWarning: 1

[Editor]
DistanceSpacing: 0.9
BeatDivisor: 4
GridSize: 4

[Metadata]
Title:Across the Destiny
TitleUnicode:Across the Destiny
Artist:Nakamura Meiko
ArtistUnicode:仲村芽衣子
Creator:baldrace
Version:AR3
Source:BALDR SKY Dive X "DREAM WORLD"
Tags:GIGA BALDR SKY TEAM BALDRHEAD Sweet Vanilla [CSGA]Ar3sgice
BeatmapID:261850
BeatmapSetID:98096

[Difficulty]
HPDrainRate:6
CircleSize:4
OverallDifficulty:8
ApproachRate:8
SliderMultiplier:2
SliderTickRate:1

[Events]
//Background and Video events
0,-20,"BGB.jpg",0,0
//Break Periods
2,31597,33557
//Storyboard Layer 0 (Background)
//Storyboard Layer 1 (Fail)
//Storyboard Layer 2 (Pass)
//Storyboard Layer 3 (Foreground)
//Storyboard Sound Samples
//Background Colour Transformations
3,100,163,162,255

[TimingPoints]
1159,476.190476190476,4,2,4,50,1,0
34968,-100,4,2,4,60,0,0
35444,-100,4,2,4,50,0,0
64016,-100,4,2,0,50,0,0
64135,-100,4,2,4,50,0,0
81158,-125,4,2,0,50,0,0
99730,-83.3333333333333,4,2,4,50,0,0
100206,-100,4,2,4,60,0,1
102111,-100,4,2,0,60,0,1
102230,-100,4,2,4,60,0,1
114492,-100,4,2,0,60,0,1
114611,-100,4,2,4,60,0,1
114968,-83.3333333333333,4,2,4,60,0,1
115444,-100,4,2,4,60,0,1
118301,-100,4,2,0,60,0,1
118420,-100,4,2,4,60,0,1
120206,-100,4,2,0,60,0,1
120444,-100,4,2,4,60,0,1
121158,-100,4,2,0,60,0,1
121278,-100,4,2,4,60,0,1
130682,-100,4,2,4,50,0,0

[Colours]
Combo1 : 189,116,224
Combo2 : 95,245,174
Combo3 : 105,120,252
Combo4 : 170,231,46

[HitObjects]
68,304,16397,2,0,L|12:288,2,50,2|0|0,0:0|0:0|0:0,0:0:0:0:
164,336,16873,1,0,0:0:0:0:
356,260,17111,2,0,L|412:236,2,50
264,296,17587,1,2,0:0:0:0:
476,164,18063,6,0,B|504:120|484:64,1,100,0|2,0:0|0:0,0:0:0:0:
392,104,18539,2,0,L|336:88,2,50
356,260,19016,1,2,0:0:0:0:
252,136,19254,2,0,P|240:88|256:32,1,100
180,200,19730,2,0,P|117:187|85:158,1,100
91,165,20087,1,2,0:0:0:0:
91,165,20206,6,0,L|63:271,1,100,2|0,0:0|0:0,0:0:0:0:
164,112,20682,2,0,L|148:12,1,100,2|0,0:0|0:0,0:0:0:0:
292,52,21158,1,0,0:0:0:0:
416,88,21397,1,0,0:0:0:0:
336,184,21635,1,0,0:0:0:0:
464,224,21873,5,0,0:0:0:0:
464,224,21992,1,0,0:0:0:0:
464,224,22111,2,0,P|460:280|436:316,1,100,2|2,0:0|0:0,0:0:0:0:
344,356,22587,1,0,0:0:0:0:
260,300,22825,2,0,P|208:324|108:240,1,200,2|0,0:0|0:0,0:0:0:0:
176,164,23539,1,0,0:0:0:0:
28,180,23778,5,0,0:0:0:0:
28,180,23897,1,0,0:0:0:0:
28,180,24016,2,0,L|20:80,1,100,2|0,0:0|0:0,0:0:0:0:
88,10,24492,1,2,0:0:0:0:
164,72,24730,2,0,P|212:88|264:76,1,100,0|2,0:0|0:0,0:0:0:0:
356,96,25206,2,0,L|460:60,2,100,0|2|0,0:0|0:0|0:0,0:0:0:0:
320,188,25920,5,2,0:0:0:0:
360,268,26158,2,0,P|416:292|464:288,2,100,0|2|0,0:0|0:0|0:0,0:0:0:0:
428,200,26873,1,2,0:0:0:0:
344,368,27111,1,0,0:0:0:0:
180,288,27349,1,2,0:0:0:0:
264,124,27587,1,2,0:0:0:0:
196,192,27825,6,0,P|144:204|92:188,1,100,2|0,0:0|0:0,0:0:0:0:
116,48,28301,2,0,P|168:36|220:52,1,100,2|0,0:0|0:0,0:0:0:0:
12,212,28778,1,0,0:0:0:0:
40,116,29016,1,2,0:0:0:0:
104,252,29254,1,2,0:0:0:0:
76,348,29492,1,0,0:0:0:0:
188,304,29730,6,0,P|236:288|296:300,1,100,2|0,0:0|0:0,0:0:0:0:
360,228,30206,1,2,0:0:0:0:
328,48,30444,1,0,0:0:0:0:
496,96,30682,2,0,P|448:116|400:112,1,100,2|0,0:0|0:0,0:0:0:0:
436,28,31158,1,2,0:0:0:0:
360,228,31397,1,2,0:0:0:0:
264,184,34968,5,8,0:0:0:0:
160,72,35444,5,4,0:0:0:0:
96,152,35682,1,0,0:0:0:0:
96,152,35801,1,0,0:0:0:0:
96,152,35920,2,0,P|40:156|0:132,1,100,8|0,0:0|0:0,0:0:0:0:
96,284,36397,1,2,0:0:0:0:
216,144,36635,1,0,0:0:0:0:
276,320,36873,1,8,0:0:0:0:
196,252,37111,1,0,0:0:0:0:
312,96,37349,5,2,0:0:0:0:
312,96,37468,1,2,0:0:0:0:
412,224,37706,1,2,0:0:0:0:
412,224,37825,2,0,P|464:240|508:228,1,100,8|0,0:0|0:0,0:0:0:0:
420,24,38301,2,0,L|484:16,2,50,2|0|0,0:0|0:0|0:0,0:0:0:0:
380,52,38658,2,0,P|392:104|376:148,1,100,8|0,0:0|0:0,0:0:0:0:
352,172,39016,1,8,0:0:0:0:
320,188,39135,1,0,0:0:0:0:
292,212,39254,6,0,P|276:254|280:312,1,100
356,364,39730,1,8,0:0:0:0:
196,256,39968,1,0,0:0:0:0:
60,372,40206,2,0,P|20:340|16:232,1,150,2|0,0:0|0:0,0:0:0:0:
72,212,40682,2,0,L|80:108,1,100,8|0,0:0|0:0,0:0:0:0:
120,80,41039,1,2,0:0:0:0:
160,48,41158,5,2,0:0:0:0:
308,200,41397,1,8,0:0:0:0:
296,12,41635,1,8,0:0:0:0:
248,272,41873,2,0,P|296:292|384:256,1,150,2|2,0:0|0:0,0:0:0:0:
400,212,42349,1,2,0:0:0:0:
392,164,42468,1,0,0:0:0:0:
360,128,42587,2,0,L|292:104,2,50,8|0|0,0:0|0:0|0:0,0:0:0:0:
208,180,43063,5,6,0:0:0:0:
392,52,43301,1,0,0:0:0:0:
148,88,43539,1,8,0:0:0:0:
168,292,43778,2,0,P|120:312|48:296,1,100
40,128,44254,1,0,0:0:0:0:
28,172,44373,1,0,0:0:0:0:
16,216,44492,2,0,L|4:272,2,50,8|0|0,0:0|0:0|0:0,0:0:0:0:
228,352,44968,6,0,P|276:364|336:360,1,100
364,336,45325,1,0,0:0:0:0:
384,296,45444,1,8,0:0:0:0:
476,144,45682,2,0,L|488:256,1,100
372,88,46158,1,2,0:0:0:0:
328,100,46278,1,0,0:0:0:0:
284,88,46397,2,0,L|240:44,2,50,8|0|0,0:0|0:0|0:0,0:0:0:0:
384,184,46873,5,4,0:0:0:0:
328,12,47111,1,8,0:0:0:0:
492,128,47349,1,8,0:0:0:0:
228,240,47587,2,0,P|276:260|332:256,1,100
144,308,48063,1,0,0:0:0:0:
140,356,48182,1,8,0:0:0:0:
32,184,48420,1,0,0:0:0:0:
20,232,48539,1,8,0:0:0:0:
120,108,48778,6,0,P|176:120|224:112,1,100,4|0,0:0|0:0,0:0:0:0:
252,76,49135,1,0,0:0:0:0:
288,40,49254,2,0,P|329:33|385:45,1,100,8|0,0:0|0:0,0:0:0:0:
456,280,49730,1,8,0:0:0:0:
460,240,49849,1,2,0:0:0:0:
464,200,49968,1,2,0:0:0:0:
468,160,50087,2,0,L|472:108,1,50,0|2,0:0|0:0,0:0:0:0:
328,308,50563,5,0,0:0:0:0:
328,308,50682,2,0,P|276:340|208:324,1,100,4|0,0:0|0:0,0:0:0:0:
192,316,51039,1,0,0:0:0:0:
160,276,51158,2,0,L|156:172,1,100,8|0,0:0|0:0,0:0:0:0:
220,120,51516,2,0,P|280:136|356:92,1,150
276,32,52111,1,8,0:0:0:0:
256,232,52349,1,0,0:0:0:0:
144,88,52587,2,0,P|92:100|32:80,1,100
8,256,53063,6,0,P|48:276|108:276,1,100,8|0,0:0|0:0,0:0:0:0:
160,208,53420,2,0,L|168:360,1,150,0|0,0:0|0:0,0:0:0:0:
304,280,54016,1,8,0:0:0:0:
228,132,54254,1,0,0:0:0:0:
368,340,54492,1,0,0:0:0:0:
404,348,54611,1,0,0:0:0:0:
440,344,54730,1,0,0:0:0:0:
472,328,54849,1,0,0:0:0:0:
492,300,54968,6,0,L|480:200,1,100,8|0,0:0|0:0,0:0:0:0:
504,120,55325,2,0,P|448:132|372:80,1,150
336,200,55920,1,8,0:0:0:0:
292,16,56158,1,0,0:0:0:0:
248,162,56397,6,0,P|212:168|152:152,1,100,2|0,0:0|0:0,0:0:0:0:
96,68,56873,1,8,0:0:0:0:
32,272,57111,2,0,P|72:276|128:256,1,100,0|2,0:0|0:0,0:0:0:0:
212,328,57587,1,0,0:0:0:0:
212,328,57706,2,0,L|216:380,1,50,0|8,0:0|0:0,0:0:0:0:
272,192,58063,1,0,0:0:0:0:
360,292,58301,1,2,0:0:0:0:
396,296,58420,1,0,0:0:0:0:
432,288,58539,1,0,0:0:0:0:
456,264,58658,1,2,0:0:0:0:
468,232,58778,6,0,L|456:120,1,100,8|0,0:0|0:0,0:0:0:0:
396,88,59135,2,0,P|344:104|260:56,1,150
56,240,59730,1,8,0:0:0:0:
116,152,59968,2,0,L|224:148,1,100
260,288,60444,1,0,0:0:0:0:
260,288,60563,2,0,L|196:284,1,50,0|8,0:0|0:0,0:0:0:0:
320,212,60920,5,0,0:0:0:0:
424,360,61158,1,2,0:0:0:0:
480,112,61397,1,0,0:0:0:0:
364,292,61635,1,8,0:0:0:0:
512,228,61873,1,2,0:0:0:0:
368,124,62111,2,0,P|300:132|256:108,1,100
324,32,62587,5,8,0:0:0:0:
224,208,62825,2,0,L|68:216,1,150
20,160,63301,1,8,0:0:0:0:
112,320,63539,1,8,0:0:0:0:
92,104,63778,1,0,0:0:0:0:
140,104,63897,1,0,0:0:0:0:
184,80,64016,5,2,0:0:0:0:
316,184,64254,1,0,0:0:0:0:
172,164,64492,1,8,0:0:0:0:
328,100,64730,1,0,0:0:0:0:
264,48,64968,1,2,0:0:0:0:
240,220,65206,1,8,0:0:0:0:
328,292,65444,5,8,0:0:0:0:
364,304,65563,1,0,0:0:0:0:
404,304,65682,1,0,0:0:0:0:
444,296,65801,1,0,0:0:0:0:
476,272,65920,1,0,0:0:0:0:
388,164,66158,1,0,0:0:0:0:
272,344,66397,6,0,P|216:360|168:348,1,100,8|0,0:0|0:0,0:0:0:0:
120,296,66754,2,0,L|112:140,1,150
40,36,67349,1,8,0:0:0:0:
12,192,67587,2,0,L|128:204,1,100
228,56,68063,5,0,0:0:0:0:
228,56,68182,1,0,0:0:0:0:
228,56,68301,2,0,P|292:48|336:60,1,100,8|0,0:0|0:0,0:0:0:0:
380,112,68658,2,0,L|396:264,1,150
504,168,69254,1,8,0:0:0:0:
400,36,69492,1,0,0:0:0:0:
312,196,69730,5,2,0:0:0:0:
276,212,69849,1,0,0:0:0:0:
236,212,69968,1,0,0:0:0:0:
200,200,70087,1,0,0:0:0:0:
172,172,70206,1,8,0:0:0:0:
160,352,70444,1,0,0:0:0:0:
160,352,70563,2,0,L|8:336,1,150
164,92,71158,2,0,L|268:100,1,100,8|0,0:0|0:0,0:0:0:0:
108,216,71635,5,0,0:0:0:0:
56,36,71873,1,0,0:0:0:0:
56,36,71992,1,0,0:0:0:0:
56,36,72111,1,8,0:0:0:0:
0,176,72349,1,0,0:0:0:0:
0,176,72468,1,0,0:0:0:0:
104,292,72706,1,0,0:0:0:0:
104,292,72825,2,0,L|216:296,1,100,0|8,0:0|0:0,0:0:0:0:
384,212,73301,6,0,L|276:220,1,100
416,348,73778,1,0,0:0:0:0:
416,348,73897,1,0,0:0:0:0:
416,348,74016,1,8,0:0:0:0:
512,192,74254,2,0,P|524:136|512:92,1,100
412,20,74730,1,0,0:0:0:0:
372,200,74968,1,8,0:0:0:0:
208,120,75206,6,0,P|264:136|316:128,1,100
160,40,75682,1,0,0:0:0:0:
160,40,75801,1,0,0:0:0:0:
160,40,75920,2,0,L|52:52,1,100,8|0,0:0|0:0,0:0:0:0:
0,172,76397,1,0,0:0:0:0:
224,180,76635,1,8,0:0:0:0:
224,180,76754,2,0,L|232:348,1,150,0|8,0:0|0:0,0:0:0:0:
328,84,77349,6,0,L|372:60,2,50
320,124,77706,1,0,0:0:0:0:
352,152,77825,2,0,L|412:136,2,50,8|0|0,0:0|0:0|0:0,0:0:0:0:
340,192,78182,1,0,0:0:0:0:
356,228,78301,6,0,P|364:288|344:336,1,100,0|0,0:0|0:0,0:0:0:0:
320,348,78658,1,0,0:0:0:0:
280,360,78778,2,0,L|224:360,1,50,8|0,0:0|0:0,0:0:0:0:
196,336,79016,2,0,L|132:336,1,50,0|0,0:0|0:0,0:0:0:0:
108,324,79254,5,2,0:0:0:0:
84,292,79373,1,2,0:0:0:0:
80,252,79492,1,2,0:0:0:0:
96,216,79611,1,0,0:0:0:0:
120,184,79730,2,0,P|136:136|128:84,1,100,8|0,0:0|0:0,0:0:0:0:
112,52,80087,1,0,0:0:0:0:
80,24,80206,1,2,0:0:0:0:
24,120,80444,1,8,0:0:0:0:
24,120,80563,1,0,0:0:0:0:
24,120,80682,1,8,0:0:0:0:
196,236,80920,5,0,0:0:0:0:
256,144,81158,2,0,P|312:144|360:92,2,120,2|0|0,0:0|0:0|0:0,0:0:0:0:
280,56,82111,1,2,0:0:0:0:
428,20,82468,1,2,0:0:0:0:
492,164,82825,1,0,0:0:0:0:
420,224,83063,2,0,P|404:280|424:336,2,120,2|2|0,0:0|0:0|0:0,0:0:0:0:
492,276,84016,2,0,L|324:296,1,160,2|8,0:0|0:0,0:0:0:0:
276,360,84730,5,0,0:0:0:0:
276,360,84849,1,0,0:0:0:0:
276,360,84968,2,0,P|224:380|156:364,1,120,2|2,0:0|0:0,0:0:0:0:
100,228,85682,1,0,0:0:0:0:
4,308,85920,2,0,L|88:308,1,80
200,148,86397,2,0,L|116:148,1,80,2|0,0:0|0:0,0:0:0:0:
56,96,86873,1,4,0:0:0:0:
316,24,87587,5,0,0:0:0:0:
400,236,88063,1,2,0:0:0:0:
512,148,88301,1,8,0:0:0:0:
484,160,88420,1,0,0:0:0:0:
452,160,88539,1,2,0:0:0:0:
424,148,88658,1,0,0:0:0:0:
400,124,88778,2,0,L|392:40,1,80,4|0,0:0|0:0,0:0:0:0:
280,188,89254,2,0,L|272:104,1,80,8|0,0:0|0:0,0:0:0:0:
168,32,89730,6,0,P|156:76|168:124,1,80
152,132,90087,1,0,0:0:0:0:
144,152,90206,2,0,L|52:156,1,80,8|0,0:0|0:0,0:0:0:0:
8,236,90682,1,0,0:0:0:0:
72,308,90920,1,0,0:0:0:0:
104,296,91039,1,0,0:0:0:0:
136,284,91158,1,8,0:0:0:0:
200,356,91397,1,0,0:0:0:0:
280,304,91635,6,0,P|328:316|400:296,2,120,4|4|4,0:0|0:0|0:0,0:0:0:0:
232,220,92587,1,0,0:0:0:0:
436,72,93063,1,8,0:0:0:0:
436,72,93301,1,0,0:0:0:0:
100,96,93778,2,0,P|59:82|20:84,1,80,4|0,0:0|0:0,0:0:0:0:
160,168,94254,2,0,P|208:188|312:156,1,160,4|0,0:0|0:0,0:0:0:0:
292,72,94968,5,8,0:0:0:0:
372,24,95206,1,0,0:0:0:0:
372,24,95325,1,0,0:0:0:0:
372,24,95444,1,2,0:0:0:0:
440,88,95682,1,8,0:0:0:0:
440,88,95920,1,8,0:0:0:0:
400,172,96158,1,0,0:0:0:0:
464,244,96397,1,4,0:0:0:0:
48,244,97111,5,0,0:0:0:0:
48,244,97230,1,0,0:0:0:0:
48,244,97349,1,0,0:0:0:0:
92,116,97706,1,8,0:0:0:0:
92,116,98063,1,8,0:0:0:0:
152,304,98539,1,4,0:0:0:0:
152,304,98778,1,4,0:0:0:0:
464,200,99730,6,0,L|472:132,1,59.9999981689454,8|0,0:0|0:0,0:0:0:0:
396,36,99968,1,0,0:0:0:0:
464,200,100206,6,0,P|409:219|313:191,1,150,4|0,0:0|0:0,0:0:0:0:
264,248,100682,2,0,L|252:352,1,100,8|0,0:0|0:0,0:0:0:0:
184,148,101158,1,0,0:0:0:0:
100,240,101397,1,0,0:0:0:0:
64,248,101516,1,0,0:0:0:0:
32,256,101635,1,8,0:0:0:0:
152,28,101873,1,0,0:0:0:0:
264,172,102111,6,0,P|312:184|372:168,1,100,2|0,0:0|0:0,0:0:0:0:
384,100,102468,2,0,P|316:76|244:96,1,150,8|8,0:0|0:0,0:0:0:0:
480,156,103063,2,0,P|496:104|484:56,1,100
464,32,103420,1,0,0:0:0:0:
436,12,103539,1,8,0:0:0:0:
428,216,103778,5,0,0:0:0:0:
412,248,103897,1,0,0:0:0:0:
408,284,104016,2,0,P|424:344|460:372,1,100,2|0,0:0|0:0,0:0:0:0:
304,216,104492,1,8,0:0:0:0:
232,336,104730,1,0,0:0:0:0:
232,336,104849,1,0,0:0:0:0:
232,336,104968,2,0,P|184:356|120:344,1,100
96,312,105325,2,0,L|88:208,1,100,8|0,0:0|0:0,0:0:0:0:
120,180,105682,1,8,0:0:0:0:
128,136,105801,1,0,0:0:0:0:
116,92,105920,6,0,P|152:64|216:64,1,100,0|0,0:0|0:0,0:0:0:0:
304,216,106397,1,8,0:0:0:0:
40,140,106635,2,0,P|28:88|40:40,1,100
228,264,107111,1,0,0:0:0:0:
260,296,107230,1,0,0:0:0:0:
304,304,107349,2,0,L|360:296,1,50,8|0,0:0|0:0,0:0:0:0:
388,232,107587,2,0,L|444:224,1,50
472,160,107825,6,0,P|424:140|420:44,1,150,4|0,0:0|0:0,0:0:0:0:
448,20,108301,1,8,0:0:0:0:
508,232,108539,1,0,0:0:0:0:
328,160,108778,2,0,P|280:152|228:168,1,100,0|0,0:0|0:0,0:0:0:0:
196,136,109135,2,0,L|184:304,1,150,8|8,0:0|0:0,0:0:0:0:
88,360,109730,5,0,0:0:0:0:
12,220,109968,1,0,0:0:0:0:
20,176,110087,1,0,0:0:0:0:
44,136,110206,1,8,0:0:0:0:
176,40,110444,1,0,0:0:0:0:
296,232,110682,1,0,0:0:0:0:
352,80,110920,1,8,0:0:0:0:
180,208,111158,1,8,0:0:0:0:
440,276,111397,1,0,0:0:0:0:
216,312,111635,6,0,P|272:344|356:332,1,150,4|0,0:0|0:0,0:0:0:0:
388,360,112111,1,8,0:0:0:0:
488,168,112349,1,0,0:0:0:0:
488,168,112468,1,0,0:0:0:0:
488,168,112587,2,0,P|432:192|348:172,2,150,4|8|8,0:0|0:0|0:0,0:0:0:0:
280,104,113539,6,0,P|256:164|264:212,1,100,4|0,0:0|0:0,0:0:0:0:
216,44,114016,2,0,P|160:48|120:68,1,100,8|0,0:0|0:0,0:0:0:0:
100,108,114373,1,0,0:0:0:0:
60,128,114492,2,0,L|44:244,1,100,2|8,0:0|0:0,0:0:0:0:
152,336,114968,6,0,L|200:372,1,59.9999981689454,8|0,0:0|0:0,0:0:0:0:
224,196,115206,1,0,0:0:0:0:
152,336,115444,6,0,P|212:356|296:336,1,150,4|0,0:0|0:0,0:0:0:0:
336,280,115920,2,0,L|448:272,1,100,8|0,0:0|0:0,0:0:0:0:
504,56,116397,5,2,0:0:0:0:
384,100,116635,1,0,0:0:0:0:
344,80,116754,1,0,0:0:0:0:
324,40,116873,2,0,L|216:36,1,100,8|0,0:0|0:0,0:0:0:0:
12,152,117349,6,0,P|52:162|108:150,1,100,4|0,0:0|0:0,0:0:0:0:
144,104,117706,2,0,L|160:268,1,150,8|8,0:0|0:0,0:0:0:0:
248,336,118301,1,2,0:0:0:0:
280,348,118420,1,0,0:0:0:0:
316,348,118539,1,0,0:0:0:0:
348,336,118658,1,0,0:0:0:0:
372,312,118778,2,0,L|376:204,1,100,8|0,0:0|0:0,0:0:0:0:
348,176,119135,1,0,0:0:0:0:
316,144,119254,6,0,P|300:96|312:44,1,100,4|0,0:0|0:0,0:0:0:0:
252,220,119730,2,0,P|196:224|140:200,1,100,8|0,0:0|0:0,0:0:0:0:
100,104,120206,1,2,0:0:0:0:
16,228,120444,1,0,0:0:0:0:
16,228,120563,1,8,0:0:0:0:
112,344,120801,1,0,0:0:0:0:
112,344,120920,1,8,0:0:0:0:
320,160,121158,6,0,P|304:224|316:264,1,100,2|0,0:0|0:0,0:0:0:0:
384,284,121516,2,8,P|412:236|392:140,1,150,8|0,0:0|0:0,0:0:0:0:
256,88,122111,1,0,0:0:0:0:
220,96,122230,1,8,0:0:0:0:
184,92,122349,1,0,0:0:0:0:
152,76,122468,1,0,0:0:0:0:
132,48,122587,2,0,L|68:36,2,50,8|0|0,0:0|0:0|0:0,0:0:0:0:
212,348,123063,5,0,0:0:0:0:
84,280,123301,2,0,L|28:292,2,50,0|0|8,0:0|0:0|0:0,0:0:0:0:
232,176,123778,1,0,0:0:0:0:
312,336,124016,2,0,P|360:352|416:344,1,100
448,324,124373,1,0,0:0:0:0:
464,284,124492,2,0,L|456:180,1,100,8|0,0:0|0:0,0:0:0:0:
432,148,124849,1,0,0:0:0:0:
392,124,124968,2,0,P|336:132|284:112,1,100
156,244,125444,5,8,0:0:0:0:
216,32,125682,1,0,0:0:0:0:
276,220,125920,1,8,0:0:0:0:
92,116,126158,1,0,0:0:0:0:
60,332,126397,1,8,0:0:0:0:
156,244,126635,1,8,0:0:0:0:
168,288,126754,1,0,0:0:0:0:
204,320,126873,2,0,P|264:344|352:320,1,150,4|0,0:0|0:0,0:0:0:0:
392,264,127349,2,0,L|400:156,1,100,8|0,0:0|0:0,0:0:0:0:
376,32,127825,5,4,0:0:0:0:
484,232,128182,1,4,0:0:0:0:
512,8,128539,1,4,0:0:0:0:
328,112,128778,6,0,P|276:128|232:120,1,100
196,96,129135,1,0,0:0:0:0:
176,56,129254,1,8,0:0:0:0:
44,164,129492,1,0,0:0:0:0:
136,300,129730,2,0,P|184:312|264:256,2,150,4|4|4,0:0|0:0|0:0,0:0:0:0:
180,220,130682,1,4,0:1:0:0:
256,192,130801,12,4,132587,0:0:0:0:
