osu file format v5

[General]
AudioFilename: 28 - Yuukyuu no Tsubasa.mp3
AudioLeadIn: 0
PreviewTime: -1
Countdown: 1
SampleSet: Normal
StackLeniency: 0.7
Mode: 0
LetterboxInBreaks: 1

[Metadata]
Title:Yuukyuu no Tsubasa
Artist:Nakajima Yumiko
Creator:Nitrogen
Version:Hard
Source:
Tags:

[Difficulty]
HPDrainRate:5
CircleSize:6
OverallDifficulty:6
SliderMultiplier:1.4
SliderTickRate:2

[Events]
//Background and Video events
0,0,"ポストカード09.jpg"
//Break Periods
//Storyboard Layer 0 (Background)
//Storyboard Layer 1 (Failing)
//Storyboard Layer 2 (Passing)
//Storyboard Layer 3 (Foreground)
//Storyboard Sound Samples
//Background Colour Transformations
3,100,163,162,255

[TimingPoints]
0,1000,3,1,0,100,1

[HitObjects]
128,160,625,2,0,B|512:128,1,367.5
480,192,3500,1,0
448,256,4000,2,0,B|96:256,1,332.5
256,192,6625,12,0,7625
160,96,8875,5,0
256,96,9625,1,0
256,192,10375,1,0
256,96,10875,1,0
192,96,11250,1,0
448,96,11875,5,0
416,96,12125,1,0
416,192,12500,1,0
448,192,12875,1,0
384,256,13375,1,0
356,256,13500,1,0
320,256,13750,1,0
320,192,14125,1,0
320,160,14250,1,0
249,160,14625,1,0
188,160,15375,1,0
224,160,15750,1,0
256,160,16125,1,0
320,64,16625,5,0
320,96,16875,1,0
384,96,17125,1,0
320,96,17500,5,0
320,64,17875,1,0
448,160,18375,1,0
416,160,18625,1,0
448,192,19125,1,0
416,192,19500,1,0
256,256,19875,5,0
224,256,20375,1,0
160,256,21125,1,0
128,256,22000,1,0
256,192,22500,12,0,26000
73,110,28750,6,4,B|141:218,1,122.5
225,119,30500,1,4
448,192,31625,1,0
448,224,31750,1,0
448,256,31875,1,4
384,256,32750,1,0
448,192,33250,1,0
384,192,33625,1,0
91,181,34375,5,0
25,179,34500,1,0
32,64,35125,5,0
128,64,35875,1,0
129,109,36125,5,0
193,113,36500,1,0
192,63,36625,1,0
261,87,36875,1,0
222,182,38250,5,8
262,183,38375,1,8
302,183,38500,1,4
245,175,39375,5,4
245,175,39875,1,4
258,127,40250,1,4
153,115,42000,5,0
255,120,42500,1,0
384,128,43125,1,0
416,128,43250,1,0
448,128,43375,1,0
480,128,43500,1,0
233,260,45250,1,0
250,171,46000,1,0
320,118,46500,1,0
192,94,46875,1,0
89,89,47750,5,0
119,179,48125,1,0
156,263,48500,1,0
416,288,49250,5,0
416,256,49375,1,0
416,224,49500,1,0
416,192,49750,1,0
442,63,50125,1,0
54,168,51375,1,0
93,167,51875,1,0
343,135,52625,1,0
444,255,53250,1,0
309,238,53500,1,0
200,130,55125,1,0
349,134,55875,1,0
306,182,56375,1,0
255,224,56750,1,0
221,118,58375,5,0
380,210,59250,1,0
350,111,59750,1,0
290,195,60125,1,0
150,76,61750,5,0
183,77,62625,1,0
183,77,63000,1,0
228,75,63375,1,0
269,72,64125,1,0
341,87,65000,1,0
435,243,66375,1,0
252,238,66750,1,0
100,233,67125,1,0
98,125,67500,1,0
254,116,68000,1,0
78,251,68375,5,0
160,256,69250,1,0
170,256,69375,1,0
182,256,69500,1,0
193,257,69625,1,0
205,258,69750,1,0
234,259,70000,1,0
32,64,71750,5,0
256,64,72500,1,0
416,64,73250,1,0
448,64,73375,1,0
154,240,74125,5,0
308,84,74875,1,0
256,192,75125,12,0,75750
460,210,76625,5,0
347,266,77000,1,0
198,260,77500,1,0
272,156,77875,1,0
162,100,78250,1,0
343,63,78625,1,0
111,234,79125,1,0
374,234,79500,1,0
212,317,79875,1,0
248,153,80375,1,0
446,70,80750,5,0
343,87,81125,1,0
213,84,81500,1,0
90,105,81875,1,0
84,114,82000,1,0
85,128,82125,1,0
82,149,82250,1,0
80,172,82375,1,0
86,298,82875,1,0
203,307,83250,1,0
298,319,83375,1,0
311,318,83500,1,0
330,318,83625,1,0
339,318,83750,1,0
358,312,83875,1,0
374,308,84000,1,0
411,227,84500,1,0
410,107,84875,1,0
327,80,85375,1,0
222,79,85750,1,0
138,83,86125,1,0
93,171,86500,1,0
110,171,86625,1,0
127,171,86750,1,0
146,171,86875,1,0
163,181,87000,1,0
167,196,87125,1,0
169,209,87250,1,0
170,220,87375,1,0
320,224,87875,5,0
320,124,88250,5,0
217,108,88625,1,0
132,112,89000,1,0
247,194,89500,1,0
145,241,89875,1,0
295,265,90250,1,0
124,318,90625,1,0
385,43,91500,5,0
402,42,91625,1,0
404,60,91750,1,0
406,80,91875,1,0
401,93,92000,1,0
403,114,92125,1,0
408,127,92250,1,0
412,143,92375,1,0
414,157,92500,2,0,B|158:157,1,245
128,224,94500,5,0
128,64,94875,1,0
256,61,95375,5,0
311,63,95750,1,0
288,288,96250,1,0
96,256,96500,1,0
95,130,97000,5,0
158,129,97250,1,0
480,64,97750,1,0
480,288,98250,1,0
485,173,98625,1,0
394,174,98750,1,0
397,144,99000,1,0
384,288,99875,1,0
32,288,101500,1,0
423,60,102125,1,0
437,63,102250,1,0
448,64,102375,1,0
320,320,103125,1,0
128,96,104000,1,0
320,96,104875,1,0
256,192,105250,1,0
448,192,105625,1,0
352,288,106000,1,0
256,192,106250,12,0,110000
