osu file format v9

[General]
AudioFilename: last_force.mp3
AudioLeadIn: 1985
PreviewTime: 25279
Countdown: 1
SampleSet: Normal
StackLeniency: 0.7
Mode: 0
LetterboxInBreaks: 1

[Editor]
DistanceSpacing: 1
BeatDivisor: 4
GridSize: 8

[Metadata]
Title:Last Force
Artist:Nakajima Misaki
Creator:PSPDS Eddie
Version:Hyper
Source:
Tags:

[Difficulty]
HPDrainRate:6
CircleSize:4
OverallDifficulty:6
ApproachRate:7
SliderMultiplier:1.6
SliderTickRate:2

[Events]
//Background and Video events
0,0,"BG.jpg"
//Break Periods
2,49183,53639
2,55109,59565
2,61035,65861
//Storyboard Layer 0 (Background)
//Storyboard Layer 1 (Fail)
//Storyboard Layer 2 (Pass)
//Storyboard Layer 3 (Foreground)
//Storyboard Sound Samples
//Background Colour Transformations
3,100,163,162,255

[TimingPoints]
1576.25511493193,370.37037037037,4,1,0,60,1,0
7403,-100,4,2,0,60,0,0
25094,-100,4,1,0,60,0,0
39444,-100,4,2,0,100,0,0
40000,-100,4,1,0,60,0,0
45372,-100,4,2,0,100,0,0
45928,-100,4,1,0,60,0,0
47409,-100,4,2,0,100,0,0
66576,-200,4,2,0,100,0,0
69354,-100,4,2,0,100,0,0
86576,-100,4,1,0,60,0,0
100928,-100,4,2,0,100,0,0
101483,-100,4,1,0,60,0,0
106854,-100,4,2,0,100,0,0
107409,-100,4,1,0,60,0,0
108891,-100,4,2,0,100,0,0

[HitObjects]
256,296,1576,2,0,B|336:320|416:296,2,160
136,192,2687,1,0
256,88,3057,2,0,B|352:48|424:96,3,160
288,192,4539,6,0,B|320:280|280:368,1,160
128,348,5279,2,0,B|96:260|136:172,1,160
256,72,6020,2,0,B|352:72,1,80
256,152,6391,2,0,B|176:152,1,80
256,232,6761,2,0,B|336:232,1,80
256,304,7131,2,0,B|176:304,1,80
176,304,7502,5,0
104,280,7687,1,0
64,208,7872,2,0,B|96:176|152:152,1,80,0|2
128,80,8242,1,0
208,80,8428,1,0
280,112,8613,2,0,B|352:72,1,80,0|2
349,73,8983,6,0,B|429:129,1,80
392,200,9354,2,0,B|488:192,1,80,0|6
312,184,9724,2,0,B|232:240,1,80
344,256,10094,2,0,B|344:344,1,80,0|6
344,336,10465,6,4,B|224:376|80:328,2,240
256,200,11946,2,4,B|176:200,2,80
256,40,12687,5,0
256,200,13057,1,0
256,40,13428,2,0,B|208:112|112:120,1,160
88,192,13983,1,2
120,264,14168,6,0,B|216:296|296:256,2,160,0|4|0
88,192,15094,2,0,B|-8:192,2,80,0|4|0
120,120,15650,2,0,B|184:48|296:64,1,160,0|4
328,112,16205,5,0
328,112,16298,1,0
328,112,16391,2,0,B|328:208|384:264,1,160,0|4
424,328,16946,2,0,B|336:360|248:328,1,160,0|0
266,334,17502,1,4
104,312,17872,2,0,B|104:208|16:168,1,160,0|4
56,96,18428,5,0
56,96,18520,1,0
56,96,18613,2,0,B|120:80|176:24,2,120,0|0|4
112,152,19354,2,0,B|200:176|280:144,1,160,0|4
336,192,19909,2,0,B|272:248|264:344,1,160
265,331,20465,1,4
416,288,20835,6,0,B|504:192|440:48,2,240,0|0|4
344,320,22131,1,0
264,328,22316,2,0,B|168:328|104:240,1,160,0|4
88,192,22872,1,0
80,112,23057,2,0,B|128:120|176:104,1,80
232,80,23428,2,0,B|256:64,7,20,4|0|0|0|0|0|0|0
256,192,23798,12,4,24909
256,144,25279,6,0,B|344:144,2,80
192,96,25835,2,0,B|160:176|80:208,1,160
80,288,26391,1,0
160,296,26576,1,0
216,352,26761,2,0,B|320:360|384:272,1,160
400,232,27316,1,0
320,232,27502,2,0,B|232:232,2,80
320,232,28057,1,0
360,160,28242,5,0
440,160,28428,1,0
400,88,28613,2,0,B|400:32,4,40
360,160,29168,2,0,B|264:144|232:56,1,160
160,40,29724,5,0
88,80,29909,2,0,B|120:168|88:248,1,160
128,312,30465,2,0,B|216:376,1,80
176,248,30836,2,0,B|264:224,1,80
336,216,31205,5,0
336,216,31391,1,0
336,216,31576,2,0,B|352:280|456:320,1,160
472,240,32131,1,0
472,160,32316,2,0,B|472:120,4,40
472,240,32872,5,0
472,320,33057,2,0,B|472:376,4,40
472,240,33613,5,0
408,192,33798,1,0
336,216,33983,1,0
256,192,34168,5,0
256,192,34354,1,0
256,272,34539,2,0,B|168:296|80:248,1,160
88,176,35094,2,0,B|136:96|232:72,1,160
288,64,35650,5,0
368,64,35835,2,0,B|408:168|368:240,1,160
440,272,36391,5,0
376,320,36576,1,0
312,272,36761,2,0,B|240:272,2,53.3333333333333
312,272,37131,6,0,B|288:176,1,80
216,208,37502,2,0,B|136:192,1,80
56,192,37872,1,0
56,192,38057,1,0
56,272,38242,2,0,B|56:336,4,40
56,192,38798,5,0
56,112,38983,2,0,B|56:72,4,40
56,192,39539,5,2
144,264,39724,1,2
168,152,39909,1,2
216,216,40094,5,0
216,216,40279,1,0
296,216,40465,2,0,B|336:216,4,40
256,152,41020,2,0,B|336:48|336:48|384:48,1,160
448,48,41576,2,0,B|512:112|488:184,2,120
408,120,42316,1,0
408,200,42502,1,0
408,280,42687,1,0
408,280,42779,1,0
408,280,42872,1,0
344,328,43057,5,0
272,288,43242,1,0
336,232,43428,2,0,B|280:168|176:168,1,160
120,192,43983,5,0
64,248,44168,1,0
144,272,44354,1,0
64,248,44539,1,0
120,192,44724,1,0
40,168,44909,2,0,B|8:136,4,40
80,96,45465,5,2
120,192,45650,1,2
232,192,45835,1,2
312,192,46020,5,0
312,192,46205,1,0
392,192,46391,2,0,B|464:192,4,40
392,112,46946,2,0,B|336:104,1,40
280,72,47224,2,0,B|240:80,1,40
160,88,47502,2,2,B|104:88,6,40,2|2|2|2|2|2|2
256,192,48242,12,4,48983
256,192,54539,6,0,B|256:240,4,40
256,192,60465,6,0,B|256:248,4,40,0|0|0|0|4
256,192,66761,6,0,B|256:296,2,80,4|0|0
256,192,68242,2,0,B|256:112,2,80,4|0|0
256,192,69724,5,4
256,192,70465,1,4
256,192,71205,5,0
120,272,71576,1,0
120,112,71946,1,0
96,192,72131,5,0
176,192,72316,2,0,B|224:192,3,40
256,192,72687,6,0,B|280:192,16,20,0|0|0|0|0|0|0|0|0|0|0|0|0|0|0|0|4
416,192,73798,1,0
344,48,74168,2,0,B|344:136,2,80
272,88,74724,2,0,B|176:96|112:32,2,160,4|0|0
264,168,75650,6,0,B|232:224,3,40
248,240,76020,2,0,B|264:296,3,40
288,304,76391,2,0,B|336:368|464:344,2,160,4|0|0
360,264,77316,1,0
400,192,77502,1,4
352,128,77687,2,0,B|408:80|512:96,2,160,4|0|0
352,128,78613,5,0
192,128,78983,1,2
352,128,79354,2,0,B|328:208|216:232,1,160,4|0
176,280,79909,2,0,B|88:256|64:168,1,160
64,96,80465,1,4
120,40,80650,6,0,B|232:48|256:136,1,160,4|0
192,184,81205,1,0
248,240,81391,1,0
304,184,81576,2,0,B|352:176|392:208,1,80
448,248,81946,1,2
416,320,82131,1,2
336,344,82316,6,0,B|264:296|160:328,1,160,4|0
104,304,82872,1,0
64,240,83057,2,0,B|80:192|104:168,1,80
160,120,83428,1,2
160,120,83520,1,0
160,120,83613,1,2
160,120,83705,1,0
160,120,83798,6,4,B|232:136|280:120,2,120
160,240,84631,2,4,B|296:240,1,120
432,192,85279,2,4,B|432:56,2,120
432,312,86113,2,4,B|376:360|288:352,1,120
160,352,86761,6,0,B|72:352,2,80
160,272,87317,2,0,B|192:192|272:160,1,160
344,192,87873,1,0
336,112,88058,1,0
264,80,88243,2,0,B|160:72|96:160,1,160
120,216,88798,1,0
48,176,88984,2,0,B|48:72,2,80
48,176,89539,1,0
48,256,89724,5,0
104,312,89910,1,0
176,272,90094,1,0
176,272,90187,1,0
176,272,90279,1,0
120,216,90465,1,0
192,192,90650,2,0,B|288:208|320:296,1,160
368,344,91206,5,0
416,280,91391,2,0,B|384:192|416:112,1,160
352,72,91947,2,0,B|264:8,1,80
328,152,92316,2,0,B|240:176,1,80
176,152,92687,5,0
176,152,92873,1,0
176,152,93058,2,0,B|152:64|48:48,1,160
24,120,93613,1,0
64,192,93798,1,0
64,192,93891,1,0
64,192,93983,1,0
24,264,94168,5,0
24,264,94354,1,0
64,336,94539,2,0,B|64:384,4,40
104,264,95095,1,0
176,232,95280,1,0
208,160,95465,1,0
168,88,95650,5,0
168,88,95836,1,0
248,88,96021,2,0,B|336:64|424:112,1,160
448,168,96576,2,0,B|400:256|304:272,1,160
248,240,97132,5,0
176,272,97317,2,0,B|160:184|64:128,1,160
88,64,97873,5,0
168,64,98058,1,0
248,64,98243,2,0,B|320:64,2,53.3333333333333
248,64,98613,6,0,B|248:160,1,80
312,192,98984,2,0,B|384:144,1,80
448,104,99354,1,0
448,104,99446,1,0
448,104,99539,1,0
488,176,99724,1,0
448,248,99909,1,0
376,288,100094,5,0
376,288,100280,1,0
296,312,100465,2,0,B|264:352,4,40
376,288,101021,5,2
376,176,101206,1,2
264,176,101391,1,2
320,232,101576,5,0
320,232,101761,1,0
264,176,101947,2,0,B|224:176,4,40
320,120,102502,2,0,B|208:80|208:80|176:24,1,160
104,48,103058,2,0,B|40:112|64:184,2,120
144,112,103798,1,0
144,192,103984,1,0
144,272,104169,1,0
144,272,104261,1,0
144,272,104354,1,0
72,232,104539,5,0
144,192,104724,1,0
200,136,104910,2,0,B|256:200|360:200,1,160
416,168,105465,1,0
464,104,105650,1,0
384,96,105836,5,0
416,168,106021,1,0
456,232,106206,1,0
488,304,106391,2,0,B|488:352,4,40
456,232,106947,5,2
360,296,107132,1,2
264,232,107317,1,2
192,192,107502,5,0
192,192,107687,1,0
112,192,107873,2,0,B|40:192,4,40
120,272,108428,2,0,B|224:336|224:336|288:336,1,160
344,336,108984,6,2,B|400:336,6,40,2|2|2|2|2|2|2
256,192,109724,12,4,110465
256,280,110650,5,0
176,280,110835,2,0,B|128:248|120:192,1,80,2|0
120,136,111205,2,0,B|216:136,2,80,0|0|2
120,136,111761,1,0
128,56,111946,6,0,B|224:32,1,80
264,88,112316,2,0,B|360:80,1,80,2|0
392,144,112687,2,0,B|472:192,1,80
424,256,113057,2,0,B|456:336,1,80,2|0
376,344,113428,5,0
296,360,113613,1,0
216,344,113798,2,0,B|184:312|160:256,1,80,2|0
232,224,114168,2,0,B|288:232|328:224,1,80
352,160,114539,1,2
384,88,114724,1,0
352,160,114909,6,0,B|264:128,1,80
256,56,115279,2,0,B|192:112,1,80,2|0
160,184,115650,2,0,B|72:168,1,80
232,224,116020,2,0,B|264:304,1,80,2|0
344,296,116391,5,4
400,240,116576,2,0,B|480:240,2,80,0|2|0
400,240,117131,1,0
80,192,117872,5,4
120,264,118057,2,0,B|16:264,2,80,0|2|0
120,264,118613,1,0
432,184,119354,6,0,B|336:168|288:96,1,160,4|2
256,176,119909,1,0
208,112,120094,2,0,B|120:128|80:208,1,160,4|2
96,280,120650,1,0
176,280,120835,5,4
256,280,121020,1,0
336,280,121205,1,4
296,208,121391,1,0
256,136,121576,1,4
216,208,121761,1,0
176,280,121946,1,4
256,280,122131,5,0
256,280,122316,1,4
