osu file format v14

[General]
AudioFilename: tryunite.mp3
AudioLeadIn: 0
PreviewTime: -1
Countdown: 1
SampleSet: None
StackLeniency: 0.7
Mode: 0
LetterboxInBreaks: 1
WidescreenStoryboard: 0

[Editor]
Bookmarks: 306671
DistanceSpacing: 1
BeatDivisor: 4
GridSize: 4
TimelineZoom: 1

[Metadata]
Title:TRY UNITE! (aran Remix)
TitleUnicode:TRY UNITE! (aran Remix)
Artist:Nakajima Megumi
ArtistUnicode:Nakajima Megumi
Creator:lahphnya
Version:Arles
Source:
Tags:
BeatmapID:711758
BeatmapSetID:319815

[Difficulty]
HPDrainRate:4.5
CircleSize:4
OverallDifficulty:7.5
ApproachRate:10
SliderMultiplier:2.5
SliderTickRate:1

[Events]
//Background and Video events
0,0,"Konachan.com - 143926 sample.jpg",0,0
//Break Periods
2,62134,81063
2,163187,165063
2,214818,216853
2,247660,249063
//Storyboard Layer 0 (Background)
//Storyboard Layer 1 (Fail)
//Storyboard Layer 2 (Pass)
//Storyboard Layer 3 (Foreground)
//Storyboard Sound Samples

[TimingPoints]
1303,315.789473684211,4,1,0,50,1,0
41724,-83.3333333333333,4,1,0,50,0,0
81513,-125,4,1,0,50,0,0
102355,-100,4,1,0,50,0,0
117513,-90.9090909090909,4,1,0,50,0,0
121934,-83.3333333333333,4,1,0,50,0,0
122566,-71.4285714285714,4,1,0,50,0,0
165513,-100,4,1,0,50,0,0
194566,-71.4285714285714,4,1,0,50,0,0
217303,-200,4,1,0,50,0,0
240039,-100,4,1,0,50,0,0
243829,-83.3333333333333,4,1,0,50,0,0
265303,-66.6666666666667,4,1,0,50,0,0
310776,-71.4285714285714,4,1,0,50,0,0
330987,-83.3333333333333,4,1,0,50,0,0
341092,-100,4,1,0,50,0,0

[HitObjects]
252,128,671,5,0,0:0:0:0:
228,340,829,1,0,0:0:0:0:
76,212,987,1,0,0:0:0:0:
396,212,1145,1,0,0:0:0:0:
107,55,1303,6,0,P|91:115|104:176,1,125,8|0,0:0|0:0,0:0:0:0:
128,328,1618,1,8,0:0:0:0:
320,164,1776,1,0,0:0:0:0:
336,156,1855,1,0,0:0:0:0:
352,156,1934,1,0,0:0:0:0:
496,292,2092,1,0,0:0:0:0:
448,272,2171,1,0,0:0:0:0:
396,272,2250,1,0,0:0:0:0:
280,352,2408,1,0,0:0:0:0:
152,336,2566,6,0,P|136:260|144:196,1,125,8|0,0:0|0:0,0:0:0:0:
156,172,2803,1,0,0:0:0:0:
156,172,2881,1,8,0:0:0:0:
328,332,3039,2,0,P|416:312|500:324,1,125
296,128,3355,2,0,P|316:200|296:264,1,125,8|0,0:0|0:0,0:0:0:0:
200,364,3671,1,8,0:0:0:0:
320,216,3829,5,8,0:0:0:0:
160,116,3987,1,0,0:0:0:0:
108,116,4066,1,0,0:0:0:0:
60,136,4145,1,8,0:0:0:0:
320,216,4303,2,0,P|379:205|484:180,1,125,8|0,0:0|0:0,0:0:0:0:
204,168,4618,2,0,P|204:264|252:324,1,125
60,64,4934,1,0,0:0:0:0:
100,328,5092,5,8,0:0:0:0:
160,64,5250,1,0,0:0:0:0:
160,64,5329,1,0,0:0:0:0:
160,64,5408,1,0,0:0:0:0:
248,336,5566,1,8,0:0:0:0:
384,152,5724,1,0,0:0:0:0:
124,172,5881,1,0,0:0:0:0:
248,336,6039,1,8,0:0:0:0:
312,64,6197,1,0,0:0:0:0:
472,224,6355,6,0,L|324:216,1,125
308,212,6592,1,0,0:0:0:0:
308,212,6671,1,8,0:0:0:0:
88,120,6829,2,0,P|160:152|200:236,1,125
280,376,7145,2,0,P|280:296|296:240,1,125
40,200,7460,1,0,0:0:0:0:
240,92,7618,5,0,0:0:0:0:
288,80,7697,1,0,0:0:0:0:
340,80,7776,1,0,0:0:0:0:
388,92,7855,1,0,0:0:0:0:
432,112,7934,1,0,0:0:0:0:
472,252,8092,2,0,P|468:340|416:376,1,125
104,248,8408,1,0,0:0:0:0:
384,228,8566,2,0,L|352:300,1,62.5
97,213,8724,2,0,L|88:152,1,62.5
276,360,8881,6,0,P|284:288|280:216,1,125
24,304,9197,2,0,P|96:316|176:292,1,125
444,80,9513,2,0,P|356:64|264:120,1,187.5
272,108,9829,2,0,P|284:192|292:252,1,125
372,352,10145,6,0,L|496:268,1,125
136,272,10460,1,0,0:0:0:0:
384,200,10618,1,0,0:0:0:0:
104,152,10776,1,0,0:0:0:0:
344,300,10934,1,0,0:0:0:0:
268,48,11092,1,0,0:0:0:0:
256,344,11250,1,0,0:0:0:0:
256,344,11329,1,0,0:0:0:0:
256,344,11408,6,0,L|112:324,1,125
24,212,11724,1,0,0:0:0:0:
136,132,11881,2,0,P|228:124|304:152,1,125
412,200,12197,2,0,P|416:280|388:332,1,125
160,224,12513,1,0,0:0:0:0:
160,224,12592,1,0,0:0:0:0:
160,224,12671,5,0,0:0:0:0:
60,160,12829,1,0,0:0:0:0:
156,104,12987,1,0,0:0:0:0:
160,344,13145,2,0,P|240:324|320:320,1,125
472,200,13460,1,0,0:0:0:0:
376,116,13618,2,0,P|284:96|232:96,1,125
220,96,13855,1,0,0:0:0:0:
220,96,13934,1,0,0:0:0:0:
288,296,14092,1,0,0:0:0:0:
376,116,14250,1,0,0:0:0:0:
460,344,14408,6,0,P|368:360|304:336,1,125
212,184,14724,1,0,0:0:0:0:
328,44,14881,1,0,0:0:0:0:
288,296,15039,1,0,0:0:0:0:
240,300,15118,1,0,0:0:0:0:
196,280,15197,1,0,0:0:0:0:
172,236,15276,1,0,0:0:0:0:
180,188,15355,1,0,0:0:0:0:
216,152,15434,1,0,0:0:0:0:
264,144,15513,1,0,0:0:0:0:
48,227,15671,2,0,P|64:287|80:348,1,125
144,152,15987,1,0,0:0:0:0:
320,360,16145,2,0,L|280:232,1,125
304,128,16460,6,0,P|392:104|432:116,1,125
464,128,16697,1,0,0:0:0:0:
464,128,16776,2,0,P|472:216|448:276,1,125
256,352,17092,1,0,0:0:0:0:
52,204,17250,1,0,0:0:0:0:
52,204,17329,1,0,0:0:0:0:
52,204,17408,1,0,0:0:0:0:
296,96,17566,1,0,0:0:0:0:
108,320,17724,1,0,0:0:0:0:
400,280,17881,5,0,0:0:0:0:
400,280,17960,1,0,0:0:0:0:
400,280,18039,1,0,0:0:0:0:
212,48,18197,1,0,0:0:0:0:
304,272,18355,1,0,0:0:0:0:
468,68,18513,1,0,0:0:0:0:
432,100,18592,1,0,0:0:0:0:
388,120,18671,1,0,0:0:0:0:
340,124,18750,1,0,0:0:0:0:
292,112,18829,1,0,0:0:0:0:
240,112,18908,1,0,0:0:0:0:
192,128,18987,2,0,L|160:288,1,125
32,32,19303,1,0,0:0:0:0:
56,264,19460,2,0,P|136:240|212:236,1,125
352,328,19776,2,0,P|456:336|496:300,1,125
456,196,20092,1,0,0:0:0:0:
408,180,20171,1,0,0:0:0:0:
360,192,20250,1,0,0:0:0:0:
320,220,20329,1,0,0:0:0:0:
300,268,20408,2,0,P|304:312|316:360,1,62.5
400,144,20566,2,0,P|400:96|392:68,1,62.5
296,48,20724,2,0,B|256:80|192:64|192:64|148:32|68:56|56:104,1,250
64,220,21197,1,0,0:0:0:0:
88,264,21276,1,0,0:0:0:0:
132,284,21355,1,0,0:0:0:0:
180,288,21434,1,0,0:0:0:0:
228,272,21513,5,0,0:0:0:0:
424,300,21671,1,0,0:0:0:0:
332,116,21829,1,0,0:0:0:0:
228,272,21987,1,0,0:0:0:0:
408,40,22145,1,0,0:0:0:0:
424,300,22303,1,0,0:0:0:0:
44,92,22460,1,0,0:0:0:0:
76,348,22618,1,0,0:0:0:0:
76,348,22697,1,0,0:0:0:0:
76,348,22776,5,0,0:0:0:0:
232,324,22934,1,0,0:0:0:0:
60,336,23092,1,0,0:0:0:0:
300,240,23250,1,0,0:0:0:0:
48,328,23408,1,0,0:0:0:0:
400,204,23566,1,0,0:0:0:0:
36,320,23724,1,0,0:0:0:0:
496,252,23881,1,0,0:0:0:0:
496,252,23960,1,0,0:0:0:0:
496,252,24039,6,0,P|416:248|356:256,1,125
296,296,24276,1,0,0:0:0:0:
296,296,24355,1,0,0:0:0:0:
184,120,24513,1,0,0:0:0:0:
376,104,24671,1,0,0:0:0:0:
304,348,24829,1,0,0:0:0:0:
96,88,24987,1,0,0:0:0:0:
444,32,25145,1,0,0:0:0:0:
456,80,25224,1,0,0:0:0:0:
444,128,25303,1,0,0:0:0:0:
404,156,25381,1,0,0:0:0:0:
356,160,25460,1,0,0:0:0:0:
312,132,25539,1,0,0:0:0:0:
300,84,25618,1,0,0:0:0:0:
96,88,25776,5,0,0:0:0:0:
88,264,25934,1,0,0:0:0:0:
96,88,26092,1,0,0:0:0:0:
284,268,26250,1,0,0:0:0:0:
16,304,26408,1,0,0:0:0:0:
204,104,26566,6,0,L|360:88,1,125
368,88,26803,1,0,0:0:0:0:
368,88,26881,2,0,P|384:168|360:244,1,125
196,368,27197,2,0,P|180:280|200:216,1,125
208,112,27513,2,0,P|124:88|28:132,1,187.5
20,208,27829,5,0,0:0:0:0:
148,16,27987,1,0,0:0:0:0:
196,368,28145,1,0,0:0:0:0:
144,220,28303,1,0,0:0:0:0:
188,200,28381,1,0,0:0:0:0:
240,200,28460,1,0,0:0:0:0:
472,152,28618,1,0,0:0:0:0:
344,356,28776,2,0,L|324:272,1,62.5
280,76,28934,1,0,0:0:0:0:
280,76,29013,1,0,0:0:0:0:
280,76,29092,6,0,P|264:164|300:264,1,187.5
328,264,29408,2,0,P|408:240|468:248,1,125
440,96,29724,2,0,P|368:116|304:112,1,125
36,132,30039,2,0,P|140:120|192:96,1,125
252,40,30355,1,0,0:0:0:0:
196,304,30513,1,0,0:0:0:0:
424,196,30671,1,0,0:0:0:0:
32,136,30829,1,0,0:0:0:0:
32,136,30908,1,0,0:0:0:0:
32,136,30987,1,0,0:0:0:0:
96,244,31145,1,0,0:0:0:0:
152,136,31303,2,0,L|304:112,1,125
160,356,31618,6,0,L|104:308|48:260,1,125
380,184,31934,2,0,P|360:276|348:340,1,125
216,184,32250,2,0,P|200:88|196:24,1,125
396,68,32566,1,0,0:0:0:0:
56,152,32724,1,0,0:0:0:0:
20,328,32881,6,0,P|104:324|160:280,1,125
56,152,33197,1,0,0:0:0:0:
208,328,33355,1,0,0:0:0:0:
256,312,33434,1,0,0:0:0:0:
304,308,33513,1,0,0:0:0:0:
352,312,33592,1,0,0:0:0:0:
400,324,33671,1,0,0:0:0:0:
452,152,33829,1,0,0:0:0:0:
296,192,33987,1,0,0:0:0:0:
400,324,34145,6,0,P|428:256|440:184,1,125
292,48,34460,2,0,P|264:140|272:204,1,125
268,208,34697,1,0,0:0:0:0:
268,208,34776,1,0,0:0:0:0:
148,60,34934,1,0,0:0:0:0:
124,328,35092,1,0,0:0:0:0:
20,24,35250,1,0,0:0:0:0:
60,256,35408,5,0,0:0:0:0:
148,60,35566,1,0,0:0:0:0:
224,336,35724,1,0,0:0:0:0:
272,40,35881,1,0,0:0:0:0:
272,40,35960,1,0,0:0:0:0:
272,40,36039,1,0,0:0:0:0:
400,332,36197,1,0,0:0:0:0:
408,24,36355,2,0,P|416:108|408:176,1,125
260,156,36671,5,0,0:0:0:0:
228,192,36750,1,0,0:0:0:0:
180,200,36829,1,0,0:0:0:0:
132,180,36908,1,0,0:0:0:0:
108,136,36987,1,0,0:0:0:0:
116,88,37066,1,0,0:0:0:0:
152,52,37145,1,0,0:0:0:0:
200,48,37224,1,0,0:0:0:0:
244,72,37303,5,0,0:0:0:0:
268,116,37381,1,0,0:0:0:0:
264,164,37460,1,0,0:0:0:0:
236,208,37539,1,0,0:0:0:0:
196,236,37618,1,0,0:0:0:0:
148,232,37697,1,0,0:0:0:0:
112,264,37776,1,0,0:0:0:0:
100,312,37855,1,0,0:0:0:0:
124,356,37934,1,0,0:0:0:0:
172,372,38013,1,0,0:0:0:0:
220,360,38092,1,0,0:0:0:0:
252,320,38171,1,0,0:0:0:0:
292,292,38250,2,0,P|344:276|380:272,1,62.5
456,192,38408,1,0,0:0:0:0:
460,176,38487,1,0,0:0:0:0:
464,164,38566,2,0,P|460:128|448:92,1,62.5
296,40,38724,2,0,P|248:40|216:48,1,62.5
20,184,38881,5,0,0:0:0:0:
68,164,38960,1,0,0:0:0:0:
116,160,39039,1,0,0:0:0:0:
164,172,39118,1,0,0:0:0:0:
204,200,39197,1,0,0:0:0:0:
236,240,39276,1,0,0:0:0:0:
260,284,39355,1,0,0:0:0:0:
272,332,39434,1,0,0:0:0:0:
268,380,39513,2,0,P|220:380|172:372,1,62.5
88,280,39671,1,0,0:0:0:0:
136,264,39750,1,0,0:0:0:0:
188,264,39829,1,0,0:0:0:0:
236,276,39908,1,0,0:0:0:0:
288,276,39987,1,0,0:0:0:0:
332,252,40066,1,0,0:0:0:0:
364,212,40145,2,0,P|368:172|360:132,1,62.5
464,28,40303,1,0,0:0:0:0:
464,76,40381,1,0,0:0:0:0:
464,128,40460,1,0,0:0:0:0:
464,180,40539,1,0,0:0:0:0:
464,232,40618,2,0,L|464:320,1,62.5
156,352,40776,5,0,0:0:0:0:
132,308,40855,1,0,0:0:0:0:
104,268,40934,2,0,L|48:200,1,62.5
256,48,41092,1,0,0:0:0:0:
140,128,41250,1,0,0:0:0:0:
404,200,41408,1,0,0:0:0:0:
48,292,41566,1,0,0:0:0:0:
416,356,41724,6,0,P|420:264|404:156,1,149.999995422363
392,120,41960,1,0,0:0:0:0:
392,120,42039,1,0,0:0:0:0:
112,216,42197,1,0,0:0:0:0:
312,300,42355,2,0,P|436:276|512:264,1,149.999995422363
168,92,42671,2,0,P|80:116|0:132,1,149.999995422363
48,312,42987,5,0,0:0:0:0:
244,160,43145,1,0,0:0:0:0:
304,160,43224,1,0,0:0:0:0:
364,164,43303,1,0,0:0:0:0:
204,340,43460,1,0,0:0:0:0:
144,344,43539,1,0,0:0:0:0:
96,308,43618,1,0,0:0:0:0:
76,252,43697,1,0,0:0:0:0:
92,192,43776,1,0,0:0:0:0:
344,24,43934,1,0,0:0:0:0:
324,324,44092,1,0,0:0:0:0:
324,324,44171,1,0,0:0:0:0:
328,328,44250,5,0,0:0:0:0:
256,76,44408,1,0,0:0:0:0:
228,312,44566,1,0,0:0:0:0:
328,184,44724,1,0,0:0:0:0:
272,200,44803,1,0,0:0:0:0:
212,200,44881,1,0,0:0:0:0:
156,180,44960,1,0,0:0:0:0:
112,140,45039,1,0,0:0:0:0:
84,316,45197,1,0,0:0:0:0:
268,104,45355,1,0,0:0:0:0:
328,88,45434,1,0,0:0:0:0:
388,88,45513,2,0,P|428:176|424:240,1,149.999995422363
392,304,45750,1,0,0:0:0:0:
392,304,45829,2,0,P|300:332|224:304,1,149.999995422363
164,304,46066,1,0,0:0:0:0:
164,304,46145,2,0,L|152:208,1,74.9999977111817
280,112,46303,2,0,L|296:208,1,74.9999977111817
344,360,46460,2,0,L|328:256,1,74.9999977111817
476,156,46618,2,0,L|488:256,1,74.9999977111817
144,372,46776,2,0,P|44:336|24:208,1,224.999993133545
16,229,47092,2,0,P|44:136|24:40,1,149.999995422363
256,176,47408,2,0,L|256:352,1,149.999995422363
348,360,47645,1,0,0:0:0:0:
348,360,47724,1,0,0:0:0:0:
416,200,47881,1,0,0:0:0:0:
144,52,48039,5,0,0:0:0:0:
56,232,48197,1,0,0:0:0:0:
56,232,48276,1,0,0:0:0:0:
56,232,48355,1,0,0:0:0:0:
204,368,48513,1,0,0:0:0:0:
408,292,48671,6,0,P|468:204|492:140,1,149.999995422363
368,28,48908,1,0,0:0:0:0:
368,28,48987,2,0,L|376:200,1,149.999995422363
256,344,49303,6,0,P|152:360|60:340,1,149.999995422363
12,276,49618,1,0,0:0:0:0:
124,128,49776,1,0,0:0:0:0:
184,124,49855,1,0,0:0:0:0:
244,136,49934,1,0,0:0:0:0:
300,156,50013,1,0,0:0:0:0:
348,192,50092,1,0,0:0:0:0:
216,16,50250,1,0,0:0:0:0:
256,344,50408,1,0,0:0:0:0:
256,344,50487,1,0,0:0:0:0:
256,344,50566,5,0,0:0:0:0:
416,224,50724,1,0,0:0:0:0:
104,280,50881,1,0,0:0:0:0:
76,80,51039,1,0,0:0:0:0:
280,136,51197,1,0,0:0:0:0:
112,368,51355,1,0,0:0:0:0:
16,152,51513,1,0,0:0:0:0:
76,160,51592,1,0,0:0:0:0:
136,160,51671,1,0,0:0:0:0:
196,148,51750,1,0,0:0:0:0:
248,120,51829,6,0,P|236:232|224:296,1,149.999995422363
92,200,52145,2,0,P|80:88|80:8,1,149.999995422363
408,224,52460,2,0,P|420:320|412:392,1,149.999995422363
340,88,52776,2,0,P|424:56|496:52,1,149.999995422363
176,324,53092,6,0,P|72:344|0:352,1,149.999995422363
232,104,53408,2,0,P|256:200|260:260,1,149.999995422363
256,328,53645,1,0,0:0:0:0:
256,328,53724,1,0,0:0:0:0:
96,184,53881,1,0,0:0:0:0:
312,48,54039,2,0,P|412:44|512:44,1,149.999995422363
484,168,54355,6,0,P|400:212|324:220,1,149.999995422363
164,208,54671,2,0,P|72:192|-20:240,1,149.999995422363
268,356,54987,2,0,P|288:244|272:200,1,149.999995422363
160,36,55303,2,0,P|140:128|164:204,1,149.999995422363
184,252,55539,1,0,0:0:0:0:
184,252,55618,1,0,0:0:0:0:
320,96,55776,1,0,0:0:0:0:
368,336,55934,1,0,0:0:0:0:
504,184,56092,1,0,0:0:0:0:
452,212,56171,1,0,0:0:0:0:
392,216,56250,1,0,0:0:0:0:
336,196,56329,1,0,0:0:0:0:
288,164,56408,1,0,0:0:0:0:
68,96,56566,1,0,0:0:0:0:
44,312,56724,1,0,0:0:0:0:
100,288,56803,1,0,0:0:0:0:
160,292,56881,5,0,0:0:0:0:
220,132,57039,1,0,0:0:0:0:
292,360,57197,1,0,0:0:0:0:
404,104,57355,1,0,0:0:0:0:
404,104,57434,1,0,0:0:0:0:
404,104,57513,1,0,0:0:0:0:
112,224,57671,1,0,0:0:0:0:
440,132,57829,1,0,0:0:0:0:
104,88,57987,1,0,0:0:0:0:
56,124,58066,1,0,0:0:0:0:
44,184,58145,1,0,0:0:0:0:
96,344,58303,1,0,0:0:0:0:
208,244,58460,1,0,0:0:0:0:
436,352,58618,1,0,0:0:0:0:
464,300,58697,1,0,0:0:0:0:
460,240,58776,1,0,0:0:0:0:
428,192,58855,1,0,0:0:0:0:
376,164,58934,1,0,0:0:0:0:
308,272,59092,1,0,0:0:0:0:
236,308,59171,1,0,0:0:0:0:
160,296,59250,1,0,0:0:0:0:
104,240,59329,1,0,0:0:0:0:
96,160,59408,6,0,P|96:68|112:-8,1,149.999995422363
324,116,59724,2,0,P|336:252|328:368,1,224.999993133545
331,340,60039,2,0,L|488:308,1,149.999995422363
140,328,60355,2,0,L|-12:288,1,149.999995422363
28,112,60671,5,0,0:0:0:0:
424,232,60829,1,0,0:0:0:0:
424,232,60908,1,0,0:0:0:0:
424,232,60987,1,0,0:0:0:0:
208,368,61145,1,0,0:0:0:0:
156,80,61303,1,0,0:0:0:0:
380,100,61460,1,0,0:0:0:0:
416,320,61618,1,0,0:0:0:0:
68,284,61776,1,0,0:0:0:0:
68,284,61855,1,0,0:0:0:0:
68,284,61934,1,0,0:0:0:0:
200,76,81513,5,0,0:0:0:0:
264,328,81671,1,0,0:0:0:0:
352,104,81829,1,0,0:0:0:0:
96,216,81987,1,0,0:0:0:0:
384,320,82145,2,0,P|408:244|420:112,1,200
280,36,82618,1,0,0:0:0:0:
136,144,82776,2,0,P|136:244|144:272,1,100
152,288,83013,1,0,0:0:0:0:
152,288,83092,1,0,0:0:0:0:
244,164,83250,1,0,0:0:0:0:
20,224,83408,5,0,0:0:0:0:
252,356,83566,1,0,0:0:0:0:
264,128,83724,1,0,0:0:0:0:
152,288,83881,1,0,0:0:0:0:
296,104,84039,1,0,0:0:0:0:
72,184,84197,1,0,0:0:0:0:
72,184,84276,1,0,0:0:0:0:
72,184,84355,2,0,P|60:120|80:56,1,100
224,156,84671,6,0,P|232:224|216:272,1,100
340,332,84987,1,0,0:0:0:0:
448,260,85145,2,0,P|448:192|440:136,1,100
241,51,85460,2,0,P|290:42|340:48,1,100
288,280,85776,2,0,P|200:240|176:236,1,100
64,232,86092,1,0,0:0:0:0:
64,232,86171,1,0,0:0:0:0:
64,232,86250,1,0,0:0:0:0:
120,352,86408,1,0,0:0:0:0:
244,152,86566,2,0,P|248:80|244:24,1,100
128,128,86881,2,0,P|128:200|148:252,1,100
208,316,87197,6,0,P|276:292|356:292,1,150
353,291,87513,2,0,P|361:223|353:171,1,100
168,24,87829,2,0,P|160:120|184:184,1,150
176,169,88145,2,0,P|216:100|216:64,1,100
48,120,88460,6,0,P|72:212|76:288,1,150
52,312,88776,1,0,0:0:0:0:
224,236,88934,1,0,0:0:0:0:
224,236,89013,1,0,0:0:0:0:
224,236,89092,1,0,0:0:0:0:
136,96,89250,1,0,0:0:0:0:
156,352,89408,1,0,0:0:0:0:
288,352,89566,6,0,P|360:336|408:336,1,100
476,304,89881,1,0,0:0:0:0:
476,304,89960,1,0,0:0:0:0:
476,304,90039,2,0,P|472:224|448:168,1,100
332,128,90355,2,0,P|328:224|344:260,1,100
336,256,90592,1,0,0:0:0:0:
336,256,90671,1,0,0:0:0:0:
456,64,90829,1,0,0:0:0:0:
260,68,90987,6,0,P|188:96|124:96,1,100
12,220,91303,2,0,P|88:196|160:228,1,150
180,256,91618,2,0,P|248:288|336:232,1,150
396,200,91934,1,0,0:0:0:0:
396,200,92092,1,0,0:0:0:0:
396,200,92250,6,0,P|412:272|408:332,1,100
312,360,92566,2,0,P|236:348|200:360,1,100
176,360,92803,1,0,0:0:0:0:
176,360,92881,1,0,0:0:0:0:
60,216,93039,1,0,0:0:0:0:
60,216,93197,1,0,0:0:0:0:
60,216,93355,2,0,L|60:88,1,100
168,224,93671,2,0,L|296:220,1,100
48,344,93987,2,0,P|16:272|24:208,1,100
196,32,94303,2,0,P|208:108|200:168,1,100
240,252,94618,2,0,P|296:300|336:300,1,100
488,132,94934,1,0,0:0:0:0:
352,76,95092,1,0,0:0:0:0:
224,176,95250,2,0,P|216:272|224:304,1,100
340,352,95566,1,0,0:0:0:0:
340,200,95724,1,0,0:0:0:0:
104,332,95881,1,0,0:0:0:0:
104,332,95960,1,0,0:0:0:0:
104,332,96039,6,0,P|72:264|72:196,1,100
88,124,96355,1,0,0:0:0:0:
196,80,96513,1,0,0:0:0:0:
196,80,96592,1,0,0:0:0:0:
196,80,96671,1,0,0:0:0:0:
48,136,96829,1,0,0:0:0:0:
296,104,96987,1,0,0:0:0:0:
272,328,97145,1,0,0:0:0:0:
104,332,97303,2,0,P|80:248|104:172,1,150
94,188,97618,2,0,P|160:184|196:196,1,100
312,248,97934,2,0,P|380:256|464:208,1,150
451,221,98250,2,0,L|452:108,1,100
260,24,98566,2,0,L|260:152,1,100
244,176,98803,1,0,0:0:0:0:
244,176,98881,2,0,P|168:184|112:164,1,100
44,292,99197,1,0,0:0:0:0:
44,292,99276,2,0,P|120:272|176:288,1,100
168,308,99513,2,0,P|232:320|296:292,1,100
380,272,99829,5,0,0:0:0:0:
432,136,99987,1,0,0:0:0:0:
432,136,100066,1,0,0:0:0:0:
432,136,100145,1,0,0:0:0:0:
324,44,100303,1,0,0:0:0:0:
200,96,100460,1,0,0:0:0:0:
200,96,100539,2,0,P|188:188|204:232,1,100
192,240,100776,2,0,P|268:208|304:168,1,100
76,116,101092,6,0,L|88:300,1,150
88,316,101408,1,0,0:0:0:0:
276,176,101566,1,0,0:0:0:0:
276,176,101645,1,0,0:0:0:0:
276,176,101724,1,0,0:0:0:0:
276,176,101803,2,0,P|360:168|396:184,1,100
400,200,102039,2,0,P|408:272|400:324,1,100
256,336,102355,2,0,P|180:328|108:344,1,125
32,112,102671,1,0,0:0:0:0:
216,188,102829,1,0,0:0:0:0:
264,192,102908,1,0,0:0:0:0:
312,184,102987,1,0,0:0:0:0:
408,48,103145,1,0,0:0:0:0:
320,332,103303,1,0,0:0:0:0:
248,92,103460,1,0,0:0:0:0:
184,352,103618,5,0,0:0:0:0:
420,228,103776,1,0,0:0:0:0:
192,56,103934,1,0,0:0:0:0:
440,264,104092,1,0,0:0:0:0:
440,264,104171,1,0,0:0:0:0:
440,264,104250,1,0,0:0:0:0:
72,64,104408,1,0,0:0:0:0:
116,340,104566,1,0,0:0:0:0:
72,64,104724,1,0,0:0:0:0:
208,252,104881,6,0,P|296:240|352:252,1,125
460,124,105197,1,0,0:0:0:0:
328,48,105355,1,0,0:0:0:0:
280,52,105434,1,0,0:0:0:0:
232,68,105513,1,0,0:0:0:0:
128,216,105671,1,0,0:0:0:0:
72,64,105829,1,0,0:0:0:0:
280,72,105987,1,0,0:0:0:0:
284,128,106066,1,0,0:0:0:0:
264,172,106145,1,0,0:0:0:0:
108,272,106303,5,0,0:0:0:0:
32,28,106461,1,0,0:0:0:0:
320,24,106618,5,0,0:0:0:0:
356,60,106697,1,0,0:0:0:0:
372,108,106776,1,0,0:0:0:0:
52,152,106934,1,0,0:0:0:0:
248,368,107092,2,0,L|384:328,1,125
367,332,107329,1,0,0:0:0:0:
367,332,107408,1,0,0:0:0:0:
160,244,107566,5,0,0:0:0:0:
444,308,107724,1,0,0:0:0:0:
88,312,107881,1,0,0:0:0:0:
88,312,107960,1,0,0:0:0:0:
88,312,108039,1,0,0:0:0:0:
248,44,108197,1,0,0:0:0:0:
288,280,108355,1,0,0:0:0:0:
120,68,108513,1,0,0:0:0:0:
120,68,108592,1,0,0:0:0:0:
120,68,108671,1,0,0:0:0:0:
240,348,108829,5,0,0:0:0:0:
396,116,108987,1,0,0:0:0:0:
120,108,109146,1,0,0:0:0:0:
248,376,109303,1,0,0:0:0:0:
120,68,109461,1,0,0:0:0:0:
356,352,109619,5,0,0:0:0:0:
456,72,109777,1,0,0:0:0:0:
408,64,109856,1,0,0:0:0:0:
360,76,109935,1,0,0:0:0:0:
280,268,110092,1,0,0:0:0:0:
120,188,110250,1,0,0:0:0:0:
296,304,110408,1,0,0:0:0:0:
36,80,110566,5,0,0:0:0:0:
184,368,110724,1,0,0:0:0:0:
172,64,110881,1,0,0:0:0:0:
120,300,111039,1,0,0:0:0:0:
120,300,111118,1,0,0:0:0:0:
120,300,111197,1,0,0:0:0:0:
364,160,111355,5,0,0:0:0:0:
104,244,111513,1,0,0:0:0:0:
384,272,111671,1,0,0:0:0:0:
112,204,111829,1,0,0:0:0:0:
288,368,111987,1,0,0:0:0:0:
300,48,112145,1,0,0:0:0:0:
40,144,112303,1,0,0:0:0:0:
40,144,112381,1,0,0:0:0:0:
40,144,112460,5,0,0:0:0:0:
124,208,112618,1,0,0:0:0:0:
232,196,112776,1,0,0:0:0:0:
312,112,112934,1,0,0:0:0:0:
164,28,113092,1,0,0:0:0:0:
136,136,113250,1,0,0:0:0:0:
188,228,113408,1,0,0:0:0:0:
180,336,113566,1,0,0:0:0:0:
180,336,113645,1,0,0:0:0:0:
180,336,113724,5,0,0:0:0:0:
308,288,113881,1,0,0:0:0:0:
60,184,114039,1,0,0:0:0:0:
32,52,114197,1,0,0:0:0:0:
252,96,114355,1,0,0:0:0:0:
260,216,114513,1,0,0:0:0:0:
456,256,114671,1,0,0:0:0:0:
444,128,114829,1,0,0:0:0:0:
444,128,114908,1,0,0:0:0:0:
444,128,114987,5,0,0:0:0:0:
376,324,115145,1,0,0:0:0:0:
444,128,115303,1,0,0:0:0:0:
332,360,115460,1,0,0:0:0:0:
332,124,115618,1,0,0:0:0:0:
284,356,115776,1,0,0:0:0:0:
240,148,115934,1,0,0:0:0:0:
240,332,116092,1,0,0:0:0:0:
192,324,116171,1,0,0:0:0:0:
148,352,116250,5,0,0:0:0:0:
104,72,116408,1,0,0:0:0:0:
80,320,116566,1,0,0:0:0:0:
220,48,116724,1,0,0:0:0:0:
36,248,116881,1,0,0:0:0:0:
340,92,117039,1,0,0:0:0:0:
24,164,117197,1,0,0:0:0:0:
80,56,117355,1,0,0:0:0:0:
80,56,117434,1,0,0:0:0:0:
80,56,117513,2,0,P|168:40|228:44,1,137.500004196167
52,296,117829,1,0,0:0:0:0:
208,192,117987,1,0,0:0:0:0:
208,192,118066,1,0,0:0:0:0:
208,192,118145,1,0,0:0:0:0:
48,24,118303,1,0,0:0:0:0:
156,360,118460,2,0,P|232:332|280:280,1,137.500004196167
364,228,118697,1,0,0:0:0:0:
412,232,118776,2,0,P|432:308|416:372,1,137.500004196167
120,192,119092,1,0,0:0:0:0:
396,104,119250,1,0,0:0:0:0:
396,104,119329,1,0,0:0:0:0:
396,104,119408,1,0,0:0:0:0:
260,360,119566,1,0,0:0:0:0:
132,308,119724,2,0,P|116:200|148:144,1,137.500004196167
176,104,119960,1,0,0:0:0:0:
176,104,120039,2,0,P|120:96|80:96,1,68.7500020980836
36,176,120197,2,0,P|36:216|44:264,1,68.7500020980836
112,320,120355,2,0,P|156:340|200:336,1,68.7500020980836
288,288,120513,2,0,P|312:240|320:208,1,68.7500020980836
336,116,120671,5,0,0:0:0:0:
360,68,120750,1,0,0:0:0:0:
412,48,120829,1,0,0:0:0:0:
464,64,120908,1,0,0:0:0:0:
484,116,120987,1,0,0:0:0:0:
480,172,121066,1,0,0:0:0:0:
436,208,121145,1,0,0:0:0:0:
380,216,121224,1,0,0:0:0:0:
328,236,121303,1,0,0:0:0:0:
300,284,121381,1,0,0:0:0:0:
312,336,121460,1,0,0:0:0:0:
360,364,121539,1,0,0:0:0:0:
416,356,121618,1,0,0:0:0:0:
436,304,121697,1,0,0:0:0:0:
424,252,121776,1,0,0:0:0:0:
380,216,121855,1,0,0:0:0:0:
348,164,121934,2,0,P|344:112|348:68,1,74.9999977111817
448,36,122092,2,0,P|460:96|456:128,1,74.9999977111817
224,244,122250,2,0,P|216:184|220:128,1,74.9999977111817
100,96,122408,2,0,P|92:152|100:184,1,74.9999977111817
184,340,122566,6,0,P|72:332|16:256,1,174.999994659424
56,188,122803,1,0,0:0:0:0:
56,188,122881,2,0,P|56:72|32:16,1,174.999994659424
236,72,123197,2,0,P|360:44|472:116,1,262.499991989136
469,112,123513,2,0,L|480:296,1,174.999994659424
484,324,123750,1,0,0:0:0:0:
484,324,123829,1,0,0:0:0:0:
192,240,123987,1,0,0:0:0:0:
124,248,124066,1,0,0:0:0:0:
60,280,124145,1,0,0:0:0:0:
100,56,124303,1,0,0:0:0:0:
264,364,124460,1,0,0:0:0:0:
264,364,124539,2,0,P|256:264|264:160,1,174.999994659424
272,96,124776,2,0,P|384:68|472:80,1,174.999994659424
442,72,125013,1,0,0:0:0:0:
448,76,125092,6,0,P|444:188|460:352,1,262.499991989136
360,356,125408,1,0,0:0:0:0:
192,152,125566,1,0,0:0:0:0:
192,152,125645,1,0,0:0:0:0:
192,152,125724,2,0,P|56:144|16:164,1,174.999994659424
24,208,125960,1,0,0:0:0:0:
24,208,126039,2,0,P|28:308|44:388,1,174.999994659424
152,312,126276,1,0,0:0:0:0:
192,296,126355,2,0,P|304:280|432:296,1,174.999994659424
480,160,126592,1,0,0:0:0:0:
456,116,126671,2,0,P|356:72|272:84,1,174.999994659424
152,152,126908,1,0,0:0:0:0:
152,152,126987,2,0,P|132:208|144:264,1,87.499997329712
320,344,127145,2,0,L|416:312,1,87.499997329712
480,160,127303,2,0,L|368:208,1,87.499997329712
208,224,127460,2,0,P|136:224|96:216,1,87.499997329712
40,336,127618,6,0,P|148:352|296:284,1,262.499991989136
364,216,127934,1,0,0:0:0:0:
464,352,128092,1,0,0:0:0:0:
208,228,128250,1,0,0:0:0:0:
208,228,128329,2,0,P|192:120|208:40,1,174.999994659424
202,55,128566,2,0,L|24:72,1,174.999994659424
40,304,128881,6,0,P|128:284|328:328,1,262.499991989136
396,360,129197,2,0,P|416:264|400:76,1,262.499991989136
332,36,129513,1,0,0:0:0:0:
264,28,129592,1,0,0:0:0:0:
196,36,129671,1,0,0:0:0:0:
132,64,129750,1,0,0:0:0:0:
84,116,129829,2,0,P|96:240|88:316,1,174.999994659424
88,324,130066,1,0,0:0:0:0:
88,324,130145,6,0,P|28:276|56:100,1,262.499991989136
168,84,130460,2,0,P|276:96|352:88,1,174.999994659424
496,292,130776,1,0,0:0:0:0:
296,220,130934,1,0,0:0:0:0:
224,220,131013,1,0,0:0:0:0:
156,240,131092,1,0,0:0:0:0:
292,356,131250,1,0,0:0:0:0:
24,184,131408,5,0,0:0:0:0:
332,28,131566,1,0,0:0:0:0:
292,356,131724,1,0,0:0:0:0:
24,184,131881,1,0,0:0:0:0:
24,184,131960,1,0,0:0:0:0:
24,184,132039,2,0,P|116:108|188:96,1,174.999994659424
268,156,132276,1,0,0:0:0:0:
304,172,132355,2,0,P|408:208|512:176,1,174.999994659424
496,104,132592,1,0,0:0:0:0:
496,104,132671,6,0,P|392:76|224:108,1,262.499991989136
241,100,132987,2,0,L|244:328,1,174.999994659424
48,352,133303,1,0,0:0:0:0:
48,352,133381,2,0,P|32:248|44:160,1,174.999994659424
100,104,133618,2,0,P|188:92|308:100,1,174.999994659424
216,332,133934,1,0,0:0:0:0:
436,220,134092,1,0,0:0:0:0:
444,152,134171,1,0,0:0:0:0:
436,84,134250,1,0,0:0:0:0:
376,360,134408,1,0,0:0:0:0:
160,200,134566,1,0,0:0:0:0:
160,200,134645,1,0,0:0:0:0:
436,84,134803,1,0,0:0:0:0:
436,84,134881,1,0,0:0:0:0:
108,244,135039,1,0,0:0:0:0:
496,136,135197,5,0,0:0:0:0:
456,288,135355,1,0,0:0:0:0:
456,288,135434,1,0,0:0:0:0:
456,288,135513,1,0,0:0:0:0:
256,28,135671,1,0,0:0:0:0:
256,184,135829,1,0,0:0:0:0:
256,184,135908,2,0,P|152:208|60:188,1,174.999994659424
40,148,136145,2,0,L|44:344,1,174.999994659424
232,360,136460,6,0,P|344:336|436:336,1,174.999994659424
440,336,136697,1,0,0:0:0:0:
440,336,136776,1,0,0:0:0:0:
340,104,136934,1,0,0:0:0:0:
320,172,137013,1,0,0:0:0:0:
332,240,137092,1,0,0:0:0:0:
168,56,137250,1,0,0:0:0:0:
128,348,137408,1,0,0:0:0:0:
24,120,137566,1,0,0:0:0:0:
256,256,137724,6,0,P|364:268|500:168,1,262.499991989136
488,187,138039,6,0,L|480:8,1,174.999994659424
328,188,138355,1,0,0:0:0:0:
332,188,138434,2,0,L|344:368,1,174.999994659424
208,352,138671,2,0,P|168:252|192:164,1,174.999994659424
200,60,138987,6,0,P|108:40|20:64,1,174.999994659424
4,96,139224,1,0,0:0:0:0:
4,96,139303,1,0,0:0:0:0:
92,276,139460,1,0,0:0:0:0:
352,48,139618,1,0,0:0:0:0:
320,344,139776,1,0,0:0:0:0:
320,344,139855,1,0,0:0:0:0:
320,344,139934,1,0,0:0:0:0:
176,168,140092,1,0,0:0:0:0:
352,48,140250,6,0,P|456:36|508:76,1,174.999994659424
472,324,140566,2,0,P|380:336|300:288,1,174.999994659424
200,80,140881,2,0,P|100:64|32:108,1,174.999994659424
28,272,141118,1,0,0:0:0:0:
28,272,141197,2,0,P|136:304|220:248,1,174.999994659424
332,120,141513,1,0,0:0:0:0:
408,352,141671,1,0,0:0:0:0:
408,352,141750,1,0,0:0:0:0:
408,352,141829,1,0,0:0:0:0:
256,52,141987,1,0,0:0:0:0:
144,336,142145,1,0,0:0:0:0:
76,332,142224,1,0,0:0:0:0:
32,276,142303,1,0,0:0:0:0:
32,208,142381,1,0,0:0:0:0:
72,152,142460,5,0,0:0:0:0:
140,144,142539,1,0,0:0:0:0:
204,172,142618,1,0,0:0:0:0:
224,240,142697,1,0,0:0:0:0:
204,308,142776,5,0,0:0:0:0:
360,40,142934,1,0,0:0:0:0:
408,352,143092,1,0,0:0:0:0:
244,96,143250,1,0,0:0:0:0:
244,96,143329,1,0,0:0:0:0:
244,96,143408,1,0,0:0:0:0:
380,144,143566,1,0,0:0:0:0:
256,312,143724,1,0,0:0:0:0:
104,68,143881,1,0,0:0:0:0:
108,72,143960,1,0,0:0:0:0:
108,72,144039,6,0,P|84:184|96:284,1,174.999994659424
168,360,144355,1,0,0:0:0:0:
232,152,144513,1,0,0:0:0:0:
20,196,144671,1,0,0:0:0:0:
352,352,144829,1,0,0:0:0:0:
324,32,144987,1,0,0:0:0:0:
252,328,145145,1,0,0:0:0:0:
252,328,145224,1,0,0:0:0:0:
252,328,145303,5,0,0:0:0:0:
84,200,145460,1,0,0:0:0:0:
436,188,145618,1,0,0:0:0:0:
112,128,145776,1,0,0:0:0:0:
200,356,145934,1,0,0:0:0:0:
160,72,146092,1,0,0:0:0:0:
376,216,146250,1,0,0:0:0:0:
72,272,146408,1,0,0:0:0:0:
308,8,146566,1,0,0:0:0:0:
280,256,146724,1,0,0:0:0:0:
216,280,146803,1,0,0:0:0:0:
148,272,146881,1,0,0:0:0:0:
88,236,146960,1,0,0:0:0:0:
56,172,147039,1,0,0:0:0:0:
132,56,147197,5,0,0:0:0:0:
128,304,147355,1,0,0:0:0:0:
252,20,147513,1,0,0:0:0:0:
276,356,147671,1,0,0:0:0:0:
376,40,147829,2,0,P|468:88|448:248,1,262.499991989136
463,231,148145,2,0,P|352:224|280:248,1,174.999994659424
396,356,148460,1,0,0:0:0:0:
256,160,148618,1,0,0:0:0:0:
188,144,148697,1,0,0:0:0:0:
120,152,148776,1,0,0:0:0:0:
304,32,148934,1,0,0:0:0:0:
180,312,149092,1,0,0:0:0:0:
24,68,149250,1,0,0:0:0:0:
336,52,149408,5,0,0:0:0:0:
164,340,149566,1,0,0:0:0:0:
164,340,149645,1,0,0:0:0:0:
164,340,149724,1,0,0:0:0:0:
12,32,149881,1,0,0:0:0:0:
60,204,150039,1,0,0:0:0:0:
184,92,150197,2,0,P|276:76|364:84,1,174.999994659424
484,304,150513,1,0,0:0:0:0:
328,320,150671,2,0,P|208:308|112:312,1,174.999994659424
60,332,150908,1,0,0:0:0:0:
60,332,150987,1,0,0:0:0:0:
104,96,151145,1,0,0:0:0:0:
176,360,151303,1,0,0:0:0:0:
4,184,151460,1,0,0:0:0:0:
268,112,151618,5,0,0:0:0:0:
60,332,151776,1,0,0:0:0:0:
328,188,151934,1,0,0:0:0:0:
40,224,152092,1,0,0:0:0:0:
328,336,152250,1,0,0:0:0:0:
476,64,152408,1,0,0:0:0:0:
476,64,152487,1,0,0:0:0:0:
476,64,152566,1,0,0:0:0:0:
88,96,152724,1,0,0:0:0:0:
300,376,152881,5,0,0:0:0:0:
88,96,153039,1,0,0:0:0:0:
300,376,153197,1,0,0:0:0:0:
476,64,153355,1,0,0:0:0:0:
276,24,153513,1,0,0:0:0:0:
440,248,153671,1,0,0:0:0:0:
492,40,153829,1,0,0:0:0:0:
224,56,153987,5,0,0:0:0:0:
168,252,154145,1,0,0:0:0:0:
332,40,154303,1,0,0:0:0:0:
316,336,154460,1,0,0:0:0:0:
76,152,154618,1,0,0:0:0:0:
400,128,154776,1,0,0:0:0:0:
256,384,154934,1,0,0:0:0:0:
36,120,155092,1,0,0:0:0:0:
72,272,155250,1,0,0:0:0:0:
140,256,155329,1,0,0:0:0:0:
212,256,155408,1,0,0:0:0:0:
432,296,155566,1,0,0:0:0:0:
352,88,155724,1,0,0:0:0:0:
196,300,155881,1,0,0:0:0:0:
452,312,156039,1,0,0:0:0:0:
360,40,156197,1,0,0:0:0:0:
292,28,156276,1,0,0:0:0:0:
224,36,156355,1,0,0:0:0:0:
164,76,156434,1,0,0:0:0:0:
120,132,156513,1,0,0:0:0:0:
252,364,156671,5,0,0:0:0:0:
392,128,156829,1,0,0:0:0:0:
72,104,156987,1,0,0:0:0:0:
80,284,157145,1,0,0:0:0:0:
80,284,157224,1,0,0:0:0:0:
80,284,157303,1,0,0:0:0:0:
232,176,157460,1,0,0:0:0:0:
36,64,157618,1,0,0:0:0:0:
356,376,157776,1,0,0:0:0:0:
44,320,157934,2,0,P|164:288|300:352,1,262.499991989136
287,339,158250,2,0,P|388:324|488:312,1,174.999994659424
464,136,158566,2,0,P|356:108|272:128,1,174.999994659424
248,140,158803,1,0,0:0:0:0:
248,140,158881,1,0,0:0:0:0:
344,356,159039,1,0,0:0:0:0:
400,44,159197,5,0,0:0:0:0:
392,264,159355,1,0,0:0:0:0:
260,24,159513,1,0,0:0:0:0:
268,312,159671,1,0,0:0:0:0:
268,312,159750,1,0,0:0:0:0:
268,312,159829,1,0,0:0:0:0:
400,44,159987,1,0,0:0:0:0:
140,172,160145,1,0,0:0:0:0:
380,360,160303,1,0,0:0:0:0:
432,36,160460,5,0,0:0:0:0:
100,160,160618,1,0,0:0:0:0:
356,376,160776,1,0,0:0:0:0:
224,44,160934,1,0,0:0:0:0:
156,36,161013,1,0,0:0:0:0:
88,52,161092,1,0,0:0:0:0:
468,144,161250,1,0,0:0:0:0:
252,356,161408,1,0,0:0:0:0:
224,44,161566,1,0,0:0:0:0:
116,320,161724,5,0,0:0:0:0:
72,136,161881,1,0,0:0:0:0:
252,356,162039,1,0,0:0:0:0:
300,120,162197,1,0,0:0:0:0:
368,112,162276,1,0,0:0:0:0:
428,148,162355,1,0,0:0:0:0:
456,212,162434,1,0,0:0:0:0:
444,280,162513,1,0,0:0:0:0:
448,48,162671,1,0,0:0:0:0:
336,232,162829,1,0,0:0:0:0:
200,92,162987,1,0,0:0:0:0:
92,72,165513,6,0,P|72:160|92:240,1,125
160,312,165829,1,0,0:0:0:0:
316,240,165987,1,0,0:0:0:0:
472,360,166145,2,0,P|480:264|472:192,1,125
148,216,166460,1,0,0:0:0:0:
240,80,166618,2,0,L|384:40,1,125
68,92,166934,1,0,0:0:0:0:
304,180,167092,1,0,0:0:0:0:
160,20,167250,2,0,P|152:160|156:168,1,125
276,332,167566,2,0,P|292:232|288:184,1,125
404,360,167881,1,0,0:0:0:0:
416,156,168039,1,0,0:0:0:0:
192,236,168197,5,0,0:0:0:0:
488,232,168355,1,0,0:0:0:0:
340,32,168513,1,0,0:0:0:0:
276,352,168671,1,0,0:0:0:0:
132,208,168829,1,0,0:0:0:0:
300,356,168987,1,0,0:0:0:0:
64,292,169145,2,0,L|0:148,1,125
200,32,169460,1,0,0:0:0:0:
200,32,169539,1,0,0:0:0:0:
200,32,169618,2,0,L|264:164,1,125
488,40,169934,2,0,P|400:40|336:60,1,125
296,180,170250,2,0,P|288:272|304:336,1,125
392,376,170566,6,0,P|464:312|472:248,1,125
412,184,170881,1,0,0:0:0:0:
164,144,171039,1,0,0:0:0:0:
112,348,171197,1,0,0:0:0:0:
280,264,171355,2,0,P|276:160|260:108,1,125
208,52,171671,1,0,0:0:0:0:
272,324,171829,1,0,0:0:0:0:
416,84,171987,1,0,0:0:0:0:
272,324,172145,1,0,0:0:0:0:
152,236,172303,2,0,P|136:132|144:88,1,125
368,160,172618,2,0,P|392:244|384:296,1,125
360,316,172855,1,0,0:0:0:0:
360,316,172934,1,0,0:0:0:0:
492,184,173092,1,0,0:0:0:0:
176,76,173250,1,0,0:0:0:0:
112,352,173408,1,0,0:0:0:0:
154,187,173566,6,0,P|92:188|40:156,1,125
296,184,173881,2,0,P|316:280|308:340,1,125
124,264,174197,2,0,P|104:172|120:64,1,187.5
120,48,174513,1,0,0:0:0:0:
16,216,174671,2,0,P|96:188|160:208,1,125
176,216,174908,1,0,0:0:0:0:
176,216,174987,1,0,0:0:0:0:
304,76,175145,1,0,0:0:0:0:
320,360,175303,1,0,0:0:0:0:
468,240,175460,1,0,0:0:0:0:
188,312,175618,6,0,L|44:304,1,125
32,140,175934,1,0,0:0:0:0:
144,72,176092,2,0,P|224:56|316:64,1,125
388,92,176408,2,0,P|396:188|384:244,1,125
220,320,176724,1,0,0:0:0:0:
172,328,176803,1,0,0:0:0:0:
128,308,176881,1,0,0:0:0:0:
296,196,177039,1,0,0:0:0:0:
320,344,177197,1,0,0:0:0:0:
324,108,177355,1,0,0:0:0:0:
136,212,177513,1,0,0:0:0:0:
436,216,177671,1,0,0:0:0:0:
104,172,177829,2,0,P|80:256|112:308,1,125
216,344,178145,2,0,P|312:332|356:340,1,125
472,168,178460,1,0,0:0:0:0:
256,240,178618,1,0,0:0:0:0:
476,260,178776,1,0,0:0:0:0:
336,88,178934,1,0,0:0:0:0:
344,344,179092,1,0,0:0:0:0:
148,168,179250,1,0,0:0:0:0:
92,352,179408,5,0,0:0:0:0:
44,80,179566,1,0,0:0:0:0:
228,296,179724,1,0,0:0:0:0:
8,276,179881,1,0,0:0:0:0:
8,276,179960,1,0,0:0:0:0:
8,276,180039,1,0,0:0:0:0:
384,136,180197,1,0,0:0:0:0:
164,40,180355,1,0,0:0:0:0:
212,356,180513,1,0,0:0:0:0:
408,268,180671,6,0,P|444:172|432:128,1,125
384,48,180987,1,0,0:0:0:0:
160,160,181145,1,0,0:0:0:0:
412,64,181303,1,0,0:0:0:0:
88,92,181460,1,0,0:0:0:0:
436,88,181618,1,0,0:0:0:0:
16,48,181776,2,0,P|12:140|48:212,1,125
112,264,182092,1,0,0:0:0:0:
112,264,182171,1,0,0:0:0:0:
112,264,182250,1,0,0:0:0:0:
216,124,182408,1,0,0:0:0:0:
296,360,182566,2,0,P|344:304|360:240,1,125
492,92,182881,1,0,0:0:0:0:
304,72,183039,1,0,0:0:0:0:
84,336,183197,5,0,0:0:0:0:
64,164,183355,1,0,0:0:0:0:
84,336,183513,1,0,0:0:0:0:
224,68,183671,1,0,0:0:0:0:
88,336,183829,1,0,0:0:0:0:
28,40,183987,1,0,0:0:0:0:
456,172,184145,1,0,0:0:0:0:
112,208,184303,1,0,0:0:0:0:
276,8,184460,1,0,0:0:0:0:
336,344,184618,2,0,P|272:360|188:368,1,125
112,208,184934,1,0,0:0:0:0:
112,208,185013,1,0,0:0:0:0:
112,208,185092,1,0,0:0:0:0:
360,152,185250,1,0,0:0:0:0:
96,316,185408,1,0,0:0:0:0:
408,180,185566,1,0,0:0:0:0:
12,368,185724,5,0,0:0:0:0:
24,160,185881,1,0,0:0:0:0:
140,352,186039,1,0,0:0:0:0:
148,80,186197,1,0,0:0:0:0:
264,344,186355,1,0,0:0:0:0:
304,48,186513,1,0,0:0:0:0:
404,356,186671,1,0,0:0:0:0:
468,44,186829,1,0,0:0:0:0:
468,44,186908,1,0,0:0:0:0:
468,44,186987,5,0,0:0:0:0:
356,252,187145,1,0,0:0:0:0:
352,36,187303,1,0,0:0:0:0:
344,308,187460,1,0,0:0:0:0:
504,160,187618,1,0,0:0:0:0:
280,336,187776,1,0,0:0:0:0:
52,40,187934,1,0,0:0:0:0:
200,328,188092,1,0,0:0:0:0:
264,96,188250,5,0,0:0:0:0:
56,260,188408,1,0,0:0:0:0:
336,132,188566,1,0,0:0:0:0:
96,148,188724,1,0,0:0:0:0:
96,148,188803,1,0,0:0:0:0:
96,148,188881,1,0,0:0:0:0:
216,356,189039,1,0,0:0:0:0:
172,52,189197,1,0,0:0:0:0:
48,332,189355,1,0,0:0:0:0:
16,96,189513,5,0,0:0:0:0:
296,144,189671,1,0,0:0:0:0:
128,352,189829,1,0,0:0:0:0:
172,52,189987,1,0,0:0:0:0:
432,240,190145,1,0,0:0:0:0:
64,236,190303,1,0,0:0:0:0:
336,24,190460,1,0,0:0:0:0:
312,368,190618,1,0,0:0:0:0:
80,128,190776,5,0,0:0:0:0:
448,124,190934,1,0,0:0:0:0:
192,360,191092,1,0,0:0:0:0:
196,32,191250,1,0,0:0:0:0:
196,32,191329,1,0,0:0:0:0:
196,32,191408,1,0,0:0:0:0:
440,272,191566,1,0,0:0:0:0:
52,180,191724,1,0,0:0:0:0:
396,44,191881,1,0,0:0:0:0:
256,368,192039,5,0,0:0:0:0:
116,44,192197,1,0,0:0:0:0:
256,368,192355,5,0,0:0:0:0:
396,44,192513,1,0,0:0:0:0:
256,368,192671,1,0,0:0:0:0:
204,368,192750,1,0,0:0:0:0:
164,336,192829,1,0,0:0:0:0:
140,292,192908,1,0,0:0:0:0:
140,240,192987,1,0,0:0:0:0:
172,200,193066,1,0,0:0:0:0:
216,180,193145,1,0,0:0:0:0:
264,184,193224,1,0,0:0:0:0:
304,212,193303,1,0,0:0:0:0:
304,212,193934,5,0,0:0:0:0:
480,152,194092,1,0,0:0:0:0:
368,28,194250,1,0,0:0:0:0:
392,360,194408,1,0,0:0:0:0:
188,264,194566,6,0,P|172:156|168:80,1,174.999994659424
168,44,194803,1,0,0:0:0:0:
168,44,194881,1,0,0:0:0:0:
40,216,195039,1,0,0:0:0:0:
316,128,195197,1,0,0:0:0:0:
192,376,195355,1,0,0:0:0:0:
48,92,195513,1,0,0:0:0:0:
380,124,195671,1,0,0:0:0:0:
24,156,195829,1,0,0:0:0:0:
436,140,195987,1,0,0:0:0:0:
40,216,196145,1,0,0:0:0:0:
480,172,196303,1,0,0:0:0:0:
476,240,196381,1,0,0:0:0:0:
440,300,196460,1,0,0:0:0:0:
296,180,196618,1,0,0:0:0:0:
340,376,196776,1,0,0:0:0:0:
408,200,196934,6,0,P|404:88|400:0,1,174.999994659424
132,176,197250,2,0,L|148:384,1,174.999994659424
280,328,197566,2,0,P|408:316|480:248,1,174.999994659424
476,136,197881,2,0,P|332:120|288:128,1,174.999994659424
184,232,198197,1,0,0:0:0:0:
116,248,198276,1,0,0:0:0:0:
48,228,198355,1,0,0:0:0:0:
216,40,198513,1,0,0:0:0:0:
256,100,198592,1,0,0:0:0:0:
260,168,198671,1,0,0:0:0:0:
184,332,198829,1,0,0:0:0:0:
252,352,198908,1,0,0:0:0:0:
324,348,198987,5,0,0:0:0:0:
384,312,199066,1,0,0:0:0:0:
428,260,199145,1,0,0:0:0:0:
96,364,199303,1,0,0:0:0:0:
72,152,199460,1,0,0:0:0:0:
252,352,199618,5,0,0:0:0:0:
288,52,199776,1,0,0:0:0:0:
104,288,199934,1,0,0:0:0:0:
40,56,200092,1,0,0:0:0:0:
40,56,200171,1,0,0:0:0:0:
40,56,200250,1,0,0:0:0:0:
176,348,200408,1,0,0:0:0:0:
388,88,200566,1,0,0:0:0:0:
240,152,200724,1,0,0:0:0:0:
364,268,200881,5,0,0:0:0:0:
396,56,201039,1,0,0:0:0:0:
224,296,201197,1,0,0:0:0:0:
408,24,201355,1,0,0:0:0:0:
408,24,201434,1,0,0:0:0:0:
408,24,201513,1,0,0:0:0:0:
456,200,201671,1,0,0:0:0:0:
268,44,201829,1,0,0:0:0:0:
312,340,201987,2,0,P|204:328|44:376,1,262.499991989136
57,368,202303,2,0,L|37:172,1,174.999994659424
112,72,202618,1,0,0:0:0:0:
180,64,202697,1,0,0:0:0:0:
248,76,202776,1,0,0:0:0:0:
400,252,202934,1,0,0:0:0:0:
484,52,203092,1,0,0:0:0:0:
400,252,203250,1,0,0:0:0:0:
400,252,203329,1,0,0:0:0:0:
400,252,203408,1,0,0:0:0:0:
320,36,203566,5,0,0:0:0:0:
280,364,203724,1,0,0:0:0:0:
144,144,203881,1,0,0:0:0:0:
444,144,204039,1,0,0:0:0:0:
148,320,204197,1,0,0:0:0:0:
80,52,204355,1,0,0:0:0:0:
392,368,204513,1,0,0:0:0:0:
440,56,204671,1,0,0:0:0:0:
152,184,204829,5,0,0:0:0:0:
412,144,204987,1,0,0:0:0:0:
96,256,205145,1,0,0:0:0:0:
348,208,205303,1,0,0:0:0:0:
8,264,205460,1,0,0:0:0:0:
276,248,205618,1,0,0:0:0:0:
104,52,205776,2,0,P|80:148|120:248,1,174.999994659424
380,348,206092,2,0,P|392:252|376:160,1,174.999994659424
312,80,206408,2,0,P|440:36|512:60,1,174.999994659424
496,200,206724,2,0,P|416:248|328:232,1,174.999994659424
240,172,207039,5,0,0:0:0:0:
380,344,207197,1,0,0:0:0:0:
396,16,207355,1,0,0:0:0:0:
224,296,207513,1,0,0:0:0:0:
496,200,207671,1,0,0:0:0:0:
496,200,207750,1,0,0:0:0:0:
496,200,207829,1,0,0:0:0:0:
200,80,207987,5,0,0:0:0:0:
52,92,208145,1,0,0:0:0:0:
128,224,208303,1,0,0:0:0:0:
196,216,208381,1,0,0:0:0:0:
236,156,208460,1,0,0:0:0:0:
116,60,208618,5,0,0:0:0:0:
152,336,208776,1,0,0:0:0:0:
216,28,208934,1,0,0:0:0:0:
320,336,209092,1,0,0:0:0:0:
328,24,209250,1,0,0:0:0:0:
476,288,209408,1,0,0:0:0:0:
168,256,209566,1,0,0:0:0:0:
328,24,209724,6,0,P|432:64|472:152,1,174.999994659424
320,336,210039,2,0,P|212:336|92:304,1,174.999994659424
104,320,210276,1,0,0:0:0:0:
104,320,210355,2,0,P|84:196|108:128,1,174.999994659424
156,80,210671,1,0,0:0:0:0:
304,248,210829,2,0,P|392:232|480:160,1,174.999994659424
368,48,211145,1,0,0:0:0:0:
368,48,211224,1,0,0:0:0:0:
368,48,211303,1,0,0:0:0:0:
240,112,211460,1,0,0:0:0:0:
480,348,211618,1,0,0:0:0:0:
304,248,211776,1,0,0:0:0:0:
32,348,211934,1,0,0:0:0:0:
208,248,212092,1,0,0:0:0:0:
208,248,212171,1,0,0:0:0:0:
208,248,212250,6,0,P|100:212|0:208,1,174.999994659424
304,4,212566,2,0,P|296:132|316:204,1,174.999994659424
432,348,212881,2,0,P|468:240|456:148,1,174.999994659424
420,104,213118,1,0,0:0:0:0:
420,104,213197,2,0,L|212:124,1,174.999994659424
48,276,213513,5,0,0:0:0:0:
376,216,213671,1,0,0:0:0:0:
180,80,213829,1,0,0:0:0:0:
184,344,213987,1,0,0:0:0:0:
184,344,214066,1,0,0:0:0:0:
184,344,214145,1,0,0:0:0:0:
104,136,214303,1,0,0:0:0:0:
224,368,214460,1,0,0:0:0:0:
276,80,214618,1,0,0:0:0:0:
464,276,217303,6,0,P|408:316|268:232,1,250
208,176,218250,1,0,0:0:0:0:
56,288,218566,5,0,0:0:0:0:
56,288,219039,5,0,0:0:0:0:
160,272,219197,2,0,P|176:188|180:164,2,93.75
112,360,219829,6,0,P|80:280|64:224,1,125
104,128,220303,2,0,P|192:104|248:120,1,125
352,64,220776,2,0,P|372:124|352:204,1,125
362,183,221566,1,0,0:0:0:0:
328,296,221724,2,0,P|276:288|224:276,2,93.75
112,124,222355,6,0,P|104:176|112:272,2,125
112,120,223303,1,0,0:0:0:0:
224,92,223460,1,0,0:0:0:0:
224,92,224724,5,0,0:0:0:0:
336,132,224881,2,0,P|344:208|352:280,1,125
264,348,225355,2,0,L|248:216,1,125
264,128,225829,1,0,0:0:0:0:
364,104,225987,1,0,0:0:0:0:
364,104,227092,5,0,0:0:0:0:
400,204,227250,1,0,0:0:0:0:
368,308,227408,6,0,P|300:304|220:304,1,125
288,208,228039,2,0,P|376:208|432:216,1,125
448,116,228513,1,0,0:0:0:0:
368,44,228671,5,0,0:0:0:0:
368,44,229776,5,0,0:0:0:0:
268,112,229934,2,0,P|264:200|264:252,1,125
200,328,230566,2,0,P|136:332|68:296,1,125
64,208,231039,1,0,0:0:0:0:
156,248,231197,1,0,0:0:0:0:
156,248,232145,6,0,P|216:236|224:236,1,62.5
308,296,232460,2,0,P|376:316|436:280,1,125
448,112,233092,2,0,P|400:96|316:120,1,125
200,152,233724,2,0,P|132:164|60:136,1,125
56,312,234355,2,0,P|112:292|192:320,1,125
280,316,234829,1,0,0:0:0:0:
344,228,234987,5,0,0:0:0:0:
344,228,235934,6,0,P|348:276|344:296,1,62.5
228,240,236250,2,0,P|224:184|280:144,1,125
192,340,236724,1,0,0:0:0:0:
120,264,236881,2,0,P|116:180|112:120,1,125
113,139,237513,5,0,0:0:0:0:
113,139,238145,6,0,P|104:184|112:228,1,62.5
113,139,238618,1,0,0:0:0:0:
208,200,238776,2,0,P|260:188|280:188,1,62.5
200,332,239092,2,0,P|172:304|148:268,1,62.5
340,232,239408,5,0,0:0:0:0:
288,328,239566,2,0,L|240:328|200:328,1,62.5
112,280,239881,1,0,0:0:0:0:
84,144,240039,6,0,P|116:68|164:48,1,125
236,256,240355,2,0,P|204:332|156:352,1,125
40,248,240671,1,0,0:0:0:0:
84,144,240829,1,0,0:0:0:0:
152,272,240987,1,0,0:0:0:0:
184,80,241145,1,0,0:0:0:0:
300,240,241303,1,0,0:0:0:0:
256,192,241381,12,0,242881,0:0:0:0:
76,232,243197,5,0,0:0:0:0:
168,160,243355,1,0,0:0:0:0:
276,152,243513,1,0,0:0:0:0:
368,220,243671,1,0,0:0:0:0:
424,324,243829,6,0,P|324:344|284:304,1,149.999995422363
244,256,244066,1,0,0:0:0:0:
244,256,244145,2,0,P|240:160|248:92,1,149.999995422363
380,40,244460,1,0,0:0:0:0:
432,188,244618,1,0,0:0:0:0:
432,248,244697,1,0,0:0:0:0:
400,300,244776,1,0,0:0:0:0:
276,152,244934,1,0,0:0:0:0:
188,360,245092,6,0,P|168:276|164:204,1,149.999995422363
148,96,245408,2,0,P|64:80|12:120,1,149.999995422363
28,216,245724,1,0,0:0:0:0:
192,368,245881,1,0,0:0:0:0:
192,368,245960,1,0,0:0:0:0:
192,368,246039,1,0,0:0:0:0:
324,316,246197,2,0,P|420:272|480:256,1,149.999995422363
424,84,246513,1,0,0:0:0:0:
264,56,246671,1,0,0:0:0:0:
144,180,246829,2,0,P|136:276|168:344,1,149.999995422363
344,208,247145,2,0,P|356:132|328:60,1,149.999995422363
324,316,247460,1,0,0:0:0:0:
324,316,249513,5,0,0:0:0:0:
320,152,249671,1,0,0:0:0:0:
168,212,249829,1,0,0:0:0:0:
484,256,249987,1,0,0:0:0:0:
156,296,250145,5,0,0:0:0:0:
384,180,250303,1,0,0:0:0:0:
136,316,250460,1,0,0:0:0:0:
276,180,250618,1,0,0:0:0:0:
276,180,250697,1,0,0:0:0:0:
276,180,250776,1,0,0:0:0:0:
88,120,250934,1,0,0:0:0:0:
260,136,251092,1,0,0:0:0:0:
352,304,251250,1,0,0:0:0:0:
296,64,251408,5,0,0:0:0:0:
336,328,251566,1,0,0:0:0:0:
372,48,251724,1,0,0:0:0:0:
316,344,251881,1,0,0:0:0:0:
316,344,251960,1,0,0:0:0:0:
316,336,252039,1,0,0:0:0:0:
448,68,252197,1,0,0:0:0:0:
292,352,252355,1,0,0:0:0:0:
500,132,252513,6,0,P|488:224|456:288,1,149.999995422363
364,188,252829,1,0,0:0:0:0:
256,372,252987,1,0,0:0:0:0:
196,128,253145,1,0,0:0:0:0:
144,156,253224,1,0,0:0:0:0:
120,212,253303,1,0,0:0:0:0:
168,376,253460,1,0,0:0:0:0:
284,264,253618,1,0,0:0:0:0:
96,208,253776,5,0,0:0:0:0:
304,276,253934,5,0,0:0:0:0:
112,316,254092,1,0,0:0:0:0:
24,168,254250,2,0,P|16:64|40:0,1,149.999995422363
29,21,254487,1,0,0:0:0:0:
29,21,254566,1,0,0:0:0:0:
204,24,254724,1,0,0:0:0:0:
296,172,254881,1,0,0:0:0:0:
216,344,255039,1,0,0:0:0:0:
220,348,255118,1,0,0:0:0:0:
224,348,255197,5,0,0:0:0:0:
148,268,255355,1,0,0:0:0:0:
160,168,255513,1,0,0:0:0:0:
236,112,255671,1,0,0:0:0:0:
40,264,255829,1,0,0:0:0:0:
120,216,255987,1,0,0:0:0:0:
208,208,256145,1,0,0:0:0:0:
296,232,256303,1,0,0:0:0:0:
308,244,256381,1,0,0:0:0:0:
320,256,256460,1,0,0:0:0:0:
444,340,256618,5,0,0:0:0:0:
296,356,256776,1,0,0:0:0:0:
456,316,256934,1,0,0:0:0:0:
220,320,257092,1,0,0:0:0:0:
460,296,257250,1,0,0:0:0:0:
164,256,257408,1,0,0:0:0:0:
464,276,257566,1,0,0:0:0:0:
464,276,257645,1,0,0:0:0:0:
464,280,257724,5,0,0:0:0:0:
296,356,257881,1,0,0:0:0:0:
64,144,258039,1,0,0:0:0:0:
104,344,258197,1,0,0:0:0:0:
96,28,258355,1,0,0:0:0:0:
24,284,258513,1,0,0:0:0:0:
248,52,258671,1,0,0:0:0:0:
4,192,258829,1,0,0:0:0:0:
4,192,258908,1,0,0:0:0:0:
4,192,258987,5,0,0:0:0:0:
388,120,259145,1,0,0:0:0:0:
96,28,259303,1,0,0:0:0:0:
216,320,259460,1,0,0:0:0:0:
276,328,259539,1,0,0:0:0:0:
336,312,259618,1,0,0:0:0:0:
488,144,259776,1,0,0:0:0:0:
400,328,259934,2,0,P|308:296|224:308,1,149.999995422363
20,204,260250,6,0,P|80:160|220:212,1,224.999993133545
213,202,260566,2,0,P|232:112|216:40,1,149.999995422363
88,320,260881,2,0,P|184:328|276:316,1,149.999995422363
272,312,261118,1,0,0:0:0:0:
268,312,261197,2,0,P|360:304|460:352,1,149.999995422363
472,144,261513,1,0,0:0:0:0:
196,224,261671,1,0,0:0:0:0:
196,224,261750,1,0,0:0:0:0:
196,224,261829,2,0,P|176:136|204:68,1,149.999995422363
364,148,262145,1,0,0:0:0:0:
364,148,262224,2,0,P|376:248|360:316,1,149.999995422363
300,348,262460,2,0,P|216:336|136:336,1,149.999995422363
108,344,262697,5,0,0:0:0:0:
108,344,262776,1,0,0:0:0:0:
56,160,262934,1,0,0:0:0:0:
196,344,263092,1,0,0:0:0:0:
168,88,263250,1,0,0:0:0:0:
280,352,263408,1,0,0:0:0:0:
284,56,263566,1,0,0:0:0:0:
360,372,263724,1,0,0:0:0:0:
404,64,263882,1,0,0:0:0:0:
404,64,263960,1,0,0:0:0:0:
404,64,264039,5,0,0:0:0:0:
336,56,264118,1,0,0:0:0:0:
284,96,264197,1,0,0:0:0:0:
276,164,264276,1,0,0:0:0:0:
308,224,264355,1,0,0:0:0:0:
376,236,264434,1,0,0:0:0:0:
408,296,264513,1,0,0:0:0:0:
380,360,264592,1,0,0:0:0:0:
312,368,264671,5,0,0:0:0:0:
252,324,264750,1,0,0:0:0:0:
176,316,264829,1,0,0:0:0:0:
104,340,264908,1,0,0:0:0:0:
60,280,264987,1,0,0:0:0:0:
76,208,265066,1,0,0:0:0:0:
136,164,265145,1,0,0:0:0:0:
208,184,265224,1,0,0:0:0:0:
256,264,265303,6,0,P|368:224|392:140,1,187.500007152558
364,88,265539,1,0,0:0:0:0:
368,92,265618,1,0,0:0:0:0:
390,335,265776,1,0,0:0:0:0:
440,76,265934,1,0,0:0:0:0:
440,76,266013,2,0,P|472:216|436:288,1,187.500007152558
390,335,266250,2,0,P|280:332|180:320,1,187.500007152558
144,160,266487,1,0,0:0:0:0:
100,176,266566,6,0,P|72:280|104:372,1,187.500007152558
264,352,266803,1,0,0:0:0:0:
296,328,266881,6,0,P|304:216|204:136,1,187.500007152558
260,56,267197,1,0,0:0:0:0:
264,56,267276,2,0,P|364:44|452:88,1,187.500007152558
440,76,267513,2,0,P|428:192|420:372,1,281.250010728836
328,356,267829,6,0,P|196:372|152:308,1,187.500007152558
144,304,268066,1,0,0:0:0:0:
144,304,268145,1,0,0:0:0:0:
268,136,268303,1,0,0:0:0:0:
56,256,268460,1,0,0:0:0:0:
312,272,268618,1,0,0:0:0:0:
388,264,268697,1,0,0:0:0:0:
464,276,268776,1,0,0:0:0:0:
464,96,268934,1,0,0:0:0:0:
392,116,269013,1,0,0:0:0:0:
316,112,269092,6,0,P|232:88|84:224,1,281.250010728836
80,236,269408,1,0,0:0:0:0:
280,352,269566,1,0,0:0:0:0:
296,280,269645,1,0,0:0:0:0:
348,228,269724,1,0,0:0:0:0:
420,204,269803,1,0,0:0:0:0:
156,196,269960,1,0,0:0:0:0:
144,120,270039,1,0,0:0:0:0:
472,88,270197,1,0,0:0:0:0:
492,160,270276,1,0,0:0:0:0:
490,234,270355,6,0,P|374:280|340:160,1,281.250010728836
340,159,270671,2,0,P|192:164|124:152,1,187.500007152558
136,352,270987,1,0,0:0:0:0:
48,124,271145,1,0,0:0:0:0:
48,124,271224,1,0,0:0:0:0:
48,124,271303,1,0,0:0:0:0:
92,364,271460,1,0,0:0:0:0:
296,184,271618,2,0,P|416:160|488:224,1,187.500007152558
488,232,271855,1,0,0:0:0:0:
488,232,271934,2,0,P|404:284|316:284,1,187.500007152558
176,100,272250,1,0,0:0:0:0:
56,236,272408,1,0,0:0:0:0:
72,308,272487,1,0,0:0:0:0:
120,364,272566,1,0,0:0:0:0:
312,216,272724,1,0,0:0:0:0:
128,132,272881,5,0,0:0:0:0:
396,184,273039,1,0,0:0:0:0:
396,184,273118,1,0,0:0:0:0:
396,184,273197,1,0,0:0:0:0:
40,192,273355,1,0,0:0:0:0:
272,360,273513,1,0,0:0:0:0:
248,88,273671,1,0,0:0:0:0:
320,68,273750,1,0,0:0:0:0:
392,84,273829,2,0,P|464:160|448:260,1,187.500007152558
124,360,274145,2,0,P|60:284|96:188,1,187.500007152558
324,176,274460,1,0,0:0:0:0:
248,376,274618,1,0,0:0:0:0:
116,264,274776,1,0,0:0:0:0:
408,224,274934,1,0,0:0:0:0:
92,148,275092,1,0,0:0:0:0:
392,84,275250,1,0,0:0:0:0:
248,376,275408,6,0,P|140:376|32:364,1,187.500007152558
32,184,275724,1,0,0:0:0:0:
200,224,275881,1,0,0:0:0:0:
272,204,275960,1,0,0:0:0:0:
348,216,276039,1,0,0:0:0:0:
196,56,276197,1,0,0:0:0:0:
288,360,276355,1,0,0:0:0:0:
440,208,276513,1,0,0:0:0:0:
456,136,276592,1,0,0:0:0:0:
436,64,276671,6,0,P|320:48|220:80,1,187.500007152558
160,228,276987,1,0,0:0:0:0:
72,64,277145,1,0,0:0:0:0:
72,64,277224,1,0,0:0:0:0:
72,64,277303,1,0,0:0:0:0:
80,320,277460,1,0,0:0:0:0:
240,128,277618,1,0,0:0:0:0:
64,340,277776,1,0,0:0:0:0:
320,276,277934,1,0,0:0:0:0:
12,192,278092,1,0,0:0:0:0:
12,192,278171,1,0,0:0:0:0:
12,192,278250,1,0,0:0:0:0:
120,104,278408,1,0,0:0:0:0:
132,256,278566,1,0,0:0:0:0:
136,260,278645,2,0,P|240:284|336:240,1,187.500007152558
372,184,278881,2,0,P|432:320|408:368,1,187.500007152558
168,212,279197,6,0,P|152:108|224:24,1,187.500007152558
276,36,279434,2,0,P|432:52|504:44,1,187.500007152558
484,16,279671,2,0,L|472:220,1,187.500007152558
448,304,279908,2,0,P|400:188|400:120,1,187.500007152558
399,127,280145,2,0,P|336:124|260:144,1,93.7500035762788
216,228,280303,2,0,P|208:288|224:344,1,93.7500035762788
384,348,280460,5,0,0:0:0:0:
424,104,280618,1,0,0:0:0:0:
248,320,280776,1,0,0:0:0:0:
204,40,280934,1,0,0:0:0:0:
376,176,281092,1,0,0:0:0:0:
48,156,281250,1,0,0:0:0:0:
48,156,281329,1,0,0:0:0:0:
48,156,281408,2,0,P|44:272|100:320,1,187.500007152558
184,308,281645,1,0,0:0:0:0:
220,288,281724,6,0,P|332:272|400:304,1,187.500007152558
424,328,281960,2,0,L|424:120,1,187.500007152558
268,40,282197,2,0,L|264:252,1,187.500007152558
232,336,282434,2,0,P|136:364|60:296,1,187.500007152558
68,132,282671,1,0,0:0:0:0:
136,96,282750,1,0,0:0:0:0:
212,104,282829,1,0,0:0:0:0:
268,152,282908,1,0,0:0:0:0:
300,220,282987,6,0,P|424:264|504:116,1,281.250010728836
416,112,283303,2,0,P|400:244|436:336,1,187.500007152558
240,336,283618,2,0,P|136:332|52:320,1,187.500007152558
53,320,283855,1,0,0:0:0:0:
60,328,283934,2,0,P|44:184|56:72,1,187.500007152558
440,128,284250,6,0,P|456:260|428:348,1,187.500007152558
324,52,284566,2,0,P|416:28|520:32,1,187.500007152558
200,304,284881,2,0,P|72:340|4:336,1,187.500007152558
32,72,285197,1,0,0:0:0:0:
104,100,285276,1,0,0:0:0:0:
180,108,285355,1,0,0:0:0:0:
252,84,285434,1,0,0:0:0:0:
300,24,285513,5,0,0:0:0:0:
200,308,285671,1,0,0:0:0:0:
160,16,285829,1,0,0:0:0:0:
56,208,285987,1,0,0:0:0:0:
56,208,286066,1,0,0:0:0:0:
56,208,286145,1,0,0:0:0:0:
320,136,286303,1,0,0:0:0:0:
128,16,286460,1,0,0:0:0:0:
116,348,286618,1,0,0:0:0:0:
172,296,286697,1,0,0:0:0:0:
248,288,286776,2,0,P|376:328|436:260,1,187.500007152558
460,248,287013,1,0,0:0:0:0:
460,248,287092,2,0,P|464:128|440:28,1,187.500007152558
256,44,287408,1,0,0:0:0:0:
204,28,287487,2,0,P|100:36|16:108,1,187.500007152558
24,172,287724,1,0,0:0:0:0:
152,364,287881,1,0,0:0:0:0:
324,256,288039,6,0,P|340:124|256:0,1,281.250010728836
262,4,288355,2,0,L|464:44,1,187.500007152558
448,240,288671,2,0,P|336:276|240:240,1,187.500007152558
200,224,288908,1,0,0:0:0:0:
200,224,288987,1,0,0:0:0:0:
96,328,289145,1,0,0:0:0:0:
88,76,289303,5,0,0:0:0:0:
200,352,289460,1,0,0:0:0:0:
4,224,289618,1,0,0:0:0:0:
364,92,289776,1,0,0:0:0:0:
364,92,289855,1,0,0:0:0:0:
364,92,289934,1,0,0:0:0:0:
380,364,290092,1,0,0:0:0:0:
228,248,290250,1,0,0:0:0:0:
300,224,290329,1,0,0:0:0:0:
376,220,290408,1,0,0:0:0:0:
444,252,290487,1,0,0:0:0:0:
492,312,290566,6,0,L|440:8,1,281.250010728836
444,34,290881,2,0,P|332:76|212:52,1,187.500007152558
32,168,291197,1,0,0:0:0:0:
196,336,291355,1,0,0:0:0:0:
268,316,291434,1,0,0:0:0:0:
344,324,291513,1,0,0:0:0:0:
428,104,291671,1,0,0:0:0:0:
196,336,291829,5,0,0:0:0:0:
96,96,291987,1,0,0:0:0:0:
196,336,292145,1,0,0:0:0:0:
204,44,292303,1,0,0:0:0:0:
196,336,292460,1,0,0:0:0:0:
316,52,292618,1,0,0:0:0:0:
196,336,292776,1,0,0:0:0:0:
416,96,292934,1,0,0:0:0:0:
416,96,293013,1,0,0:0:0:0:
416,96,293092,5,0,0:0:0:0:
256,184,293250,1,0,0:0:0:0:
428,104,293408,1,0,0:0:0:0:
168,144,293566,1,0,0:0:0:0:
440,120,293724,1,0,0:0:0:0:
72,160,293881,1,0,0:0:0:0:
448,136,294039,1,0,0:0:0:0:
16,240,294197,1,0,0:0:0:0:
12,264,294276,1,0,0:0:0:0:
12,288,294355,5,0,0:0:0:0:
64,52,294513,1,0,0:0:0:0:
128,368,294671,1,0,0:0:0:0:
220,72,294829,1,0,0:0:0:0:
292,52,294908,1,0,0:0:0:0:
364,68,294987,1,0,0:0:0:0:
480,192,295145,1,0,0:0:0:0:
228,328,295303,1,0,0:0:0:0:
496,156,295460,1,0,0:0:0:0:
144,336,295618,6,0,P|108:228|136:136,1,187.500007152558
340,24,295934,2,0,P|376:136|356:228,1,187.500007152558
80,176,296250,1,0,0:0:0:0:
172,36,296408,1,0,0:0:0:0:
264,352,296566,2,0,P|268:248|232:160,1,187.500007152558
96,260,296881,1,0,0:0:0:0:
360,196,297039,1,0,0:0:0:0:
132,320,297197,1,0,0:0:0:0:
312,348,297355,1,0,0:0:0:0:
384,324,297434,1,0,0:0:0:0:
456,340,297513,1,0,0:0:0:0:
456,112,297671,1,0,0:0:0:0:
312,348,297829,1,0,0:0:0:0:
256,144,297987,1,0,0:0:0:0:
216,356,298145,1,0,0:0:0:0:
208,56,298303,1,0,0:0:0:0:
216,356,298460,1,0,0:0:0:0:
104,28,298618,1,0,0:0:0:0:
380,176,298776,1,0,0:0:0:0:
256,40,298934,1,0,0:0:0:0:
144,336,299092,1,0,0:0:0:0:
256,40,299250,5,0,0:0:0:0:
368,336,299408,1,0,0:0:0:0:
256,40,299566,1,0,0:0:0:0:
144,336,299724,1,0,0:0:0:0:
444,112,299881,1,0,0:0:0:0:
448,188,299960,1,0,0:0:0:0:
436,260,300039,1,0,0:0:0:0:
224,64,300197,1,0,0:0:0:0:
192,368,300355,1,0,0:0:0:0:
96,128,300513,1,0,0:0:0:0:
64,348,300671,2,0,P|168:332|384:348,1,281.250010728836
400,360,300987,2,0,L|380:121,1,187.500007152558
216,24,301303,2,0,P|200:144|260:240,1,187.500007152558
232,236,301539,1,0,0:0:0:0:
232,236,301618,2,0,L|28:216,1,187.500007152558
48,68,301934,6,0,P|172:44|304:68,1,187.500007152558
440,76,302250,1,0,0:0:0:0:
336,336,302408,1,0,0:0:0:0:
336,336,302487,1,0,0:0:0:0:
336,336,302566,1,0,0:0:0:0:
180,152,302724,1,0,0:0:0:0:
96,336,302881,1,0,0:0:0:0:
376,136,303039,1,0,0:0:0:0:
452,356,303197,6,0,P|456:256|412:136,1,187.500007152558
312,64,303513,2,0,P|204:40|72:108,1,187.500007152558
56,104,303750,1,0,0:0:0:0:
56,104,303829,2,0,P|44:236|68:296,1,187.500007152558
352,364,304145,2,0,P|368:264|328:152,1,187.500007152558
296,112,304381,1,0,0:0:0:0:
296,112,304460,5,0,0:0:0:0:
208,248,304618,1,0,0:0:0:0:
284,20,304776,1,0,0:0:0:0:
400,280,304934,1,0,0:0:0:0:
328,256,305013,1,0,0:0:0:0:
252,256,305092,1,0,0:0:0:0:
180,276,305171,1,0,0:0:0:0:
124,328,305250,1,0,0:0:0:0:
52,312,305329,1,0,0:0:0:0:
24,244,305408,1,0,0:0:0:0:
136,40,305566,1,0,0:0:0:0:
316,360,305724,2,0,P|192:328|36:352,1,281.250010728836
42,349,306039,1,0,0:0:0:0:
196,24,306197,1,0,0:0:0:0:
196,24,306276,1,0,0:0:0:0:
196,24,306355,2,0,P|204:84|200:144,1,93.7500035762788
276,232,306513,2,0,P|328:248|376:236,1,93.7500035762788
460,316,306671,1,0,0:0:0:0:
384,284,306750,1,0,0:0:0:0:
300,280,306829,1,0,0:0:0:0:
220,300,306908,1,0,0:0:0:0:
152,348,306987,6,0,P|108:228|188:84,1,281.250010728836
364,76,307302,2,0,P|380:172|376:224,1,93.7500035762788
304,260,307460,2,0,L|92:236,1,187.500007152558
28,76,307776,1,0,0:0:0:0:
28,76,307855,1,0,0:0:0:0:
28,76,307934,1,0,0:0:0:0:
104,312,308092,1,0,0:0:0:0:
424,160,308250,1,0,0:0:0:0:
464,308,308408,2,0,P|344:336|276:308,1,187.500007152558
200,112,308724,1,0,0:0:0:0:
48,272,308881,1,0,0:0:0:0:
296,160,309039,1,0,0:0:0:0:
32,188,309197,1,0,0:0:0:0:
360,244,309355,1,0,0:0:0:0:
48,88,309513,6,0,P|156:56|232:76,1,187.500007152558
296,104,309750,1,0,0:0:0:0:
340,164,309829,1,0,0:0:0:0:
336,240,309908,1,0,0:0:0:0:
284,292,309987,1,0,0:0:0:0:
208,288,310066,1,0,0:0:0:0:
156,232,310145,1,0,0:0:0:0:
156,156,310224,1,0,0:0:0:0:
212,104,310303,1,0,0:0:0:0:
288,104,310381,1,0,0:0:0:0:
340,156,310460,1,0,0:0:0:0:
352,240,310539,1,0,0:0:0:0:
308,312,310618,1,0,0:0:0:0:
224,328,310697,1,0,0:0:0:0:
140,316,310776,2,0,P|60:232|60:148,1,174.999994659424
292,8,311092,1,0,0:0:0:0:
224,184,311250,1,0,0:0:0:0:
356,316,311408,2,0,P|448:232|460:140,1,174.999994659424
240,200,311724,1,0,0:0:0:0:
108,360,311881,2,0,P|48:264|64:184,1,174.999994659424
228,40,312197,6,0,P|264:148|252:236,1,174.999994659424
360,336,312513,1,0,0:0:0:0:
420,320,312592,1,0,0:0:0:0:
480,328,312671,1,0,0:0:0:0:
424,128,312829,1,0,0:0:0:0:
360,360,312987,1,0,0:0:0:0:
176,152,313145,1,0,0:0:0:0:
428,52,313303,6,0,P|440:176|412:256,1,174.999994659424
348,248,313539,1,0,0:0:0:0:
348,248,313618,2,0,P|232:232|136:252,1,174.999994659424
24,340,313934,2,0,P|144:352|208:308,1,174.999994659424
280,140,314250,1,0,0:0:0:0:
104,60,314408,1,0,0:0:0:0:
84,116,314487,1,0,0:0:0:0:
84,176,314566,1,0,0:0:0:0:
96,236,314645,1,0,0:0:0:0:
124,292,314724,1,0,0:0:0:0:
304,116,314881,1,0,0:0:0:0:
96,236,315039,1,0,0:0:0:0:
332,112,315197,1,0,0:0:0:0:
84,176,315355,1,0,0:0:0:0:
368,120,315513,2,0,L|436:320,1,174.999994659424
436,24,315829,5,0,0:0:0:0:
320,316,315987,1,0,0:0:0:0:
328,64,316145,1,0,0:0:0:0:
320,316,316303,1,0,0:0:0:0:
476,164,316460,2,0,P|344:148|272:176,1,174.999994659424
172,256,316776,2,0,P|64:276|4:244,1,174.999994659424
252,8,317092,6,0,P|264:120|248:224,1,174.999994659424
152,368,317408,2,0,P|124:268|164:172,1,174.999994659424
176,160,317645,1,0,0:0:0:0:
176,160,317724,2,0,P|208:288|196:344,1,174.999994659424
40,144,318039,2,0,P|88:48|276:76,1,262.499991989136
230,35,318355,6,0,P|340:36|420:48,1,174.999994659424
144,232,318671,2,0,P|276:196|356:192,1,174.999994659424
80,364,318987,1,0,0:0:0:0:
132,72,319145,1,0,0:0:0:0:
216,352,319303,1,0,0:0:0:0:
384,216,319460,1,0,0:0:0:0:
384,216,319539,1,0,0:0:0:0:
384,216,319618,5,0,0:0:0:0:
216,352,319776,1,0,0:0:0:0:
288,116,319934,1,0,0:0:0:0:
216,352,320092,1,0,0:0:0:0:
168,68,320250,1,0,0:0:0:0:
216,352,320408,1,0,0:0:0:0:
36,88,320566,1,0,0:0:0:0:
36,88,320645,1,0,0:0:0:0:
36,88,320724,1,0,0:0:0:0:
36,88,320803,1,0,0:0:0:0:
36,88,320881,6,0,P|136:48|248:104,1,174.999994659424
236,96,321118,1,0,0:0:0:0:
236,96,321197,2,0,P|368:116|460:56,1,174.999994659424
112,20,321513,2,0,P|96:132|144:228,1,174.999994659424
344,368,321829,2,0,P|376:264|356:76,1,262.499991989136
367,112,322145,6,0,L|488:248,1,174.999994659424
224,352,322460,2,0,P|152:272|108:208,1,174.999994659424
72,112,322776,1,0,0:0:0:0:
40,316,322934,1,0,0:0:0:0:
100,328,323013,1,0,0:0:0:0:
160,320,323092,1,0,0:0:0:0:
212,288,323171,1,0,0:0:0:0:
252,240,323250,1,0,0:0:0:0:
304,208,323329,1,0,0:0:0:0:
364,220,323408,6,0,P|404:352|384:384,1,174.999994659424
144,216,323724,2,0,P|112:112|164:36,1,174.999994659424
296,28,324039,1,0,0:0:0:0:
424,168,324197,1,0,0:0:0:0:
324,344,324355,1,0,0:0:0:0:
40,184,324513,1,0,0:0:0:0:
40,184,324592,1,0,0:0:0:0:
40,184,324671,6,0,P|132:148|264:168,1,174.999994659424
232,352,324987,1,0,0:0:0:0:
56,312,325145,1,0,0:0:0:0:
56,312,325224,1,0,0:0:0:0:
56,312,325303,1,0,0:0:0:0:
232,352,325460,1,0,0:0:0:0:
456,204,325618,1,0,0:0:0:0:
468,144,325697,1,0,0:0:0:0:
444,88,325776,1,0,0:0:0:0:
392,56,325855,1,0,0:0:0:0:
332,52,325934,6,0,P|216:80|116:52,1,174.999994659424
28,104,326250,2,0,P|16:224|44:340,1,174.999994659424
232,352,326566,2,0,P|344:332|512:360,1,262.499991989136
490,352,326881,2,0,L|464:148,1,174.999994659424
232,352,327197,5,0,0:0:0:0:
304,64,327355,1,0,0:0:0:0:
232,352,327513,1,0,0:0:0:0:
104,248,327671,2,0,P|72:128|108:40,1,174.999994659424
392,136,327987,1,0,0:0:0:0:
84,348,328145,1,0,0:0:0:0:
84,348,328224,1,0,0:0:0:0:
84,348,328303,1,0,0:0:0:0:
84,348,328381,1,0,0:0:0:0:
84,348,328460,6,0,P|184:308|360:364,1,262.499991989136
368,376,328776,2,0,L|372:184,1,174.999994659424
144,8,329092,2,0,L|140:200,1,174.999994659424
140,292,329408,1,0,0:0:0:0:
348,104,329566,1,0,0:0:0:0:
348,104,329645,1,0,0:0:0:0:
348,104,329724,5,0,0:0:0:0:
336,272,329881,1,0,0:0:0:0:
192,168,330039,1,0,0:0:0:0:
496,88,330197,1,0,0:0:0:0:
112,216,330355,1,0,0:0:0:0:
432,176,330513,1,0,0:0:0:0:
32,192,330671,2,0,P|-4:92|88:168,1,262.499991989136
98,121,330987,6,0,P|88:228|104:312,1,149.999995422363
200,344,331303,2,0,P|292:356|392:300,1,149.999995422363
480,184,331618,2,0,P|392:168|276:192,1,149.999995422363
184,224,331934,2,0,P|88:248|4:216,1,149.999995422363
268,24,332250,6,0,P|280:124|272:204,1,149.999995422363
136,320,332566,2,0,P|116:208|140:152,1,149.999995422363
324,360,332881,1,0,0:0:0:0:
480,108,333039,1,0,0:0:0:0:
432,128,333118,1,0,0:0:0:0:
380,140,333197,1,0,0:0:0:0:
328,140,333276,1,0,0:0:0:0:
276,124,333355,1,0,0:0:0:0:
228,100,333434,1,0,0:0:0:0:
188,64,333513,6,0,L|28:72,1,149.999995422363
32,308,333829,2,0,P|120:276|260:356,1,224.999993133545
236,323,334145,2,0,P|344:328|412:292,1,149.999995422363
472,200,334460,2,0,P|476:64|452:12,1,149.999995422363
240,184,334776,6,0,P|240:308|264:360,1,149.999995422363
88,72,335092,1,0,0:0:0:0:
60,324,335250,1,0,0:0:0:0:
60,324,335329,1,0,0:0:0:0:
60,324,335408,1,0,0:0:0:0:
88,72,335566,1,0,0:0:0:0:
236,304,335724,1,0,0:0:0:0:
288,308,335803,1,0,0:0:0:0:
340,304,335881,1,0,0:0:0:0:
392,288,335960,1,0,0:0:0:0:
436,260,336039,2,0,L|440:88,1,149.999995422363
272,180,336355,2,0,L|272:360,1,149.999995422363
32,336,336671,2,0,P|104:268|232:332,1,224.999993133545
212,300,336987,2,0,L|392:264,1,149.999995422363
468,76,337303,2,0,L|320:100,1,149.999995422363
276,108,337539,1,0,0:0:0:0:
276,108,337618,1,0,0:0:0:0:
48,56,337776,1,0,0:0:0:0:
104,368,337934,2,0,P|120:272|108:180,1,149.999995422363
212,72,338250,2,0,P|300:64|376:112,1,149.999995422363
408,152,338487,1,0,0:0:0:0:
408,152,338566,6,0,P|416:280|372:380,1,224.999993133545
380,367,338881,2,0,P|272:344|200:352,1,149.999995422363
28,264,339197,2,0,P|112:240|240:268,1,149.999995422363
340,272,339513,2,0,P|456:264|520:204,1,149.999995422363
228,52,339829,5,0,0:0:0:0:
232,268,339987,1,0,0:0:0:0:
232,56,340145,1,0,0:0:0:0:
164,324,340303,1,0,0:0:0:0:
164,324,340381,1,0,0:0:0:0:
164,324,340460,2,0,P|56:344|8:320,1,149.999995422363
0,140,340776,1,0,0:0:0:0:
44,112,340855,1,0,0:0:0:0:
96,112,340934,1,0,0:0:0:0:
144,132,341013,1,0,0:0:0:0:
176,176,341092,6,0,P|276:188|332:144,1,125
464,56,341408,2,0,P|392:56|324:88,1,125
208,280,341724,2,0,P|276:224|280:148,1,125
412,20,342039,2,0,P|400:128|432:192,1,125
432,288,342355,6,0,P|360:332|304:328,1,125
164,288,342671,2,0,P|80:280|20:308,1,125
264,364,342987,2,0,P|268:252|244:128,1,187.5
257,177,343303,2,0,P|332:148|432:140,1,125
488,248,343618,6,0,P|424:288|356:296,1,125
256,176,343934,2,0,P|248:64|264:8,1,125
400,180,344250,2,0,P|420:276|400:340,1,125
128,340,344566,2,0,P|112:248|124:208,1,125
119,219,344803,1,0,0:0:0:0:
119,219,344881,6,0,L|-36:256,1,125
240,216,345197,2,0,P|168:300|104:332,1,125
332,168,345513,2,0,P|340:248|320:316,1,125
384,76,345829,2,0,P|428:156|444:216,1,125
265,111,346145,6,0,P|357:79|421:75,1,125
460,172,346460,2,0,P|460:260|444:320,1,125
292,344,346776,2,0,P|184:324|96:356,1,187.5
111,346,347092,2,0,L|104:184,1,125
252,36,347408,6,0,P|264:120|264:200,1,125
264,164,347645,1,0,0:0:0:0:
265,160,347724,2,0,L|416:132,1,125
480,264,348039,2,0,L|352:296,1,125
200,320,348355,2,0,P|128:292|24:360,1,187.5
35,339,348671,6,0,L|28:168,1,125
168,60,348987,2,0,L|180:224,1,125
344,324,349303,2,0,L|332:160,1,125
476,44,349618,6,0,L|484:216,1,125
482,169,349855,1,0,0:0:0:0:
488,180,349934,6,0,L|360:168,1,125
212,156,350250,1,0,0:0:0:0:
84,340,350408,1,0,0:0:0:0:
84,340,350724,1,0,0:0:0:0:
228,320,350881,1,0,0:0:0:0:
272,308,350960,1,0,0:0:0:0:
316,308,351039,1,0,0:0:0:0:
360,320,351118,1,0,0:0:0:0:
