osu file format v14

[General]
AudioFilename: Net-juu no Susume OP.mp3
AudioLeadIn: 0
PreviewTime: 51783
Countdown: 0
SampleSet: None
StackLeniency: 0.7
Mode: 0
LetterboxInBreaks: 1
WidescreenStoryboard: 1

[Editor]
Bookmarks: 20902
DistanceSpacing: 0.5
BeatDivisor: 4
GridSize: 8
TimelineZoom: 1

[Metadata]
Title:Saturday Night Question
TitleUnicode:サタデー・ナイト・クエスチョン
Artist:Nakajima Megumi
ArtistUnicode:中島 愛
Creator:ChuuritsuTv
Version:MMO
Source:ネト充のススメ
Tags:net-juu no susume netojuu recovery of an mmo junkie signal. md morioka moriko mori-chan
BeatmapID:1535730
BeatmapSetID:705111

[Difficulty]
HPDrainRate:5.2
CircleSize:3.8
OverallDifficulty:8.5
ApproachRate:9.3
SliderMultiplier:2.1
SliderTickRate:1

[Events]
//Background and Video events
0,0,"BG.jpg",0,0
Video,0,"Net-juu no Susume OP.avi"
//Break Periods
//Storyboard Layer 0 (Background)
//Storyboard Layer 1 (Fail)
//Storyboard Layer 2 (Pass)
//Storyboard Layer 3 (Foreground)
//Storyboard Sound Samples

[TimingPoints]
2235,387.096774193548,4,3,0,50,1,0
16170,-100,4,3,0,50,0,0
16364,-100,4,3,0,50,0,0
17718,-100,4,3,0,50,0,0
17912,-100,4,3,0,50,0,0
19267,-100,4,3,0,50,0,0
19460,-100,4,3,0,50,0,0
20815,-100,4,3,0,50,0,0
21009,-100,4,3,0,50,0,0
22364,-100,4,3,0,50,0,0
22557,-100,4,3,0,50,0,0
39396,-153.846153846153,4,3,0,50,0,0
45589,-100,4,3,0,50,0,0
51783,-100,4,3,0,50,0,1
81202,-100,4,3,0,50,0,0

[Colours]
Combo1 : 255,192,0
Combo2 : 159,138,179
Combo3 : 232,226,215
Combo4 : 71,48,92

[HitObjects]
147,51,2234,5,0,0:0:0:0:
247,100,2331,1,0,0:0:0:0:
259,205,2428,1,0,0:0:0:0:
105,210,2622,2,0,B|129:161|129:161|177:126,1,105
323,169,3009,5,0,0:0:0:0:
301,277,3106,1,0,0:0:0:0:
202,316,3203,1,0,0:0:0:0:
166,162,3396,2,0,B|219:172|219:172|265:209,1,105
126,288,3783,5,0,0:0:0:0:
169,36,3976,1,0,0:0:0:0:
401,144,4170,1,0,0:0:0:0:
146,166,4364,1,0,0:0:0:0:
374,48,4557,1,0,0:0:0:0:
296,293,4751,1,0,0:0:0:0:
263,39,4944,1,0,0:0:0:0:
407,248,5138,1,0,0:0:0:0:
175,358,5331,5,0,0:0:0:0:
113,272,5428,1,0,0:0:0:0:
146,166,5525,1,0,0:0:0:0:
290,235,5718,2,0,B|240:269|240:269|176:277,1,105
60,167,6105,5,0,0:0:0:0:
127,84,6202,1,0,0:0:0:0:
237,89,6299,1,0,0:0:0:0:
208,246,6492,2,0,B|162:206|162:206|137:146,1,105
301,147,6880,5,0,0:0:0:0:
146,350,7073,1,0,0:0:0:0:
127,84,7267,1,0,0:0:0:0:
312,256,7460,1,0,0:0:0:0:
60,259,7654,1,0,0:0:0:0:
60,259,7751,1,0,0:0:0:0:
60,259,7847,2,0,B|65:232|65:232|91:203,1,52.5
112,199,8041,5,0,0:0:0:0:
147,192,8138,1,0,0:0:0:0:
184,196,8234,1,0,0:0:0:0:
217,211,8331,1,0,0:0:0:0:
245,233,8428,5,0,0:0:0:0:
341,279,8525,1,0,0:0:0:0:
427,215,8622,1,0,0:0:0:0:
323,94,8815,2,0,B|312:146|312:146|318:211,1,105
439,293,9202,5,0,0:0:0:0:
508,212,9299,1,0,0:0:0:0:
468,112,9396,1,0,0:0:0:0:
328,182,9589,2,0,B|375:206|375:206|439:217,1,105
397,64,9976,5,0,0:0:0:0:
226,251,10170,1,0,0:0:0:0:
474,302,10364,1,0,0:0:0:0:
324,95,10557,1,0,0:0:0:0:
134,273,10751,1,0,0:0:0:0:
386,268,10944,1,0,0:0:0:0:
168,135,11138,1,0,0:0:0:0:
302,347,11331,1,0,0:0:0:0:
201,63,11525,5,0,0:0:0:0:
94,88,11622,1,0,0:0:0:0:
71,193,11719,1,0,0:0:0:0:
229,218,11912,2,0,B|204:171|204:171|157:125,1,105
10,140,12299,5,0,0:0:0:0:
10,247,12396,1,0,0:0:0:0:
103,301,12493,1,0,0:0:0:0:
167,154,12686,2,0,B|115:166|115:166|58:198,1,105
191,297,13073,5,0,0:0:0:0:
297,68,13267,1,0,0:0:0:0:
71,193,13460,1,0,0:0:0:0:
327,190,13654,1,0,0:0:0:0:
145,63,13847,5,0,0:0:0:0:
145,63,13944,1,0,0:0:0:0:
145,63,14041,1,0,0:0:0:0:
145,231,14234,5,0,0:0:0:0:
145,231,14331,1,0,0:0:0:0:
145,231,14428,1,0,0:0:0:0:
344,333,14622,6,0,B|337:282|337:282|306:238,1,105
145,231,15009,6,0,B|192:250|192:250|246:245,1,105
371,155,15396,1,0,0:0:0:0:
275,30,15589,1,0,0:0:0:0:
160,148,15783,2,0,B|207:167|207:167|261:162,1,105
374,52,16170,1,0,0:0:0:0:
265,170,16364,1,0,0:0:0:0:
368,47,16557,1,0,0:0:0:0:
270,177,16751,1,0,0:0:0:0:
423,213,16944,5,0,0:0:0:0:
306,101,17138,1,0,0:0:0:0:
197,215,17331,1,0,0:0:0:0:
310,325,17525,2,0,B|313:269|313:269|289:217,1,105
146,150,17912,5,0,0:0:0:0:
233,288,18105,1,0,0:0:0:0:
353,174,18299,1,0,0:0:0:0:
197,215,18493,2,0,B|162:238|162:238|121:229|121:229|101:246,2,105
231,57,19073,2,0,B|182:85|182:85|148:144,1,105
311,95,19460,5,0,0:0:0:0:
155,121,19654,1,0,0:0:0:0:
313,102,19847,1,0,0:0:0:0:
155,112,20041,1,0,0:0:0:0:
212,257,20234,1,0,0:0:0:0:
235,96,20428,1,0,0:0:0:0:
79,140,20622,2,0,B|108:188|108:188|160:202,1,105
182,38,21009,5,0,0:0:0:0:
58,141,21202,2,0,B|87:189|87:189|139:203,1,105
292,186,21589,1,0,0:0:0:0:
155,112,21783,1,0,0:0:0:0:
12,203,21976,2,0,B|41:251|41:251|93:265,2,105
30,48,22557,5,0,0:0:0:0:
169,119,22751,1,0,0:0:0:0:
3,122,22944,1,0,0:0:0:0:
141,44,23138,1,0,0:0:0:0:
218,183,23331,1,0,0:0:0:0:
84,111,23525,1,0,0:0:0:0:
230,54,23718,1,0,0:0:0:0:
230,54,23912,6,0,B|297:54|297:54|336:127|336:127|256:127,1,210
495,119,24686,2,0,B|428:119|428:119|389:46|389:46|469:46,1,210
487,233,25460,2,0,B|417:233|417:233|381:246|381:246|346:232|346:232|264:232,1,210
92,254,26234,5,0,0:0:0:0:
68,225,26331,1,0,0:0:0:0:
54,190,26428,1,0,0:0:0:0:
55,151,26525,1,0,0:0:0:0:
62,115,26622,2,0,B|70:91|70:91|91:69,1,52.5
118,49,26815,1,0,0:0:0:0:
161,37,26912,1,0,0:0:0:0:
206,35,27008,5,0,0:0:0:0:
296,101,27105,1,0,0:0:0:0:
290,206,27202,1,0,0:0:0:0:
137,184,27396,2,0,B|169:139|169:139|222:113,1,105
359,182,27783,5,0,0:0:0:0:
319,285,27880,1,0,0:0:0:0:
214,306,27977,1,0,0:0:0:0:
205,148,28170,2,0,B|255:167|255:167|294:211,1,105
142,267,28557,5,0,0:0:0:0:
187,18,28751,1,0,0:0:0:0:
385,187,28944,1,0,0:0:0:0:
137,184,29138,1,0,0:0:0:0:
349,44,29331,1,0,0:0:0:0:
472,263,29525,1,0,0:0:0:0:
215,231,29718,1,0,0:0:0:0:
430,100,29912,1,0,0:0:0:0:
285,319,30105,5,0,0:0:0:0:
215,231,30202,1,0,0:0:0:0:
247,132,30299,1,0,0:0:0:0:
385,187,30493,2,0,B|341:220|341:220|283:232,1,105
171,136,30880,5,0,0:0:0:0:
239,47,30977,1,0,0:0:0:0:
349,44,31074,1,0,0:0:0:0:
321,202,31267,2,0,B|276:177|276:177|243:126,1,105
406,103,31654,5,0,0:0:0:0:
311,337,31847,1,0,0:0:0:0:
84,226,32041,1,0,0:0:0:0:
316,119,32234,1,0,0:0:0:0:
173,331,32428,1,0,0:0:0:0:
151,79,32622,1,0,0:0:0:0:
350,233,32815,1,0,0:0:0:0:
84,226,33009,1,0,0:0:0:0:
247,66,33202,5,0,0:0:0:0:
273,175,33299,1,0,0:0:0:0:
202,251,33396,1,0,0:0:0:0:
100,143,33590,2,0,B|153:130|153:130|210:144,1,105
272,280,33977,5,0,0:0:0:0:
173,331,34074,1,0,0:0:0:0:
72,288,34171,1,0,0:0:0:0:
164,156,34364,2,0,B|193:197|193:197|202:257,1,105
48,205,34751,5,0,0:0:0:0:
274,88,34944,1,0,0:0:0:0:
173,331,35138,1,0,0:0:0:0:
119,84,35331,1,0,0:0:0:0:
348,190,35525,1,0,0:0:0:0:
106,277,35718,1,0,0:0:0:0:
201,42,35912,1,0,0:0:0:0:
326,266,36105,1,0,0:0:0:0:
55,165,36299,5,0,0:0:0:0:
163,138,36396,1,0,0:0:0:0:
239,209,36493,1,0,0:0:0:0:
131,311,36687,2,0,B|118:257|118:257|132:200,1,105
269,139,37074,5,0,0:0:0:0:
319,238,37171,1,0,0:0:0:0:
276,338,37268,1,0,0:0:0:0:
144,247,37461,2,0,B|185:217|185:217|245:208,1,105
176,352,37847,5,0,0:0:0:0:
71,122,38041,1,0,0:0:0:0:
322,122,38234,1,0,0:0:0:0:
81,206,38428,1,0,0:0:0:0:
269,36,38622,1,0,0:0:0:0:
218,282,38815,1,0,0:0:0:0:
175,73,39009,5,0,0:0:0:0:
175,73,39105,1,0,0:0:0:0:
175,73,39202,1,0,0:0:0:0:
175,73,39299,1,0,0:0:0:0:
175,73,39396,6,0,B|151:101|151:101|150:153,1,68.2499968757631
235,229,39783,2,0,B|263:206|263:206|267:165,1,68.2499968757631
253,83,40170,1,0,0:0:0:0:
149,199,40364,1,0,0:0:0:0:
59,196,40557,2,0,B|58:238|58:238|83:271,1,68.2499968757631
155,298,40944,6,0,B|155:335|155:335|188:359,1,68.2499968757631
248,290,41331,2,0,B|252:250|252:250|225:216,1,68.2499968757631
191,146,41718,1,0,0:0:0:0:
253,83,41912,1,0,0:0:0:0:
326,138,42105,2,0,B|351:161|351:161|395:160,1,68.2499968757631
481,163,42493,6,0,B|512:180|512:180|512:218,1,68.2499968757631
445,282,42880,2,0,B|414:261|414:261|414:225,1,68.2499968757631
405,134,43267,1,0,0:0:0:0:
471,68,43460,1,0,0:0:0:0:
388,20,43654,2,0,B|349:34|349:34|333:58,1,68.2499968757631
326,150,44041,6,0,L|326:221,1,68.2499968757631
248,166,44428,2,0,L|248:243,1,68.2499968757631
325,296,44815,1,0,0:0:0:0:
254,360,45009,1,0,0:0:0:0:
186,293,45202,2,0,B|164:268|164:268|122:260|122:260|99:228,1,102.374995313645
30,218,45589,6,0,B|87:199|87:199|116:151,1,105
92,2,45976,2,0,B|35:32|35:32|22:86,1,105
182,121,46364,1,0,0:0:0:0:
182,121,46557,1,0,0:0:0:0:
325,48,46751,2,0,B|295:101|295:101|299:148|299:148|262:194,1,157.5
191,200,47138,6,0,B|258:232|258:232|272:268,1,105
158,378,47525,2,0,B|149:313|149:313|177:277,1,105
327,337,47912,1,0,0:0:0:0:
327,337,48105,1,0,0:0:0:0:
367,178,48299,1,0,0:0:0:0:
154,37,48493,6,0,B|157:123|157:123|177:192,1,157.5
93,234,48880,1,0,0:0:0:0:
317,249,49073,2,0,B|368:268|368:268|422:248|422:248|452:188|452:188,1,157.5
330,107,49460,2,0,B|379:96|379:96|429:124|429:124|451:181,1,157.5
290,174,49847,2,0,B|236:159|236:159|188:181|188:181|138:159,1,157.5
109,141,50234,5,0,0:0:0:0:
301,27,50428,1,0,0:0:0:0:
316,248,50622,1,0,0:0:0:0:
208,125,50815,2,0,B|255:104|255:104|317:104,1,105
470,103,51202,1,0,0:0:0:0:
402,254,51396,1,0,0:0:0:0:
241,283,51589,1,0,0:0:0:0:
112,138,51783,6,0,P|157:114|213:128,1,105
63,192,52170,2,0,P|39:147|53:91,1,105
168,189,52557,1,0,0:0:0:0:
28,255,52751,1,0,0:0:0:0:
49,96,52944,1,0,0:0:0:0:
182,196,53138,1,0,0:0:0:0:
1,155,53331,6,0,P|-23:112|-10:48,1,105
78,175,53718,2,0,P|52:215|-6:236,1,105,0|0,0:3|0:0,0:0:0:0:
49,96,54105,1,0,0:0:0:0:
59,96,54299,1,0,0:0:0:0:
69,97,54493,2,0,P|119:109|151:151,1,105
100,295,54880,6,0,P|143:318|202:309,1,105
223,165,55267,2,0,P|181:190|159:246,1,105
306,176,55654,1,0,0:0:0:0:
161,110,55847,1,0,0:0:0:0:
311,179,56041,1,0,0:0:0:0:
154,108,56234,6,0,P|207:74|255:80,1,105
142,190,56622,1,0,0:0:0:0:
113,39,56815,1,0,0:0:0:0:
130,192,57009,2,0,L|163:299,1,105
293,194,57396,5,0,0:0:0:0:
302,186,57493,1,0,0:0:0:0:
311,179,57589,1,0,0:0:0:0:
477,203,57783,1,0,0:0:0:0:
468,211,57880,1,0,0:0:0:0:
458,215,57976,6,0,P|414:185|396:129,1,105
512,40,58364,2,0,P|508:93|468:136,1,105
319,172,58751,1,0,0:0:0:0:
437,65,58944,1,0,0:0:0:0:
461,220,59138,1,0,0:0:0:0:
319,172,59331,6,0,P|273:132|263:82,1,105
407,147,59718,1,0,0:0:0:0:
279,242,59912,1,0,0:0:0:0:
412,151,60105,1,0,0:0:0:0:
273,235,60299,1,0,0:0:0:0:
263,87,60493,1,0,0:0:0:0:
356,219,60686,6,0,P|354:273|318:312,1,105
183,257,61073,2,0,P|230:231|282:243,1,105
302,384,61460,2,0,P|256:355|240:304,1,105
303,161,61847,1,0,0:0:0:0:
440,232,62041,1,0,0:0:0:0:
301,169,62234,1,0,0:0:0:0:
443,225,62428,5,0,0:0:0:0:
358,96,62622,2,0,P|308:80|258:90,1,105
247,245,63009,2,0,P|285:209|302:161,1,105
167,91,63396,1,0,0:0:0:0:
173,123,63493,1,0,0:0:0:0:
170,162,63589,1,0,0:0:0:0:
158,191,63686,1,0,0:0:0:0:
142,227,63783,1,0,0:0:0:0:
137,263,63880,1,0,0:0:0:0:
148,300,63976,1,0,0:0:0:0:
174,331,64073,1,0,0:0:0:0:
205,344,64170,6,0,P|256:352|310:330,1,105
285,182,64557,2,0,P|252:222|244:279,1,105
370,182,64944,1,0,0:0:0:0:
236,107,65138,1,0,0:0:0:0:
377,172,65331,1,0,0:0:0:0:
227,117,65525,6,0,P|201:164|211:219,1,105
318,105,65912,1,0,0:0:0:0:
175,50,66105,2,0,P|127:89|110:134,1,105
163,275,66493,1,0,0:0:0:0:
102,133,66686,1,0,0:0:0:0:
172,272,66880,1,0,0:0:0:0:
264,143,67073,1,0,0:0:0:0:
122,209,67267,6,0,P|92:255|98:312,1,105
239,343,67654,2,0,P|214:294|161:270,1,105
42,360,68041,1,0,0:0:0:0:
177,278,68234,1,0,0:0:0:0:
37,353,68428,1,0,0:0:0:0:
49,200,68622,6,0,P|79:149|123:136,1,105
277,153,69009,1,0,0:0:0:0:
254,183,69105,1,0,0:0:0:0:
228,205,69202,1,0,0:0:0:0:
199,216,69299,1,0,0:0:0:0:
172,219,69396,6,0,P|142:218|121:208,1,52.5
174,85,69589,1,0,0:0:0:0:
174,85,69686,1,0,0:0:0:0:
174,85,69783,2,0,P|192:110|192:139,1,52.5
90,183,69976,2,0,P|102:154|127:140,1,52.5
228,205,70170,1,0,0:0:0:0:
199,216,70267,1,0,0:0:0:0:
171,218,70364,6,0,L|199:322,1,105
357,359,70751,2,0,L|329:255,1,105
258,384,71138,1,0,0:0:0:0:
339,259,71331,1,0,0:0:0:0:
248,380,71525,1,0,0:0:0:0:
263,225,71718,6,0,P|305:178|360:176,1,105
261,303,72105,1,0,0:0:0:0:
181,172,72299,2,0,P|232:183|263:225,1,105
108,223,72686,1,0,0:0:0:0:
181,85,72880,1,0,0:0:0:0:
101,221,73073,5,0,0:0:0:0:
186,87,73267,1,0,0:0:0:0:
263,224,73460,2,0,P|212:213|181:172,1,105
261,51,73847,2,0,P|275:100|256:147,1,105
183,8,74234,1,0,0:0:0:0:
333,4,74428,1,0,0:0:0:0:
176,8,74622,1,0,0:0:0:0:
339,4,74815,5,0,0:0:0:0:
171,8,75009,2,0,L|60:8,1,105
174,126,75396,2,0,L|285:126,1,105
165,8,75783,1,0,0:0:0:0:
103,162,75976,1,0,0:0:0:0:
222,65,76170,1,0,0:0:0:0:
212,223,76364,1,0,0:0:0:0:
284,106,76557,5,0,0:0:0:0:
325,293,76751,1,0,0:0:0:0:
142,235,76944,1,0,0:0:0:0:
375,178,77138,5,0,0:0:0:0:
254,384,77331,1,0,0:0:0:0:
135,176,77525,1,0,0:0:0:0:
395,320,77718,5,0,0:0:0:0:
110,319,77912,1,0,0:0:0:0:
253,72,78105,1,0,0:0:0:0:
254,384,78299,5,0,0:0:0:0:
108,142,78493,1,0,0:0:0:0:
390,136,78686,1,0,0:0:0:0:
110,319,78880,5,0,0:0:0:0:
112,16,79073,1,0,0:0:0:0:
0,82,79267,5,0,0:0:0:0:
303,84,79460,1,0,0:0:0:0:
61,228,79654,2,0,P|71:176|115:138,1,105
385,213,80041,1,0,0:0:0:0:
367,240,80138,1,0,0:0:0:0:
336,261,80234,1,0,0:0:0:0:
297,269,80331,1,0,0:0:0:0:
260,264,80428,1,0,0:0:0:0:
220,231,80525,1,0,0:0:0:0:
190,185,80622,1,0,0:0:0:0:
144,155,80718,1,0,0:0:0:0:
87,157,80815,1,0,0:0:0:0:
35,182,80912,1,0,0:0:0:0:
15,240,81009,1,0,0:0:0:0:
35,297,81105,1,0,0:0:0:0:
86,324,81202,5,0,0:0:0:0:
86,324,81396,1,0,0:0:0:0:
252,315,82751,5,0,0:0:0:0:
352,266,82848,1,0,0:0:0:0:
364,161,82945,1,0,0:0:0:0:
210,156,83139,2,0,B|234:205|234:205|282:240,1,105
428,197,83526,5,0,0:0:0:0:
406,89,83623,1,0,0:0:0:0:
307,50,83720,1,0,0:0:0:0:
271,204,83913,2,0,B|324:194|324:194|370:157,1,105
231,78,84300,5,0,0:0:0:0:
274,330,84493,1,0,0:0:0:0:
506,222,84687,1,0,0:0:0:0:
251,200,84881,1,0,0:0:0:0:
479,318,85074,1,0,0:0:0:0:
401,73,85268,1,0,0:0:0:0:
368,327,85461,1,0,0:0:0:0:
512,118,85655,1,0,0:0:0:0:
280,8,85848,5,0,0:0:0:0:
218,94,85945,1,0,0:0:0:0:
251,200,86042,1,0,0:0:0:0:
395,131,86235,2,0,B|345:97|345:97|281:89,1,105
165,199,86622,5,0,0:0:0:0:
232,282,86719,1,0,0:0:0:0:
342,277,86816,1,0,0:0:0:0:
313,120,87009,2,0,B|267:160|267:160|242:220,1,105
406,219,87397,5,0,0:0:0:0:
251,16,87590,1,0,0:0:0:0:
232,282,87784,1,0,0:0:0:0:
417,110,87977,1,0,0:0:0:0:
164,95,88170,5,0,0:0:0:0:
420,297,88364,1,0,0:0:0:0:
