osu file format v14

[General]
AudioFilename: 17 - Aimo O.C..mp3
AudioLeadIn: 0
PreviewTime: -1
Countdown: 0
SampleSet: None
StackLeniency: 0.7
Mode: 0
LetterboxInBreaks: 1
WidescreenStoryboard: 0

[Editor]
DistanceSpacing: 1.1
BeatDivisor: 4
GridSize: 4
TimelineZoom: 1.1

[Metadata]
Title:Aimo O.C.
TitleUnicode:Aimo O.C.
Artist:Nakajima Megumi
ArtistUnicode:Nakajima Megumi
Creator:[-Horo-]
Version:Hard
Source:Macross Frontier
Tags:
BeatmapID:389374
BeatmapSetID:159342

[Difficulty]
HPDrainRate:6
CircleSize:4
OverallDifficulty:4
ApproachRate:7
SliderMultiplier:1.4
SliderTickRate:2

[Events]
//Background and Video events
0,0,"623156.jpg",0,0
//Break Periods
//Storyboard Layer 0 (Background)
//Storyboard Layer 1 (Fail)
//Storyboard Layer 2 (Pass)
//Storyboard Layer 3 (Foreground)
//Storyboard Sound Samples

[TimingPoints]
560,508.474576271186,4,3,1,60,1,0
37043,-133.333333333333,4,3,1,30,0,0
37678,-133.333333333333,4,3,1,50,0,0
38187,-133.333333333333,4,3,1,70,0,0
38568,-100,4,3,1,60,0,0
40129,-100,4,1,1,60,0,0
41909,-100,4,3,1,60,0,0
48493,-100,4,2,1,50,0,0
49455,-100,4,3,1,60,0,0
53568,-66.6666666666667,4,3,1,50,0,0
54331,-66.6666666666667,4,3,1,70,0,0
55423,-66.6666666666667,4,3,1,60,0,0
80009,-66.6666666666667,4,1,1,60,0,0
82727,-66.6666666666667,4,3,1,60,0,0
84839,-66.6666666666667,4,1,1,40,0,0
85475,-50,4,1,1,40,0,0
85856,-66.6666666666667,4,1,1,40,0,0
88805,-133.333333333333,4,1,1,40,0,0
89161,-133.333333333333,4,1,1,10,0,0
89451,-100,4,1,1,40,0,0
89924,-66.6666666666667,4,1,1,40,0,0
90178,-66.6666666666667,4,1,1,10,0,0
90468,-50,4,1,1,40,0,0
90687,-50,4,1,1,15,0,0
90951,-66.6666666666667,4,1,1,40,0,0
91195,-66.6666666666667,4,1,1,15,0,0
91485,-57.1428571428571,4,1,1,40,0,0
91994,-50,4,1,1,15,0,0
92476,-66.6666666666667,4,1,1,40,0,0
92721,-66.6666666666667,4,1,1,15,0,0
92975,-66.6666666666667,4,1,1,40,0,0
93483,-66.6666666666667,4,1,1,15,0,0
93737,-66.6666666666667,4,1,1,40,0,0
94246,-66.6666666666667,4,1,1,15,0,0
94500,-66.6666666666667,4,1,1,40,0,0
95009,-66.6666666666667,4,1,1,15,0,0
95263,-66.6666666666667,4,1,1,40,0,0
96280,-66.6666666666667,4,1,1,15,0,0
96534,-66.6666666666667,4,3,1,60,0,0
97297,-66.6666666666667,4,1,1,40,0,0
97678,-50,4,1,1,40,0,0
98187,-66.6666666666667,4,1,1,40,0,0
98265,-66.6666666666667,4,3,1,60,0,0
99331,-66.6666666666667,4,1,1,50,0,0
99839,-66.6666666666667,4,3,1,61,0,0
109754,-66.6666666666667,4,1,1,40,0,0
123737,-66.6666666666667,4,3,1,60,0,0
125517,-133.333333333333,4,3,1,70,0,0
127932,-66.6666666666667,4,3,1,70,0,0
138102,-66.6666666666667,4,3,1,60,0,0
138112,-66.6666666666667,4,1,1,40,0,0
141026,-66.6666666666667,4,3,1,70,0,0
141280,-66.6666666666667,4,1,1,40,0,0
143314,-66.6666666666667,4,3,1,70,0,0
143822,-66.6666666666667,4,1,1,50,0,0
144331,-66.6666666666667,4,3,1,60,0,0
145348,-66.6666666666667,4,1,1,50,0,0
145856,-66.6666666666667,4,3,1,60,0,0
150442,-200,4,1,1,30,0,0
151867,-133.333333333333,4,1,1,30,0,0
153011,-100,4,1,1,30,0,0
155898,-100,4,3,1,60,0,0
156280,-100,4,1,1,30,0,0
159112,-66.6666666666667,4,3,1,35,0,0
163678,-66.6666666666667,4,1,1,35,0,0
164197,-66.6666666666667,4,1,1,40,0,0
164706,-57.1428571428571,4,1,1,45,0,0
165214,-100,4,3,1,55,0,0
166231,-66.6666666666667,4,3,1,40,0,0
172805,-133.333333333333,4,3,1,70,0,0
174585,-66.6666666666667,4,3,1,40,0,0
177254,-66.6666666666667,4,2,1,50,0,0
177382,-66.6666666666667,4,3,1,40,0,0
182212,-66.6666666666667,4,1,1,40,0,0
183483,-66.6666666666667,4,3,1,40,0,0
188095,-100,4,1,1,35,0,0
188604,-66.6666666666667,4,1,1,40,0,0
189112,-57.1428571428571,4,1,1,45,0,0
189621,-100,4,3,1,55,0,0
190638,-66.6666666666667,4,3,1,40,0,0
195178,-50,4,1,1,40,0,0
195687,-66.6666666666667,4,1,1,40,0,0
198757,-66.6666666666667,4,3,1,60,0,0
201407,-66.6666666666667,4,1,1,50,0,0
201661,-66.6666666666667,4,2,1,40,0,0
201788,-66.6666666666667,4,3,1,40,0,0
207421,-66.6666666666667,4,2,1,50,0,0
207890,-66.6666666666667,4,3,1,45,0,0
231502,-66.6666666666667,4,1,1,40,0,0
232805,-66.6666666666667,4,3,1,60,0,0
235856,-66.6666666666667,4,3,1,60,0,0
236873,-66.6666666666667,4,1,1,30,0,0
237382,-66.6666666666667,4,3,1,60,0,0
238398,-66.6666666666667,4,1,1,30,0,0
245045,-50,4,3,1,61,0,0
245517,-50,4,1,1,30,0,0
246570,-100,4,3,1,60,0,0
247060,-100,4,1,1,30,0,0
248059,-100,4,3,1,60,0,0
249076,-100,4,2,1,35,0,0
249585,-100,4,3,1,60,0,0
250602,-100,4,1,1,35,0,0
251161,-100,4,1,1,40,0,0
257085,-66.6666666666667,4,3,1,60,0,0
257721,-66.6666666666667,4,1,1,30,0,0
258737,-66.6666666666667,4,3,1,60,0,0
259277,-66.6666666666667,4,1,1,30,0,0
267382,-66.6666666666667,4,1,1,30,0,0
269034,-66.6666666666667,4,1,1,20,0,0
273102,-66.6666666666667,4,1,1,5,0,0

[HitObjects]
60,268,24966,6,0,P|64:192|116:148,1,140
196,176,25729,1,0,0:0:0:0:
176,80,25983,2,0,L|224:0|224:0,1,70
256,100,26492,6,0,P|336:84|384:116,1,140
432,48,27254,1,0,0:0:0:0:
464,128,27509,2,0,L|480:208,1,70
464,128,28017,6,0,B|448:208|352:240|304:160,1,210
224,192,29034,2,0,L|160:256,1,70
224,192,29543,2,0,P|160:192|128:128,1,140
204,112,30305,1,0,0:0:0:0:
56,88,30559,2,0,L|40:176,1,70
204,112,31068,5,0,0:0:0:0:
351,96,31576,2,0,P|400:136|432:140,1,70
444,220,32085,2,0,P|421:273|425:313,1,70
324,252,32593,2,0,P|336:200|252:164,1,140
456,324,33356,1,0,0:0:0:0:
384,288,33610,2,0,L|320:252,1,70
256,232,34119,6,0,P|200:284|100:208,1,210,4|0,0:0|0:0,0:0:0:0:
180,196,35136,2,0,L|180:116,1,70
100,124,35644,2,0,P|140:56|220:56,1,140
180,196,36407,1,0,0:0:0:0:
244,120,36661,2,2,L|308:56|308:56,1,70,0|0,0:0|0:0,0:0:0:0:
304,64,37170,6,2,P|444:80|468:192,1,262.500010013581,0|0,0:0|0:0,0:0:0:0:
424,288,38695,1,8,0:0:0:0:
304,184,39204,6,0,L|240:232,1,70
240,220,39712,2,0,L|176:172,1,70
256,192,40093,12,0,41746,0:0:0:0:
256,192,42254,5,0,0:0:0:0:
212,56,42763,6,0,L|142:45,1,70
176,128,43271,2,0,B|244:192|288:112|288:112|364:140|384:144,1,210
314,223,44288,2,0,P|349:219|384:224,1,70
316,272,44797,2,0,P|288:328|212:328,1,140
232,252,45559,6,0,L|164:184,1,70
120,148,46068,1,0,0:0:0:0:
28,144,46322,2,0,P|56:72|132:68,1,140
196,100,47085,5,8,0:0:0:0:
196,100,47339,2,0,L|268:52,1,70
324,144,47848,2,0,L|275:280,1,140
244,360,48610,5,8,0:0:0:0:
176,128,48865,5,8,0:0:0:0:
112,272,49373,5,8,0:0:0:0:
256,192,49500,12,0,51915,0:0:0:0:
128,256,52424,6,0,P|96:176|128:112,2,140
220,156,53695,6,2,B|320:0|324:232|204:40,1,210.000008010865,0|0,0:0|0:0,0:0:0:0:
372,148,54458,6,2,B|228:292|252:116|336:236|400:252|288:364,1,315.000012016297,0|0,0:0|0:0,0:0:0:0:
144,224,55475,6,0,P|96:128|144:48,1,210.000008010865
192,140,56237,1,4,0:0:0:0:
192,140,56492,6,0,L|304:108,1,105.000004005432
416,208,57000,2,0,P|416:320|312:352,1,210.000008010865
344,272,57763,1,0,0:0:0:0:
256,240,58017,2,0,P|308:188|368:192,1,105.000004005432
352,68,58526,2,0,B|252:48|248:48|248:48|204:100|148:128|88:92|80:36,1,315.000012016297
228,184,59543,6,0,L|124:240,1,105.000004005432
252,316,60051,2,0,P|348:172|348:92,1,210.000008010865,4|0,0:0|0:0,0:0:0:0:
336,36,60814,1,0,0:0:0:0:
336,36,61068,2,0,L|352:144,1,105.000004005432
224,64,61576,2,0,P|160:48|100:80,1,105.000004005432
72,188,62085,6,0,P|108:232|104:288,1,105.000004005432
232,268,62593,2,0,P|272:300|336:292,1,105.000004005432
176,48,63102,2,0,P|304:48|416:96,1,210.000008010865
448,192,63865,1,0,0:0:0:0:
456,328,64119,2,0,B|404:324|336:304|312:280,1,105.000004005432
352,304,64627,6,0,P|256:256|176:192,1,210.000008010865
96,272,65390,1,8,0:0:0:0:
176,192,65644,2,0,P|132:152|92:88,1,105.000004005432
192,96,66153,2,0,L|416:128,1,210.000008010865
176,192,66915,5,0,0:0:0:0:
176,192,67170,2,0,P|228:224|280:204,1,105.000004005432
208,64,67678,2,0,P|48:192|208:304,1,420.000016021729
272,320,68950,1,0,0:0:0:0:
272,320,69204,2,0,P|336:328|396:312,1,105.000004005432
240,192,69712,6,0,P|276:140|328:128,1,105.000004005432
328,216,70221,6,0,P|380:240|448:212,1,105.000004005432
256,192,70602,12,0,72763,0:0:0:0:
112,176,73017,5,0,0:0:0:0:
112,176,73271,6,0,L|192:272,1,105.000004005432
272,208,73780,2,0,P|448:224|432:112,1,315.000012016297
352,176,74797,2,0,P|336:112|256:96,1,105.000004005432
224,192,75305,6,0,P|192:240|300:352,1,210.000008010865
48,352,76068,1,0,0:0:0:0:
160,352,76322,2,0,L|288:352,1,105.000004005432
372,356,76831,2,0,P|468:288|468:164,1,210.000008010865
420,120,77593,1,0,0:0:0:0:
368,200,77848,2,0,L|252:164,1,105.000004005432
160,200,78356,2,0,P|112:120|160:8,1,210.000008010865
208,112,79119,5,0,0:0:0:0:
320,112,79373,2,0,P|448:128|368:352,1,420.000016021729
256,192,80517,12,0,82932,0:0:0:0:
128,64,83187,6,0,L|32:144,1,105.000004005432
144,160,83695,2,0,L|272:208,1,105.000004005432
144,256,84204,2,0,L|32:320,1,105.000004005432
160,336,84712,5,0,0:0:0:0:
272,288,84966,5,0,0:0:0:0:
272,288,85093,1,0,0:0:0:0:
272,288,85221,1,0,0:0:0:0:
272,288,85348,1,0,0:0:0:0:
272,288,85475,2,0,L|300:236,4,52.5000020027161
320,192,85983,6,0,P|320:96|64:192,1,525.000020027161
80,208,87382,1,0,0:0:0:0:
64,224,87509,2,0,P|208:354|256:288,1,315.000012016297
352,272,88526,1,0,0:0:0:0:
224,152,89034,6,0,L|168:192,1,52.5000020027161,0|8,0:0|0:0,0:0:0:0:
176,232,89543,6,0,L|248:224,1,70,0|0,0:0|0:0,0:0:0:0:
256,176,90051,6,0,L|152:120,1,105.000004005432,0|8,0:0|0:0,0:0:0:0:
168,80,90559,6,0,L|328:64,1,140,0|8,0:0|0:0,0:0:0:0:
336,96,91068,6,0,L|448:32,1,105.000004005432,0|8,0:0|0:0,0:0:0:0:
472,144,91576,6,0,L|350:128,1,122.500001168251
312,160,92085,6,0,L|464:232,1,140,8|8,0:0|0:0,0:0:0:0:
480,240,92593,6,0,L|376:288,1,105.000004005432,0|8,0:0|0:0,0:0:0:0:
184,284,93102,2,0,L|80:232,1,105.000004005432
288,304,93610,2,0,L|288:192,1,105.000004005432,8|0,0:0|0:0,0:0:0:0:
192,120,94119,2,0,L|228:12,1,105.000004005432,0|8,0:0|0:0,0:0:0:0:
288,112,94627,6,0,L|416:32,1,105.000004005432,0|8,0:0|0:0,0:0:0:0:
324,188,95136,2,0,L|388:284,1,105.000004005432,8|0,0:0|0:0,0:0:0:0:
248,256,95644,2,0,L|184:368,1,105.000004005432,0|2,0:0|0:0,0:0:0:0:
136,224,96153,2,0,L|24:256,1,105.000004005432,0|8,0:0|0:0,0:0:0:0:
192,208,96661,6,0,P|264:288|368:264,1,210.000008010865,0|0,0:0|0:0,0:0:0:0:
357,251,97297,1,0,0:0:0:0:
356,232,97424,1,0,0:0:0:0:
352,212,97551,1,0,0:0:0:0:
348,192,97678,1,0,0:0:0:0:
344,172,97805,1,0,0:0:0:0:
336,152,97932,1,0,0:0:0:0:
328,136,98059,1,0,0:0:0:0:
320,120,98187,6,0,P|128:44|112:292,1,525.000020027161
136,268,99585,1,0,0:0:0:0:
168,248,99712,2,0,B|220:48|352:288|412:56,1,315.000012016297
407,68,100729,1,0,0:0:0:0:
272,56,101237,6,0,P|192:44|140:56,1,105.000004005432
252,180,101746,2,0,P|300:200|340:240,1,105.000004005432
192,260,102254,2,0,P|160:304|156:360,1,105.000004005432
256,304,102763,2,0,L|364:208,1,105.000004005432
408,264,103271,6,0,L|392:120,1,105.000004005432
288,168,103780,2,0,L|176:120,1,105.000004005432
208,232,104288,2,0,L|96:264,1,105.000004005432
24,192,104797,6,0,L|8:256,2,52.5000020027161
112,128,105305,1,0,0:0:0:0:
208,80,105559,1,0,0:0:0:0:
320,64,105814,2,0,L|432:80,1,105.000004005432
384,176,106322,2,0,L|288:224,1,105.000004005432
192,64,106831,5,0,0:0:0:0:
320,64,107085,1,0,0:0:0:0:
148,192,107340,1,0,0:0:0:0:
356,192,107594,1,0,0:0:0:0:
192,320,107848,1,0,0:0:0:0:
320,320,108102,1,0,0:0:0:0:
256,48,108356,5,0,0:0:0:0:
256,48,108610,1,0,0:0:0:0:
256,48,108865,2,0,B|144:112|160:80|240:96|272:80|272:48|320:96|288:112|320:80|336:80|240:112|240:144|240:192,1,315.000012016297
240,224,109754,1,0,0:0:0:0:
240,224,109882,1,0,0:0:0:0:
240,256,110009,1,0,0:0:0:0:
240,256,110136,1,0,0:0:0:0:
240,288,110263,1,0,0:0:0:0:
240,288,110390,6,0,B|176:256|48:112|80:32,1,315.000012016297
176,80,111407,2,0,B|240:64|216:104|280:112,1,105.000004005432
336,48,111915,6,0,P|432:32|448:208,1,315.000012016297
360,288,112932,2,0,L|260:376,1,105.000004005432
232,336,113314,1,0,0:0:0:0:
176,336,113441,2,0,P|48:272|64:96,1,315.000012016297
140,68,114458,2,0,L|272:32,1,105.000004005432
296,68,114839,1,0,0:0:0:0:
356,76,114966,2,0,P|468:172|468:268,1,210.000008010865
472,252,115602,1,0,0:0:0:0:
460,280,115729,1,0,0:0:0:0:
336,320,115983,5,0,0:0:0:0:
240,160,116492,1,0,0:0:0:0:
240,160,117000,2,0,P|296:104|336:92,1,105.000004005432
320,208,117509,2,0,P|324:264|268:320,1,105.000004005432
208,304,118017,2,0,P|144:288|48:208,1,157.500006008148
60,224,118526,1,0,0:0:0:0:
124,144,118780,5,0,0:0:0:0:
220,92,119034,2,0,P|272:144|280:200,1,105.000004005432
332,68,119543,6,0,P|460:196|412:340,1,315.000012016297
352,336,120559,2,0,L|220:360,1,105.000004005432
196,344,120941,1,0,0:0:0:0:
144,320,121068,2,0,P|32:224|32:128,1,210.000008010865
64,80,121831,2,0,P|152:36|268:40,1,210.000008010865,0|0,0:0|0:0,0:0:0:0:
320,52,122466,1,0,0:0:0:0:
372,64,122593,2,0,P|412:244|212:296,1,420.000016021729
56,140,124119,5,0,0:0:0:0:
240,96,124627,2,0,P|176:96|128:144,1,105.000004005432
224,192,125136,2,0,P|272:240|352:240,1,105.000004005432
312,148,125644,2,2,P|132:160|120:324,1,367.500014019013,0|0,0:0|0:0,0:0:0:0:
120,328,127678,1,0,0:0:0:0:
296,144,128187,6,0,P|256:188|180:164,1,105.000004005432
224,112,128695,2,0,P|96:64|48:208,1,315.000012016297
168,168,129712,2,0,L|272:224,1,105.000004005432
384,240,130221,6,0,P|496:128|480:64,1,210.000008010865
368,80,130983,1,0,0:0:0:0:
280,172,131237,2,0,L|168:204,1,105.000004005432
160,76,131746,2,0,P|136:108|68:100,1,105.000004005432
128,244,132254,1,0,0:0:0:0:
316,200,132509,1,0,0:0:0:0:
316,188,132636,1,0,0:0:0:0:
320,176,132763,6,0,L|368:128,2,52.5000020027161
240,112,133271,2,0,P|160:64|64:128,1,210.000008010865
160,176,134034,1,0,0:0:0:0:
96,256,134288,2,0,P|112:320|240:320,1,210.000008010865
256,192,134924,12,0,137848,0:0:0:0:
192,128,138356,6,0,L|128:96,2,52.5000020027161
144,256,138865,2,0,P|208:288|256:272,2,105.000004005432
80,176,139627,2,0,L|40:108,1,52.5000020027161
88,152,139882,2,0,L|144:128,1,52.5000020027161
352,160,140390,2,0,P|376:160|404:168,3,52.5000020027161
320,152,140898,2,2,B|224:72|208:184|240:216|160:120,1,210.000008010865
128,112,141534,2,0,B|-16:144|80:48|81:201|81:217,2,157.500006008148
152,108,142424,1,0,0:0:0:0:
254,154,142932,6,0,L|292:192,1,52.5000020027161
304,208,143187,2,2,B|224:112|160:160|160:240|160:208|160:304|144:192|32:128,1,315.000012016297
60,144,144076,1,0,0:0:0:0:
52,136,144204,1,0,0:0:0:0:
348,144,144458,6,0,L|448:100,1,105.000004005432
184,232,144966,2,0,L|52:256,1,105.000004005432
256,176,145475,6,0,L|232:64,1,105.000004005432
356,160,145983,6,0,L|468:220,1,105.000004005432
144,156,146492,2,0,L|52:72,1,105.000004005432
256,192,146873,12,0,150305,0:0:0:0:
224,208,150559,6,0,L|176:192,1,35
128,160,151068,2,0,L|112:112,1,35
319,64,152085,6,0,L|272:96,1,52.5000020027161
228,208,152593,2,0,L|244:276,1,52.5000020027161
384,304,153102,2,0,L|456:336,1,70
256,192,153483,12,0,155898,0:0:0:0:
256,192,156153,5,0,0:0:0:0:
176,144,156661,6,0,L|96:96,1,70
320,96,157170,2,0,L|400:32,1,70
208,304,158187,2,0,L|128:240,1,70
320,224,158695,2,0,L|384:160,1,70
64,192,159204,6,0,P|64:80|240:64,1,315.000012016297
256,208,160221,2,0,L|364:208,1,105.000004005432
448,192,160729,6,0,P|448:80|272:64,1,315.000012016297
256,208,161746,2,0,P|276:148|248:96,1,105.000004005432
176,240,162254,2,0,P|120:268|100:320,1,105.000004005432
256,320,162763,1,0,0:0:0:0:
416,320,163017,1,0,0:0:0:0:
336,192,163271,1,0,0:0:0:0:
176,192,163526,1,0,0:0:0:0:
32,48,163780,6,0,L|144:64,1,105.000004005432
180,32,164288,2,0,L|308:112,1,105.000004005432
320,60,164797,2,0,L|400:156,1,122.500001168251
448,116,165305,2,2,L|512:324,1,210,0|0,0:0|0:0,0:0:0:0:
368,320,166322,6,0,P|300:280|288:244,1,105.000004005432
160,304,166831,2,0,P|80:224|64:112,1,210.000008010865
176,160,167593,1,0,0:0:0:0:
288,224,167848,2,0,L|416:176,1,105.000004005432
272,128,168356,6,0,P|204:108|160:108,1,105.000004005432
167,236,168865,2,0,P|205:201|256:192,1,105.000004005432
272,256,169373,2,0,P|248:320|260:368,1,105.000004005432
360,284,169882,2,0,L|332:184,1,105.000004005432
372,312,170390,1,0,0:0:0:0:
468,216,170644,1,0,0:0:0:0:
448,232,170898,6,0,P|448:160|428:116,1,105.000004005432
320,160,171407,2,0,P|276:108|216:72,1,105.000004005432
128,144,171915,2,0,P|56:128|0:144,1,105.000004005432
112,208,172424,6,0,L|224:272,1,105.000004005432
320,320,172932,2,2,P|460:260|448:112,1,315.000012016297,0|0,0:0|0:0,0:0:0:0:
256,320,174712,5,0,0:0:0:0:
196,224,174966,1,0,0:0:0:0:
304,224,175221,1,0,0:0:0:0:
256,120,175475,1,0,0:0:0:0:
256,100,175602,1,0,0:0:0:0:
256,80,175729,1,0,0:0:0:0:
160,112,175983,5,0,0:0:0:0:
336,112,176237,1,0,0:0:0:0:
192,224,176492,1,0,0:0:0:0:
304,224,176746,1,0,0:0:0:0:
256,320,177000,1,0,0:0:0:0:
240,336,177127,1,0,0:0:0:0:
224,352,177254,1,0,0:0:0:0:
144,272,177509,6,0,L|64:192,1,105.000004005432
160,176,178017,2,0,L|128:64,1,105.000004005432
224,112,178526,2,0,L|272:16,1,105.000004005432
256,192,178907,12,0,182085,0:0:0:0:
256,144,182593,5,0,0:0:0:0:
288,272,183102,5,0,0:0:0:0:
384,160,183356,5,0,0:0:0:0:
480,96,183610,6,0,P|400:160|384:368,1,315.000012016297
288,272,184627,2,0,P|256:208|208:176,1,105.000004005432
144,96,185136,2,0,L|160:208,1,105.000004005432
160,200,185644,1,0,0:0:0:0:
256,160,186153,6,0,L|304:48,1,105.000004005432
312,144,186661,2,0,L|296:256,1,105.000004005432
352,188,187170,2,0,L|368:76,1,105.000004005432
400,160,187678,2,0,L|432:288,1,105.000004005432
192,320,188187,6,0,P|160:320|128:272,1,70
128,292,188695,2,0,P|96:228|144:196,1,105.000004005432
108,200,189204,2,0,P|92:136|156:136,1,122.500001168251
136,104,189712,2,2,P|184:72|216:184,1,210,0|0,0:0|0:0,0:0:0:0:
344,128,190729,6,0,P|384:80|428:72,1,105.000004005432
464,160,191237,2,0,P|464:272|368:320,1,210.000008010865
256,320,192000,1,0,0:0:0:0:
128,320,192254,2,0,L|256:320,1,105.000004005432
192,208,192763,6,0,L|80:144,1,105.000004005432
224,128,193271,2,0,L|176:16,1,105.000004005432
312,104,193780,2,0,L|392:8,1,105.000004005432
400,128,194288,2,0,L|512:80,1,105.000004005432
496,88,194797,1,0,0:0:0:0:
432,240,195305,6,0,L|400:296,2,52.5000020027161
304,272,195814,2,0,P|224:256|192:216,1,105.000004005432
144,144,196322,2,0,P|108:88|108:32,1,105.000004005432
208,240,196831,2,0,L|320:288,1,105.000004005432
256,192,197339,12,0,198610,0:0:0:0:
160,176,198865,6,0,L|96:128,2,52.5000020027161
288,224,199373,5,0,0:0:0:0:
400,144,199627,1,0,0:0:0:0:
432,272,199882,1,0,0:0:0:0:
96,128,200390,6,0,L|32:80,2,52.5000020027161
224,176,200898,5,0,0:0:0:0:
336,96,201153,1,0,0:0:0:0:
368,224,201407,1,0,0:0:0:0:
376,232,201534,1,0,0:0:0:0:
384,240,201661,1,0,0:0:0:0:
256,304,201915,6,0,L|144:320,1,105.000004005432
160,176,202424,2,0,L|256:112,1,105.000004005432
368,240,202932,2,0,L|240:208,1,105.000004005432
256,192,203314,12,0,207509,0:0:0:0:
256,192,207763,5,0,0:0:0:0:
368,112,208017,6,0,P|432:160|368:272,1,210.000008010865
272,272,208780,1,0,0:0:0:0:
192,336,209034,2,0,L|168:224|168:224,1,105.000004005432
192,336,209543,2,0,P|84:332|64:240,1,210.000008010865
160,240,210305,1,0,0:0:0:0:
260,208,210559,2,0,P|232:156|176:136,1,105.000004005432
68,124,211068,6,0,B|116:12|292:12|340:140,1,315.000012016297,8|4,0:0|0:0,0:0:0:0:
292,212,212085,2,0,P|240:268|184:264,1,105.000004005432
400,204,212593,2,0,P|480:268|436:364,1,210.000008010865,8|0,0:0|0:0,0:0:0:0:
248,304,213356,5,0,0:0:0:0:
228,312,213483,1,0,0:0:0:0:
208,320,213610,2,0,P|160:352|96:336,1,105.000004005432
160,224,214119,1,2,0:0:0:0:
416,144,214627,6,0,P|360:152|300:120,1,105.000004005432
193,162,215136,6,0,P|224:216|228:272,1,105.000004005432
64,224,215644,2,0,P|16:176|80:64,1,210.000008010865,8|0,0:0|0:0,0:0:0:0:
192,160,216407,1,0,0:0:0:0:
344,120,216661,2,0,L|368:228,1,105.000004005432
240,144,217170,6,0,P|272:64|448:144,1,315.000012016297,0|4,0:0|0:0,0:0:0:0:
368,224,218187,2,0,L|340:112,1,105.000004005432,0|0,0:0|0:0,0:0:0:0:
440,232,218695,2,0,P|392:292|300:192,1,210.000008010865,0|0,0:0|0:0,0:0:0:0:
344,124,219458,1,0,0:0:0:0:
292,200,219712,2,0,L|200:280|200:280,1,105.000004005432
224,304,220221,6,0,P|64:304|96:64,1,420.000016021729
55,87,221492,1,0,0:0:0:0:
55,87,221746,1,0,0:0:0:0:
176,128,222254,6,0,L|272:64,1,105.000004005432
248,64,222763,2,0,L|312:156,1,105.000004005432
256,192,223271,12,0,224797,0:0:0:0:
256,192,225305,5,0,0:0:0:0:
432,304,225814,2,0,P|372:336|320:336,1,105.000004005432
288,224,226322,6,0,P|192:240|-16:176,1,315.000012016297
224,144,227339,2,0,P|272:104|324:92,1,105.000004005432
440,84,227848,2,0,P|416:208|332:264,1,210.000008010865
236,304,228610,1,0,0:0:0:0:
352,256,228865,6,0,P|416:208|444:152,1,105.000004005432
316,112,229373,1,0,0:0:0:0:
80,240,229882,2,0,P|112:192|128:120,1,105.000004005432
336,352,230390,2,0,P|300:308|268:240,1,105.000004005432
160,204,230898,2,0,B|228:148|196:88|256:12,1,210.000008010865
253,20,231534,5,0,0:0:0:0:
272,48,231661,1,0,0:0:0:0:
272,80,231788,1,0,0:0:0:0:
256,112,231915,1,0,0:0:0:0:
240,144,232043,1,0,0:0:0:0:
228,176,232170,5,0,0:0:0:0:
240,208,232297,1,0,0:0:0:0:
256,240,232424,1,0,0:0:0:0:
272,272,232551,1,0,0:0:0:0:
272,304,232678,1,0,0:0:0:0:
256,192,232805,12,0,235221,0:0:0:0:
256,192,235475,5,0,0:0:0:0:
336,256,235983,6,0,L|432:304,1,105.000004005432
152,120,236492,2,0,L|56:72,1,105.000004005432
56,72,237000,1,0,0:0:0:0:
352,264,237509,6,0,L|432:344,1,105.000004005432
160,120,238017,2,0,L|112:24,1,105.000004005432
112,24,238526,1,0,0:0:0:0:
256,192,238780,12,0,241576,0:0:0:0:
256,192,242339,5,0,0:0:0:0:
80,96,242848,2,0,P|164:104|208:128,1,105.000004005432
400,128,243610,5,0,0:0:0:0:
304,320,244119,2,0,P|328:272|396:264,1,105.000004005432
496,224,244627,2,0,P|444:220|384:264,1,105.000004005432
304,192,245136,6,0,L|160:80,1,140
336,112,245644,1,0,0:0:0:0:
352,256,246153,1,0,0:0:0:0:
160,280,246661,6,0,L|224:216,1,70
136,160,247170,1,0,0:0:0:0:
192,80,247424,1,0,0:0:0:0:
312,80,247678,2,0,L|240:128,1,70
352,272,248187,6,0,L|432:336,1,70
160,176,248695,2,0,L|96:144,1,70
96,144,249204,1,0,0:0:0:0:
344,288,249712,6,0,L|424:304,1,70
160,144,250221,2,0,L|112:80,1,70
56,176,250729,1,0,0:0:0:0:
352,176,251237,1,0,0:0:0:0:
352,176,251492,5,2,0:0:0:0:
224,224,252000,2,0,L|268:144,1,70
368,80,252763,1,0,0:0:0:0:
432,208,253271,1,0,0:0:0:0:
336,320,253780,2,0,L|256:300,1,70
208,176,254543,5,2,0:0:0:0:
64,208,255051,1,0,0:0:0:0:
80,272,255305,1,0,0:0:0:0:
208,336,255814,1,0,0:0:0:0:
352,320,256322,1,0,0:0:0:0:
384,296,256449,1,0,0:0:0:0:
416,272,256576,1,0,0:0:0:0:
444,240,256704,1,0,0:0:0:0:
464,208,256831,1,2,0:0:0:0:
160,144,257339,6,0,L|64:80,1,105.000004005432
176,80,257848,1,0,0:0:0:0:
352,208,258356,1,0,0:0:0:0:
320,256,258865,2,0,L|416:336,1,105.000004005432
400,320,259373,1,0,0:0:0:0:
208,256,259882,5,0,0:0:0:0:
208,256,260390,6,0,L|160:288,2,52.5000020027161,0|0|2,0:0|0:0|0:0,0:0:0:0:
240,160,260898,1,0,0:0:0:0:
368,80,261153,1,0,0:0:0:0:
112,336,261915,6,0,L|64:368,2,52.5000020027161
144,240,262424,1,0,0:0:0:0:
192,144,262678,1,2,0:0:0:0:
368,112,262932,5,2,0:0:0:0:
368,112,263187,2,0,L|488:72,1,105.000004005432
468,80,263695,1,2,0:0:0:0:
308,304,264204,6,0,P|232:328|168:320,1,105.000004005432
64,304,264966,1,0,0:0:0:0:
128,112,265475,1,0,0:0:0:0:
336,64,265983,1,0,0:0:0:0:
432,32,266237,1,0,0:0:0:0:
304,192,266746,5,2,0:0:0:0:
128,304,267254,1,0,0:0:0:0:
120,148,267509,5,0,0:0:0:0:
144,120,267636,1,0,0:0:0:0:
168,92,267763,1,0,0:0:0:0:
200,72,267890,5,4,0:0:0:0:
236,64,268017,1,4,0:0:0:0:
272,64,268144,1,4,0:0:0:0:
308,68,268271,5,4,0:0:0:0:
344,60,268398,1,4,0:0:0:0:
392,48,268526,1,4,0:0:0:0:
428,60,268653,5,4,0:0:0:0:
464,72,268780,5,4,0:0:0:0:
256,192,268907,12,0,273102,0:0:0:0:
