osu file format v9

[General]
AudioFilename: Hatsukoi wa Zakuro Iro.mp3
AudioLeadIn: 1000
PreviewTime: 48750
Countdown: 0
SampleSet: Soft
StackLeniency: 0.7
Mode: 0
LetterboxInBreaks: 0

[Editor]
Bookmarks: 10018,22018,34018,73018,88018,93268,112018,127018,152518,169018,181018,196018,208018,223018,243268
DistanceSpacing: 1
BeatDivisor: 4
GridSize: 8

[Metadata]
Title:Hatsukoi wa Zakuro Iro
Artist:Nakahara Mai
Creator:S i R i R u
Version:RuRu x Kiou2 x quin
Source:Otome Youkai Zakuro
Tags:Sakurai Takahiro miccoliasms MeLLoN azuki kioukiou Aenna taka1235 quintitem

[Difficulty]
HPDrainRate:4
CircleSize:4
OverallDifficulty:6
ApproachRate:7
SliderMultiplier:1.6
SliderTickRate:0.5

[Events]
//Background and Video events
0,0,"BG.jpg"
//Break Periods
2,88218,92368
2,152718,156118
2,169218,180118
//Storyboard Layer 0 (Background)
//Storyboard Layer 1 (Fail)
//Storyboard Layer 2 (Pass)
//Storyboard Layer 3 (Foreground)
Sprite,Foreground,Centre,"Name Plate\quin.png",320,240 M,0,10018,,525,411 S,0,10018,,0.6928 F,0,10018,10768,0,1 F,0,10768,33268,1 F,0,33268,34018,1,0
Sprite,Foreground,Centre,"Name Plate\RuRu.png",320,240 M,0,34018,,529,414 S,0,34018,,0.5712 F,0,34018,34768,0,1 F,0,34768,72268,1 F,0,72268,73018,1,0
Sprite,Foreground,Centre,"Name Plate\kiou.png",320,240 M,0,1018,,536,419 S,0,1018,,0.6735998 F,0,1018,1768,0,1 F,0,1768,9268,1 F,0,9268,10018,1,0
Sprite,Foreground,Centre,"Name Plate\kiou.png",320,240 M,0,73018,,529,412 S,0,73018,,0.6928 F,0,73018,73768,0,1 F,0,73768,87268,1 F,0,87268,88018,1,0 F,0,88018,127018,0 F,0,127018,127768,0,0.8960001 F,0,127768,151768,0.8960001,1 F,0,151768,152518,1,0 F,0,152518,181018,0 F,0,181018,181768,0,1 F,0,181768,207268,1 F,0,207268,208018,1,0
Sprite,Foreground,Centre,"Name Plate\RuRu.png",320,240 M,0,93268,,524,422 S,0,93268,,0.6032002 F,0,93268,94018,0,1 F,0,94018,111268,1,0.9546666 F,0,111268,112018,0.9546666,0 F,0,112018,157018,0 F,0,157018,157768,0,1 F,0,157768,168268,1 F,0,168268,169018,1,0 F,0,169018,223018,0 F,0,223018,223768,0,0.8896 F,0,223768,242518,0.8896,1 F,0,242518,243268,1,0
Sprite,Foreground,Centre,"Name Plate\quin.png",320,240 M,0,112018,,524,419 S,0,112018,,0.6415999 F,0,112018,112768,0,1 F,0,112768,126268,1 F,0,126268,127018,1,0 F,0,127018,208018,0 F,0,208018,208768,0,1 F,0,208768,222361,1 F,0,222361,223018,1,0
Sprite,Foreground,Centre,"Name Plate\kiou.png",320,240 M,0,1018,,536,419 S,0,1018,,0.6735998 F,0,1018,1768,0,1 F,0,1768,9268,1 F,0,9268,10018,1,0
Sprite,Foreground,Centre,"Name Plate\kiou.png",320,240 M,0,73018,,529,412 S,0,73018,,0.6928 F,0,73018,73768,0,1 F,0,73768,87268,1 F,0,87268,88018,1,0
Sprite,Foreground,Centre,"Name Plate\RuRu.png",320,240 M,0,93268,,524,422 S,0,93268,,0.6032002 F,0,93268,94018,0,1
//Storyboard Sound Samples
//Background Colour Transformations
3,100,255,255,255

[TimingPoints]
1018,375,4,2,1,80,1,0
2611,-100,4,1,1,50,0,0
3924,-100,4,2,1,80,0,0
9174,-100,4,1,1,50,0,0
9549,-100,4,2,1,80,0,0
9924,-100,4,2,1,60,0,0
9924,-100,4,2,1,60,0,0
20049,-100,4,1,1,50,0,0
20424,-100,4,2,1,60,0,0
20611,-100,4,1,1,70,0,0
21455,-100,4,2,1,60,0,0
21924,-142.857142857143,4,2,1,70,0,0
32518,-100,4,1,1,75,0,0
33455,-100,4,2,1,70,0,0
43018,-142.857142857143,4,2,1,80,0,0
45455,-142.857142857143,4,1,1,30,0,0
46018,-100,4,1,1,50,0,0
47143,-200,4,2,1,80,0,0
49018,-100,4,2,1,80,0,0
68705,-100,4,2,1,50,0,0
69455,-100,4,1,1,40,0,0
70018,-100,4,2,1,80,0,0
73205,-100,4,2,1,70,0,0
86611,-100,4,1,1,70,0,0
87455,-100,4,1,1,50,0,0
88393,-100,4,2,1,80,0,0
93268,-100,4,2,1,30,0,0
94018,-100,4,2,1,80,0,0
97205,-100,4,1,1,40,0,0
98518,-100,4,2,1,80,0,0
99643,-100,4,1,1,50,0,0
100018,-100,4,2,1,80,0,0
111830,-100,4,1,1,70,0,0
112861,-100,4,2,1,50,0,0
113049,-100,4,1,1,70,0,0
114736,-100,4,2,1,50,0,0
114924,-100,4,1,1,70,0,0
115486,-100,4,2,1,50,0,0
115674,-100,4,1,1,70,0,0
118861,-100,4,2,1,50,0,0
119049,-100,4,1,1,70,0,0
119236,-100,4,2,1,50,0,0
119424,-100,4,1,1,70,0,0
120361,-100,4,2,1,50,0,0
120549,-100,4,1,1,70,0,0
120830,-142.857142857143,4,1,1,70,0,0
122143,-142.857142857143,4,2,1,80,0,0
122330,-142.857142857143,4,1,1,70,0,0
123268,-142.857142857143,4,1,1,40,0,0
124111,-142.857142857143,4,1,1,45,0,0
124299,-142.857142857143,4,1,1,50,0,0
124486,-142.857142857143,4,1,1,55,0,0
124674,-142.857142857143,4,1,1,60,0,0
124861,-142.857142857143,4,1,1,65,0,0
125049,-142.857142857143,4,1,1,70,0,0
125236,-142.857142857143,4,1,1,75,0,0
125424,-200,4,2,1,50,0,0
126268,-100,4,2,1,0,0,0
126643,-100,4,2,1,80,0,0
147268,-200,4,2,1,80,0,0
148018,-200,4,2,1,0,0,0
148111,-100,4,1,1,30,0,0
148299,-100,4,1,1,40,0,0
148486,-100,4,1,1,50,0,0
148674,-100,4,1,1,60,0,0
148861,-100,4,1,1,70,0,0
149049,-100,4,1,1,80,0,0
149236,-100,4,1,1,90,0,0
149424,-100,4,2,1,80,0,0
150174,-100,4,1,1,80,0,0
150549,-100,4,2,1,80,0,0
152518,-100,4,2,1,0,0,0
157018,-100,4,2,1,60,0,0
180830,-100,4,1,1,60,0,0
183736,-100,4,2,1,60,0,0
183924,-100,4,1,1,60,0,0
184111,-100,4,2,1,60,0,0
184299,-100,4,1,1,60,0,0
184486,-100,4,2,1,60,0,0
184674,-100,4,1,1,60,0,0
184861,-100,4,2,1,60,0,0
185049,-100,4,1,1,60,0,0
185236,-100,4,2,1,60,0,0
185424,-100,4,1,1,60,0,0
185611,-100,4,2,1,60,0,0
185799,-100,4,1,1,60,0,0
185986,-100,4,2,1,60,0,0
186174,-100,4,1,1,60,0,0
186361,-100,4,2,1,60,0,0
186549,-100,4,1,1,60,0,0
186736,-100,4,2,1,60,0,0
186924,-100,4,1,1,60,0,0
187486,-100,4,2,1,60,0,0
187674,-100,4,1,1,60,0,0
188611,-100,4,2,1,60,0,0
188799,-100,4,1,1,60,0,0
188986,-100,4,2,1,60,0,0
189174,-100,4,1,1,60,0,0
190018,-133.333333333333,4,1,1,60,0,0
192080,-100,4,1,1,60,0,0
192268,-100,4,1,1,20,0,0
192924,-100,4,1,1,30,0,0
193111,-100,4,1,1,40,0,0
193299,-100,4,1,1,50,0,0
193486,-100,4,1,1,60,0,0
193674,-100,4,1,1,70,0,0
193861,-100,4,1,1,80,0,0
194049,-100,4,1,1,90,0,0
194330,-100,4,2,1,80,0,0
195268,-133.333333333333,4,2,1,80,0,0
207830,-100,4,2,1,80,0,0
213924,-200,4,2,1,60,0,0
214768,-100,4,2,1,0,0,0
214861,-100,4,1,1,40,0,0
215049,-100,4,1,1,50,0,0
215236,-100,4,1,1,60,0,0
215424,-100,4,1,1,70,0,0
215611,-100,4,2,1,80,0,0
216174,-100,4,2,1,70,0,0
216361,-100,4,1,1,30,0,0
216455,-100,4,1,1,35,0,0
216549,-100,4,1,1,40,0,0
216643,-100,4,1,1,45,0,0
216736,-100,4,1,1,50,0,0
216830,-100,4,1,1,55,0,0
216924,-100,4,1,1,60,0,0
217018,-100,4,1,1,65,0,0
217111,-100,4,2,1,80,0,0
218424,-100,4,2,1,90,0,0
218705,-100,4,2,1,70,0,0
219080,-100,4,1,1,50,0,0
219924,-100,4,2,1,70,0,0
242143,-100,4,2,1,30,0,0

[Colours]
Combo1 : 255,62,62
Combo2 : 255,255,255
Combo3 : 21,143,234
Combo4 : 255,255,0

[HitObjects]
256,192,1018,2,0,B|232:136|288:72|240:16,2,160,0|2|2
176,200,1955,2,0,B|96:248,1,80,0|0
208,272,2330,2,0,B|208:352,1,80,0|0
296,272,2705,2,0,B|296:360,1,80,0|0
336,200,3080,2,0,B|416:248,1,80,0|0
256,96,3643,5,0
256,96,3736,1,0
256,96,3830,1,0
328,64,4018,2,0,B|416:40|488:96,1,160,0|2
400,328,4768,1,0
440,264,4955,2,0,B|488:192,2,80,0|2|0
280,288,5705,2,0,B|232:360,2,80,0|2|0
192,152,6455,2,0,B|240:80,2,80,0|2|0
136,208,7018,6,0,B|88:272|104:360,2,160,4|2|2
216,208,7955,1,0
296,208,8143,1,2
376,208,8330,2,0,B|424:144|408:56,2,160,0|2|2
376,288,9268,1,0
376,288,9361,1,0
376,288,9455,1,0
376,368,9643,1,4
256,192,10018,5,0
256,192,10393,1,10
148,72,10768,2,0,B|100:144,1,80
164,192,11143,2,0,B|80:240,1,80,8|0
124,308,11518,2,0,B|36:308,2,80,0|0|10
196,340,12080,2,0,B|368:340,1,160
428,304,12643,1,8
384,148,13018,6,0,B|482:132|479:19,2,160,0|10|0
320,100,13955,1,0
320,100,14143,1,8
256,148,14330,1,0
256,148,14518,2,0,B|92:148,2,160,0|10|0
324,192,15455,1,0
324,272,15643,1,8
256,312,15830,1,0
256,232,16018,6,0,B|96:232,1,160,4|10
92,72,16768,2,0,B|44:72,8,40,2|0|0|0|2|0|0|0|2
164,36,17705,2,0,B|216:40|216:104,2,80,0|10|0
132,192,18455,1,0
132,192,18643,2,0,B|33:207|36:320,1,160,8|4
104,344,19205,5,0
104,344,19393,1,2
172,304,19580,1,0
172,304,19768,1,2
240,344,19955,1,0
240,344,20143,2,0,B|292:344,2,40
256,264,20518,1,2
320,220,20705,5,0
256,172,20893,1,0
320,124,21080,1,0
256,76,21268,1,0
256,76,21643,2,0,B|256:24,2,40,2|2|2
176,96,22018,6,0,B|40:96,2,111.999997329712,0|2|0
200,176,22955,2,0,B|276:176,2,55.999998664856,0|2|0
84,300,23705,1,0
84,300,23893,2,0,B|208:300,1,111.999997329712,2|0
256,356,24455,1,0
316,300,24643,1,2
316,300,25018,6,0,B|452:300,2,111.999997329712,0|2|0
292,220,25955,2,0,B|216:220,2,55.999998664856,0|2|0
408,96,26705,1,0
408,96,26893,2,0,B|284:96,1,111.999997329712,2|0
236,40,27455,1,0
176,96,27643,1,2
96,244,28018,6,0,B|25:231|27:149,2,111.999997329712,0|2|0
168,204,28955,1,0
168,204,29143,1,2
168,204,29330,2,0,B|238:216|236:298,1,111.999997329712
312,316,29893,1,2
312,316,30268,2,0,B|384:316,2,55.999998664856,0|0|2
416,140,31018,6,0,B|486:152|484:234,2,111.999997329712,0|2|0
348,92,31955,2,0,B|348:52|400:52,2,55.999998664856,0|2|0
172,40,32705,5,0
53,91,32893,1,0
158,167,33080,1,0
40,219,33268,1,0
40,219,33643,1,2
256,336,34018,6,0,B|256:168,2,160,4|8|0
384,248,35143,1,8
384,168,35330,1,0
456,208,35518,1,0
456,128,35705,2,0,B|456:48,2,80,0|8|0
384,88,36268,2,0,B|339:55|255:60|223:98,1,160,0|8
232,168,36830,1,0
232,248,37018,5,0
96,168,37393,1,8
232,88,37768,2,0,B|296:80|352:144|352:192,1,160,0|8
352,256,38330,1,0
352,336,38518,2,0,B|184:336,2,160,0|8|0
432,200,39643,1,8
432,120,39830,1,0
368,64,40018,1,4
160,192,40393,6,0,B|72:192,2,80,8|0|0
208,128,40955,1,0
288,128,41143,2,0,B|336:128|360:184,1,80,8|0
352,248,41518,2,0,B|352:344,2,80,0|0|8
432,248,42080,2,0,B|432:152,1,80
496,120,42455,2,0,B|496:40,1,80,0|8
40,192,43018,6,0,B|96:144|120:248|208:184,1,167.999995994568,4|4
472,192,44143,1,4
472,192,44518,1,4
256,352,45080,6,0,B|256:224,1,111.999997329712
184,200,45643,1,0
256,160,45830,1,0
328,200,46018,1,0
256,160,46205,5,0
256,160,46393,2,0,B|256:64,2,80
256,344,47143,2,0,B|256:240,1,80,4|4
80,296,49018,5,4
144,248,49205,1,0
224,248,49393,1,8
288,296,49580,1,0
352,248,49768,2,0,B|400:248|424:320,2,80,0|0|8
432,88,50518,5,0
368,136,50705,1,0
288,136,50893,1,8
224,88,51080,1,0
160,136,51268,2,0,B|112:136|88:64,2,80,0|0|8
256,336,52018,6,0,B|312:344|376:296|368:240,1,160,0|8
288,248,52580,1,0
288,248,52768,2,0,B|288:56,2,160,0|8|0
168,144,53893,1,8
104,200,54080,1,0
40,144,54268,1,0
104,88,54455,2,0,B|104:16,2,40,0|0|8
256,200,55018,6,0,B|208:256|312:296|240:368,2,160,4|8|0
256,200,55955,1,0
336,200,56143,2,0,B|400:200|408:272,1,80,8|0
480,240,56518,2,0,B|480:320,2,80,0|0|8
480,160,57080,2,0,B|464:96|392:64|336:72,1,160
280,48,57643,1,8
280,48,57830,1,0
192,88,58018,6,0,B|120:144,1,80
192,192,58393,2,0,B|112:256,1,80,8|0
192,296,58768,2,0,B|120:352,2,80,0|0|8
272,296,59330,1,0
336,248,59518,1,0
416,248,59705,1,0
416,248,59893,2,0,B|416:336,2,80,8|0|4
416,248,60643,1,4
256,48,61018,6,0,B|168:48,1,80,4|0
296,120,61393,2,0,B|384:120,1,80,8|0
256,192,61768,2,0,B|168:192,2,80,0|0|8
256,336,62518,6,0,B|344:336,1,80
216,264,62893,2,0,B|128:264,1,80,8|0
256,192,63268,2,0,B|344:192,2,80,0|0|8
256,192,63830,1,0
176,192,64018,6,0,B|120:180|112:94|160:72|190:68,2,160,0|8|0
256,192,64955,1,0
336,192,65143,2,0,B|392:204|400:290|352:312|322:316,1,160,8|0
256,288,65705,1,0
184,328,65893,2,0,B|128:328|112:280,1,80,8|0
184,240,66268,2,0,B|184:80,2,160,0|8|4
104,216,67205,1,0
104,136,67393,6,0,B|104:56,1,80,8|0
184,40,67768,2,0,B|240:64|240:112,1,80
240,176,68143,2,0,B|240:272,2,80,8|0|0
320,176,68705,5,2
392,216,68893,1,2
432,288,69080,1,2
432,368,69268,2,0,B|480:368,8,40,2|0|0|0|0|0|0|0|4
48,192,70393,5,8
256,48,70768,1,0
464,192,71143,1,8
256,192,71518,6,0,B|256:360,2,160,4|4|0
176,192,72455,1,0
216,120,72643,1,8
296,120,72830,1,0
336,192,73018,1,4
336,352,73393,6,0,B|424:352,1,80,2|0
176,352,73768,2,0,B|88:352,1,80,2|0
336,256,74143,2,0,B|424:248,1,80,2|0
176,256,74518,2,0,B|88:248,1,80,2|0
336,168,74893,2,0,B|416:120,1,80,2|0
176,168,75268,2,0,B|96:120,1,80,2|0
256,104,75643,2,0,B|256:16,2,80,2|0|4
256,264,76393,5,2
104,312,76768,2,0,B|64:288|56:224,2,80,2|0|2
144,240,77330,1,0
160,160,77518,2,0,B|208:152|248:160,1,80,2|0
272,88,77893,2,0,B|320:80|360:112,1,80,2|0
408,48,78268,2,0,B|456:48|480:96,2,80,2|0|2
408,208,79018,5,4
264,280,79393,1,2
264,120,79768,2,0,B|240:72|176:56,2,80,2|0|2
192,152,80330,1,4
64,248,80705,1,0
144,224,80893,2,0,B|176:312,1,80,2|4
328,256,81455,1,0
256,224,81643,2,0,B|296:128,1,80,2|0
344,96,82018,6,0,B|416:48|504:56,2,160,4|2|2
264,96,82955,2,0,B|160:96,1,80,0|2
192,176,83330,2,0,B|96:176,1,80,0|2
112,256,83705,2,0,B|200:256,1,80,0|2
192,336,84080,2,0,B|288:336,1,80,0|2
432,328,84643,5,2
448,248,84830,1,0
424,168,85018,2,0,B|392:80|312:40,1,160,2|2
248,48,85580,1,0
280,120,85768,2,0,B|312:144|344:192,1,80,2|0
272,232,86143,2,0,B|296:272|296:320,2,80,2|0|2
216,176,86705,1,0
152,128,86893,2,0,B|112:104|64:104,2,80
152,288,87643,2,0,B|152:336,4,40
256,192,93268,12,4,94018
256,192,94393,5,4
136,296,94768,1,8
56,296,94955,2,0,B|56:344,2,40,2|2|2
96,224,95330,2,0,B|96:112,1,80,2|0
176,136,95705,2,0,B|176:40,2,80,2|8|2
256,272,96455,2,0,B|304:272|328:224,1,80,2|8
320,152,96830,1,0
320,152,97018,1,4
320,72,97205,5,0
248,112,97393,2,0,B|160:112,1,80
40,176,97768,2,0,B|128:176,1,80
248,240,98143,2,0,B|160:240,1,80
320,280,98518,1,4
256,56,99268,5,2
408,96,99643,1,0
392,136,99736,1,0
360,160,99830,1,0
320,176,99924,1,0
280,176,100018,6,0,B|112:176,2,160,4|8|0
280,256,100955,2,0,B|344:256|360:320,1,80,0|8
280,336,101330,2,0,B|120:336,1,160
96,256,101893,2,0,B|8:256,2,80,8|0|0
96,176,102455,1,0
160,120,102643,1,8
240,120,102830,1,0
240,200,103018,6,0,B|304:200|344:136|304:72,2,160,4|8|0
160,200,103955,2,0,B|64:200,1,80,0|8
104,280,104330,2,0,B|280:280,1,160
328,328,104893,1,8
408,328,105080,1,0
368,256,105268,1,0
448,256,105455,1,0
408,184,105643,2,0,B|408:96,1,80,8|0
328,128,106018,6,0,B|287:94|200:95|167:138,1,160,4|8
178,206,106580,1,0
120,264,106768,1,0
40,272,106955,2,0,B|40:168,1,80,0|8
40,112,107330,5,0
120,112,107518,2,0,B|120:64|72:40,2,80,0|0|8
200,88,108080,1,0
280,112,108268,1,0
360,88,108455,1,0
440,112,108643,1,8
440,192,108830,5,0
440,232,108924,1,0
440,272,109018,2,0,B|440:320|384:352|328:352|288:320,1,160,4|8
280,264,109580,1,0
216,216,109768,2,0,B|160:232|168:304,2,80,0|2|0
280,168,110330,1,2
416,88,110705,1,4
416,168,110893,2,4,B|416:248,2,80
416,168,111643,1,2
196,144,112018,6,0,B|195:43|307:29,2,160
116,148,112955,1,0
116,148,113143,2,0,B|292:148,2,160
44,292,114268,1,0
196,344,114643,1,0
196,344,114830,1,0
196,344,115018,2,0,B|360:344,1,160
384,268,115580,1,0
384,268,115768,2,0,B|224:268,1,160
256,32,116518,5,0
32,192,116893,1,0
256,352,117268,1,0
480,192,117643,1,0
256,192,118018,6,0,B|255:91|367:77,2,160
336,192,118955,1,0
296,264,119143,1,0
216,264,119330,1,0
176,192,119518,2,0,B|176:28,2,160
124,252,120455,1,0
176,312,120643,1,0
380,192,121018,6,0,B|477:175|478:56,2,167.999995994568,0|0|0
280,56,122518,2,0,B|182:73|181:192,1,167.999995994568
172,340,123455,2,0,B|108:340,2,55.999998664856
256,360,124018,5,0
256,336,124205,1,0
256,312,124393,1,0
256,288,124580,1,0
256,264,124768,1,0
256,240,124955,1,0
256,216,125143,1,0
256,192,125330,1,0
256,168,125518,6,0,B|212:116|296:72|256:16,1,160,2|0
144,40,127018,5,4
88,120,127205,2,0,B|56:160|48:208,2,80,0|8|0
192,120,127768,2,0,B|368:120,1,160,0|8
368,344,128518,5,0
424,264,128705,2,0,B|456:224|464:176,2,80,0|8|0
320,264,129268,2,0,B|144:264,1,160,0|8
88,64,130018,6,0,B|40:128|40:216,1,160,0|8
64,304,130580,1,0
136,232,130768,2,0,B|128:144|200:64,1,160,0|8
264,32,131330,2,0,B|368:8,1,80
336,112,131705,2,0,B|432:112,1,80,0|8
392,200,132080,2,0,B|488:216,1,80
424,296,132455,2,0,B|480:352,1,80,0|8
200,304,133018,6,0,B|160:328|120:320,1,80
64,248,133393,2,0,B|40:208|56:160,1,80,8|0
144,208,133768,2,0,B|208:136|304:160,1,160,0|8
376,184,134330,1,0
456,128,134518,6,0,B|496:112|504:48,1,80
368,88,134893,2,0,B|352:48|312:32,1,80,8|0
288,160,135268,2,0,B|248:136|200:160,1,80
320,272,135643,2,0,B|288:296|288:352,1,80,8|0
448,256,136018,6,0,B|464:304|512:312,2,80,0|0|8
64,128,136768,2,0,B|48:80|0:72,2,80,0|0|8
352,192,137518,5,0
255,288,137705,1,0
159,191,137893,1,8
255,95,138080,1,0
256,192,138268,1,4
256,192,138643,1,4
56,288,139018,6,0,B|80:336|112:352,1,80
184,288,139393,2,0,B|208:336|240:352,1,80,8|0
312,288,139768,2,0,B|488:288,1,160,0|8
456,96,140518,6,0,B|432:48|400:32,1,80
328,96,140893,2,0,B|304:48|272:32,1,80,8|0
200,96,141268,2,0,B|24:96,1,160,0|8
40,192,141830,5,0
56,288,142018,2,0,B|80:336|120:352,2,80,0|0|8
152,264,142580,1,0
120,168,142768,2,0,B|96:88|160:8,1,160,0|8
232,64,143330,1,0
216,160,143518,2,0,B|200:208|248:264,1,80
320,208,143893,2,0,B|348:236|332:284,2,80,8|0|0
416,40,144643,1,8
464,120,144830,1,0
456,216,145018,5,0
432,312,145205,1,0
352,256,145393,2,0,B|320:352,1,80,2|2
264,216,145768,5,0
240,312,145955,1,0
160,256,146143,2,0,B|128:352,1,80,2|2
32,168,146705,6,0,B|64:80|144:32,1,160
192,112,147268,6,0,B|128:152|96:248,1,160
112,308,148205,5,0
184,344,148393,1,0
272,352,148580,1,0
368,336,148768,1,0
452,272,148955,1,0
468,160,149143,1,0
436,44,149330,1,0
308,40,149518,2,0,B|372:112|352:204,1,160,4|4
288,232,150080,1,0
212,204,150268,1,0
212,204,150361,1,0
212,204,150455,2,0,B|172:284,2,80,0|0|0
256,192,151018,12,0,152518
96,192,157018,5,4
216,88,157393,1,8
216,168,157580,2,0,B|216:256,2,80
296,168,158143,2,0,B|352:168|400:216|392:296,1,160,8|0
392,352,158705,1,0
392,352,158893,2,0,B|224:352,2,160,8|0|8
464,208,160018,5,4
360,88,160393,1,8
256,208,160768,1,0
152,88,161143,1,8
48,208,161518,1,0
256,208,161893,6,0,B|256:296,1,80,8|0
328,248,162268,2,0,B|328:152,1,80
256,208,162643,2,0,B|256:304,1,80,8|0
184,248,163018,2,0,B|184:160,1,80,4|0
256,128,163393,6,0,B|256:40,2,80,8|0|0
472,192,164143,1,8
256,256,164518,1,0
40,192,164893,1,8
256,336,165268,5,0
256,336,165643,1,8
216,40,166018,6,0,B|232:112|176:112|168:176|232:192,1,160,4|8
296,40,166768,2,0,B|280:112|336:112|344:176|280:192,1,160,0|8
136,192,167518,5,0
256,296,167893,1,8
336,296,168080,1,0
336,296,168174,1,0
336,296,168268,2,0,B|416:296,2,80,0|0|8
336,296,169018,1,4
312,136,181018,5,0
312,248,181393,1,0
200,248,181768,1,0
200,136,182143,1,0
104,192,182518,5,0
256,344,182893,1,0
408,192,183268,1,0
256,40,183643,1,0
336,344,184018,6,0,B|368:264,1,80
176,264,184393,2,0,B|144:184,1,80
336,192,184768,2,0,B|368:112,1,80
176,112,185143,2,0,B|144:32,1,80
336,40,185518,6,0,B|368:120,1,80
176,120,185893,2,0,B|144:200,1,80
336,192,186268,2,0,B|368:272,1,80
176,272,186643,2,0,B|144:352,1,80
88,264,187018,6,0,B|32:192|96:112,1,160,0|0
164,117,187580,1,0
164,117,187768,2,0,B|4:117,2,160
164,36,188705,1,0
236,76,188893,1,0
236,156,189080,1,0
164,196,189268,2,0,B|2:196,1,160
356,330,190018,6,0,B|448:296|456:192,2,179.999994635582
155,53,191518,2,0,B|64:88|56:192,1,179.999994635582
256,192,192455,6,0,B|256:288,2,80
176,192,193018,1,0
216,120,193205,1,0
296,120,193393,1,0
336,192,193580,1,0
296,264,193768,1,0
216,264,193955,1,0
256,192,194143,1,0
256,192,194518,1,4
416,272,196018,5,0
488,232,196205,1,0
488,152,196393,1,2
416,120,196580,1,0
416,192,196768,2,0,B|272:192,1,119.999996423721,0|2
96,272,197518,5,0
24,232,197705,1,0
24,152,197893,1,2
96,120,198080,1,0
96,192,198268,2,0,B|240:192,1,119.999996423721,0|2
400,120,199018,6,0,B|384:56|320:24,2,119.999996423721,0|2|0
344,264,200143,2,0,B|312:336,1,59.9999982118607,2|0
264,264,200518,2,0,B|232:336,1,59.9999982118607
184,264,200893,2,0,B|152:336,2,59.9999982118607,2|0|0
184,184,201455,1,0
184,104,201643,1,2
336,104,202018,6,0,B|400:88|472:112,2,119.999996423721,0|2|0
256,240,203143,1,2
176,104,203518,2,0,B|112:88|40:112,2,119.999996423721,0|2|0
256,112,204455,1,0
256,112,204643,2,0,B|256:32,2,59.9999982118607,2|0|0
256,192,205205,1,0
256,272,205393,1,2
256,352,205580,1,0
384,272,205955,1,0
384,192,206143,1,2
32,192,206518,5,4
256,352,206893,1,4
480,192,207268,1,4
256,32,207643,1,4
36,144,208018,6,0,B|36:92|96:88,1,80
36,240,208393,2,0,B|36:292|96:296,1,80,8|0
136,192,208768,2,0,B|188:148|232:232|288:192,1,160,0|8
476,144,209518,6,0,B|476:92|416:88,1,80
476,240,209893,2,0,B|476:292|416:296,1,80,8|0
376,192,210268,2,0,B|324:148|280:232|224:192,1,160,0|8
164,144,210830,5,0
164,144,211018,2,0,B|163:43|275:29,2,160,0|8|0
116,296,212143,1,8
116,296,212330,1,0
176,352,212518,1,0
176,352,212705,1,0
236,296,212893,2,0,B|420:296,2,160,8|0|8
256,220,213830,1,0
256,220,214018,2,0,B|212:168|296:124|256:68,1,160,4|0
324,28,214955,5,0
400,52,215143,1,0
464,100,215330,1,0
484,176,215518,1,0
404,188,215705,5,0
328,208,215893,1,0
280,272,216080,1,0
256,348,216268,2,0,B|320:348,8,40,2|0|0|0|0|0|0|0|0
176,348,217205,6,0,B|124:280,1,80,0|8
176,220,217580,2,0,B|88:184,1,80,0|0
132,116,217955,2,0,B|32:116,2,80,0|8|0
180,52,218518,1,2
180,52,218893,1,2
256,192,219268,5,0
272,192,219361,1,0
288,192,219455,1,0
304,192,219549,1,0
320,192,219643,1,0
372,132,219830,1,0
424,192,220018,1,2
256,192,220205,12,0,222643
96,80,223018,5,4
208,192,223393,1,8
368,192,223768,1,0
368,112,223955,2,0,B|368:32,2,80,0|8|0
440,152,224518,1,0
368,192,224705,1,0
440,232,224893,1,8
368,272,225080,1,0
440,312,225268,2,0,B|411:351|352:369|294:331|293:291,1,160,0|8
256,248,225830,1,0
176,248,226018,6,0,B|120:232|120:176|136:136|192:128,1,160,0|8
258,132,226580,1,0
328,88,226768,2,0,B|424:88,2,80,0|0|8
328,168,227330,2,0,B|328:216|368:240,1,80
440,240,227705,2,0,B|440:288|392:312,1,80,0|8
320,304,228080,2,0,B|216:304,1,80
168,272,228455,1,0
168,192,228643,1,8
96,232,228830,1,0
96,312,229018,6,0,B|8:312,2,80,4|0|8
240,232,229768,2,0,B|320:232,2,80,0|0|8
152,104,230518,1,0
208,48,230705,1,0
288,32,230893,1,8
368,32,231080,1,0
368,112,231268,2,0,B|448:112,2,80,0|0|8
152,344,232018,6,0,B|152:168,2,160,0|8|0
232,328,232955,1,0
312,312,233143,2,0,B|312:216,1,80,8|0
392,296,233518,1,0
472,280,233705,2,0,B|472:184,1,80,0|8
472,120,234080,5,0
400,88,234268,1,0
328,120,234455,1,0
256,88,234643,1,8
184,120,234830,1,0
104,120,235018,6,0,B|64:160|64:232|112:272,1,160,4|8
184,264,235580,2,0,B|184:344,2,80
264,264,236143,1,8
320,208,236330,2,0,B|312:152|376:136,1,80
400,208,236705,1,0
400,208,236893,2,0,B|400:376,2,160,8|0|8
120,56,238018,5,0
176,112,238205,1,0
176,192,238393,2,0,B|96:192,2,80,8|0|0
224,256,238955,1,0
304,256,239143,6,0,B|368:256|392:312,1,80,8|0
408,208,239518,2,0,B|392:160|424:128,1,80
336,120,239893,2,0,B|296:160|240:144,1,80,8|0
240,72,240268,2,0,B|208:40|152:56,1,80
144,128,240643,2,0,B|152:168|112:208,1,80,8|0
256,272,241018,5,4
256,272,241580,1,4
256,192,242143,12,0,242893
