osu file format v14

[General]
AudioFilename: happily ever after.mp3
AudioLeadIn: 1500
PreviewTime: 50564
Countdown: 0
SampleSet: Soft
StackLeniency: 0.7
Mode: 0
LetterboxInBreaks: 0
WidescreenStoryboard: 0

[Editor]
Bookmarks: 14064,19064,27064,32397,43064,61731,67064,72397,77397,85397,90731,101397,120064,125397,127731,138397,170397,175731,181064,186064,191397,197064
DistanceSpacing: 0.9
BeatDivisor: 4
GridSize: 32
TimelineZoom: 1.7

[Metadata]
Title:happily ever after
TitleUnicode:happily ever after
Artist:Nakagawa Shouko
ArtistUnicode:中川翔子
Creator:smallboat
Version:Normal
Source:Tengen Toppa Gurren Lagann
Tags:天元突破グレンラガン Shokotan best sound meg rock GAINAX tokyo hot blood robot fight final universe super drill anime Simon Kamina Yoko baldrace Tsukuyomi
BeatmapID:582521
BeatmapSetID:253823

[Difficulty]
HPDrainRate:4
CircleSize:2.5
OverallDifficulty:4.3
ApproachRate:5
SliderMultiplier:1.1
SliderTickRate:1

[Events]
//Background and Video events
0,0,"bg.jpg",0,0
//Break Periods
2,14097,17864
2,72597,76197
2,130596,134530
2,184096,187863
//Storyboard Layer 0 (Background)
//Storyboard Layer 1 (Fail)
//Storyboard Layer 2 (Pass)
//Storyboard Layer 3 (Foreground)
//Storyboard Sound Samples

[TimingPoints]
398,333.333333333333,4,2,3,70,1,0
4231,-100,4,2,2,70,0,0
4397,-100,4,2,1,55,0,0
5397,-100,4,2,3,40,0,0
5564,-100,4,2,1,70,0,0
6897,-100,4,2,2,70,0,0
7064,-100,4,2,1,70,0,0
9564,-100,4,2,2,70,0,0
9731,-100,4,2,1,65,0,0
10731,-100,4,2,3,50,0,0
10814,-100,4,2,2,50,0,0
11564,-100,4,2,2,75,0,0
12397,-100,4,2,2,50,0,0
12897,-100,4,2,2,50,0,0
13064,-100,4,2,1,50,0,0
13397,-100,4,2,3,60,0,0
13731,-100,4,2,2,55,0,0
14064,-100,4,2,1,45,0,0
19064,-100,4,2,2,80,0,0
19231,-100,4,2,3,80,0,0
21397,-100,4,2,3,60,0,0
21731,-100,4,2,2,60,0,0
22064,-100,4,2,1,50,0,0
24231,-100,4,2,2,55,0,0
24731,-100,4,2,1,55,0,0
27064,-100,4,2,2,80,0,0
27231,-100,4,2,3,70,0,0
29397,-100,4,2,3,35,0,0
29731,-100,4,2,1,80,0,0
29897,-100,4,2,3,75,0,0
32064,-100,4,2,2,70,0,0
32397,-100,4,2,2,40,0,0
37064,-100,4,2,3,35,0,0
37231,-100,4,2,1,50,0,0
37731,-100,4,2,1,50,0,0
37897,-100,4,2,2,55,0,0
42397,-100,4,2,3,35,0,0
42564,-100,4,2,2,70,0,0
43064,-100,4,2,1,60,0,0
43231,-100,4,2,3,70,0,0
48397,-100,4,2,1,60,0,0
48564,-100,4,2,3,75,0,0
49731,-100,4,2,1,60,0,0
50564,-100,4,2,1,45,0,0
50731,-100,4,2,1,50,0,0
51064,-100,4,2,1,70,0,1
51231,-100,4,2,2,75,0,1
56064,-100,4,2,3,45,0,1
56397,-100,4,2,1,60,0,1
56564,-100,4,2,2,70,0,1
60897,-100,4,2,2,55,0,1
61731,-100,4,2,1,70,0,1
61897,-100,4,2,2,70,0,1
66731,-100,4,2,3,45,0,1
67064,-100,4,2,1,60,0,0
67564,-100,4,2,2,60,0,0
68897,-100,4,2,1,70,0,0
69397,333.333333333333,4,2,2,55,1,0
70397,-100,4,2,2,55,0,0
71730,-100,4,2,1,40,0,0
72397,-100,4,2,1,35,0,0
77396,-100,4,2,2,80,0,0
77563,-100,4,2,3,80,0,0
79730,-100,4,2,3,40,0,0
80063,-100,4,2,2,45,0,0
80396,-100,4,2,1,45,0,0
82230,-100,4,2,1,45,0,0
85396,-100,4,2,2,70,0,0
85563,-100,4,2,3,70,0,0
87730,-100,4,2,3,70,0,0
88063,-100,4,2,1,80,0,0
88230,-100,4,2,3,75,0,0
89563,-100,4,2,2,70,0,0
89730,-100,4,2,3,75,0,0
90396,-100,4,2,2,70,0,0
90730,-100,4,2,2,40,0,0
95396,-100,4,2,3,30,0,0
95563,-100,4,2,1,50,0,0
96063,-100,4,2,1,50,0,0
96230,-100,4,2,2,55,0,0
100730,-100,4,2,3,35,0,0
100896,-100,4,2,2,70,0,0
101396,-100,4,2,1,60,0,0
101563,-100,4,2,3,60,0,0
106730,-100,4,2,1,60,0,0
106896,-100,4,2,3,75,0,0
108063,-100,4,2,1,60,0,0
108896,-100,4,2,1,45,0,0
109396,-100,4,2,1,70,0,1
109563,-100,4,2,2,75,0,1
114396,-100,4,2,3,45,0,1
114730,-100,4,2,1,60,0,1
114896,-100,4,2,2,70,0,1
118730,-100,4,2,2,70,0,1
119230,-100,4,2,2,50,0,1
120063,-100,4,2,1,70,0,1
120230,-100,4,2,2,70,0,1
125063,-100,4,2,3,45,0,1
125396,-100,4,2,1,60,0,0
125896,-100,4,2,2,55,0,0
126896,-100,4,2,3,30,0,0
127063,-100,4,2,3,70,0,0
127730,333.333333333333,4,2,2,60,1,0
136896,-100,4,2,2,45,0,0
137896,-100,4,2,2,70,0,0
138063,-100,4,2,1,70,0,0
138563,-100,4,2,3,70,0,0
139563,-100,4,2,2,55,0,0
139730,-100,4,2,3,70,0,0
142229,-100,4,2,1,60,0,0
142396,-100,4,2,3,70,0,0
143396,-100,4,2,3,35,0,0
143729,-100,4,2,1,50,0,0
143896,-100,4,2,1,70,0,0
144229,-100,4,2,2,70,0,0
144896,-100,4,2,3,35,0,0
145229,-100,4,2,3,60,0,0
147396,-100,4,2,2,50,0,0
148563,-100,4,2,1,40,0,0
148729,-100,4,2,1,45,0,0
149063,-100,4,2,1,70,0,1
149229,-100,4,2,2,75,0,1
154063,-100,4,2,3,45,0,1
154396,-100,4,2,1,70,0,1
154563,-100,4,2,2,70,0,1
158896,-100,4,2,2,50,0,1
159729,-100,4,2,1,70,0,1
159896,-100,4,2,2,70,0,1
164729,-100,4,2,3,50,0,1
165063,-100,4,2,1,60,0,1
165229,-100,4,2,2,70,0,1
169063,-100,4,2,2,50,0,1
169563,-100,4,2,2,50,0,1
170396,-100,4,2,1,70,0,1
170563,-100,4,2,2,80,0,1
175396,-100,4,2,3,50,0,1
175729,-100,4,2,1,55,0,0
176229,-100,4,2,2,60,0,0
177396,-100,4,2,3,60,0,0
177896,-100,4,2,1,70,0,0
178063,-100,4,2,3,30,0,0
178396,-100,4,2,2,60,0,0
178563,-100,4,2,3,70,0,0
178896,-100,4,2,2,50,0,0
179563,-100,4,2,1,50,0,0
179729,-100,4,2,3,70,0,0
180729,-100,4,2,2,50,0,0
181063,-100,4,2,3,70,0,0
186563,-100,4,2,3,65,0,0
190396,-100,4,2,2,75,0,0
190896,-100,4,2,3,30,0,0
191396,-100,4,2,3,65,0,0
191729,-100,4,2,3,75,0,0
196729,-100,4,2,3,40,0,0
197063,-100,4,2,1,80,0,0
197563,-100,4,2,2,50,0,0
198896,-100,4,2,3,50,0,0
199729,-100,4,2,1,20,0,0
202896,-100,4,2,1,5,0,0
203063,-100,4,2,2,55,0,0
203896,-100,4,2,1,50,0,0
203979,-100,4,2,1,5,0,0

[Colours]
Combo1 : 0,130,191
Combo2 : 255,117,51
Combo3 : 221,0,0
Combo4 : 0,87,87

[HitObjects]
45,243,398,5,2,0:0:0:0:
83,211,564,2,0,B|133:226|133:226|193:210,2,110,2|0|0,0:0|0:0|0:0,0:0:0:0:
111,170,1397,1,2,0:0:0:0:
131,124,1564,2,0,B|166:114|166:114|206:52,1,110,2|2,0:0|0:0,0:0:0:0:
305,52,2231,2,0,B|346:114|346:114|381:124,1,110,2|0,0:0|0:0,0:0:0:0:
458,182,2897,5,2,0:0:0:0:
451,283,3231,2,0,B|396:274|396:274|370:227,2,110,2|2|0,0:0|0:0|0:0,0:0:0:0:
463,331,4064,1,10,0:0:0:0:
433,370,4231,6,0,L|322:350,1,110,4|0,0:0|0:0,0:0:0:0:
280,327,4731,1,8,0:0:0:0:
236,238,5064,1,8,0:0:0:0:
269,145,5397,1,12,0:0:0:0:
213,63,5731,5,4,0:0:0:0:
123,21,6064,2,0,B|54:27|54:27|24:117,1,165,8|0,0:0|0:0,0:0:0:0:
20,167,6731,1,8,0:0:0:0:
29,215,6897,6,0,B|81:220|81:220|111:272,1,110,4|0,0:0|0:0,0:0:0:0:
131,314,7397,1,8,0:0:0:0:
222,351,7731,1,0,0:0:0:0:
313,312,8064,1,8,0:0:0:0:
407,341,8397,5,0,0:0:0:0:
464,259,8731,2,0,P|479:179|438:110,1,165,8|0,0:0|0:0,0:0:0:0:
401,78,9397,1,8,0:0:0:0:
357,54,9564,6,0,B|303:38|303:38|236:49,1,110,4|0,0:0|0:0,0:0:0:0:
203,63,10064,1,8,0:0:0:0:
107,37,10397,1,0,0:0:0:0:
32,102,10731,1,4,0:0:0:0:
50,199,11064,6,0,B|98:173|98:173|153:179,1,110,4|8,0:0|0:0,0:0:0:0:
201,191,11564,1,4,0:0:0:0:
293,156,11897,1,4,0:0:0:0:
391,171,12231,6,0,B|442:187|442:187|459:240,1,110,4|4,0:0|0:0,0:0:0:0:
471,288,12731,1,8,0:0:0:0:
477,336,12897,2,0,B|430:366|430:366|378:352,1,110,4|8,0:0|0:0,0:0:0:0:
331,336,13397,1,2,0:0:0:0:
242,291,13731,6,0,L|248:236,1,55,4|4,0:0|0:0,0:0:0:0:
255,321,19064,5,4,0:0:0:0:
351,301,19397,2,0,P|402:284|439:244,1,110,10|2,0:0|0:0,0:0:0:0:
458,146,20064,1,10,0:0:0:0:
442,48,20397,5,0,0:0:0:0:
348,11,20731,2,0,P|298:32|243:33,1,110,2|2,0:0|0:0,0:0:0:0:
146,18,21397,1,12,0:0:0:0:
52,52,21731,2,0,L|41:125,1,55,4|4,0:0|0:0,0:0:0:0:
46,155,22064,6,0,P|89:186|143:187,1,110,2|2,0:0|0:0,0:0:0:0:
192,176,22564,1,2,0:0:0:0:
272,118,22897,2,0,P|299:98|377:95,1,110,2|2,0:0|0:0,0:0:0:0:
457,145,23564,2,0,P|464:198|434:243,1,110,2|2,0:0|0:0,0:0:0:0:
399,278,24064,1,2,0:0:0:0:
351,292,24231,2,0,P|296:290|245:310,1,110,4|4,0:0|0:0,0:0:0:0:
209,344,24731,6,0,B|157:360|157:360|99:339,1,110,2|2,0:0|0:0,0:0:0:0:
58,324,25231,1,2,0:0:0:0:
19,232,25564,1,2,0:0:0:0:
75,150,25897,1,2,0:0:0:0:
29,62,26231,2,0,P|85:64|133:39,1,110,2|2,0:0|0:0,0:0:0:0:
173,12,26731,2,0,L|225:37,1,55,2|10,0:0|0:0,0:0:0:0:
254,73,27064,5,4,0:0:0:0:
320,146,27397,2,0,B|368:165|368:165|425:141,1,110,2|2,0:0|0:0,0:0:0:0:
495,208,28064,1,10,0:0:0:0:
477,305,28397,5,0,0:0:0:0:
390,354,28731,2,0,B|334:361|334:361|274:329,1,110,2|2,0:0|0:0,0:0:0:0:
202,284,29397,1,4,0:0:0:0:
106,311,29731,5,4,0:0:0:0:
19,263,30064,1,2,0:0:0:0:
35,215,30231,2,0,P|90:211|133:175,1,110,0|2,0:0|0:0,0:0:0:0:
152,132,30731,1,2,0:0:0:0:
251,108,31064,6,0,P|302:91|340:52,1,110,2|2,0:0|0:0,0:0:0:0:
385,31,31564,1,2,0:0:0:0:
434,33,31731,1,2,0:0:0:0:
490,114,32064,1,12,0:0:0:0:
452,205,32397,5,4,0:0:0:0:
490,296,32731,1,0,0:0:0:0:
461,336,32897,2,0,L|406:326,1,55,0|8,0:0|0:0,0:0:0:0:
358,315,33231,2,0,P|329:268|333:212,1,110,0|0,0:0|0:0,0:0:0:0:
355,171,33731,6,0,L|395:128,2,55,0|8|0,0:0|0:0|0:0,0:0:0:0:
256,174,34397,1,8,0:0:0:0:
205,259,34731,1,0,0:0:0:0:
130,323,35064,5,0,0:0:0:0:
33,346,35397,1,0,0:0:0:0:
25,296,35564,2,0,L|33:220,1,55,0|8,0:0|0:0,0:0:0:0:
51,196,35897,2,0,L|158:172,1,110
181,129,36397,6,0,L|170:75,2,55
280,129,37064,1,12,0:0:0:0:
365,79,37397,1,0,0:0:0:0:
460,105,37731,5,4,0:0:0:0:
489,199,38064,1,0,0:0:0:0:
491,248,38231,2,0,L|483:302,1,55,0|8,0:0|0:0,0:0:0:0:
454,341,38564,2,0,P|399:337|355:305,1,110
332,261,39064,6,0,L|342:207,2,55,0|8|0,0:0|0:0|0:0,0:0:0:0:
237,232,39731,1,8,0:0:0:0:
141,256,40064,1,0,0:0:0:0:
54,304,40397,5,0,0:0:0:0:
25,263,40564,2,0,L|39:131,1,110
44,104,41064,1,8,0:0:0:0:
168,22,41564,6,0,L|222:25,1,55
320,46,42064,1,0,0:0:0:0:
366,63,42231,2,0,L|430:54,1,55,0|12,0:0|0:0,0:0:0:0:
492,123,42731,1,8,0:0:0:0:
460,216,43064,5,4,0:0:0:0:
388,284,43397,1,10,0:0:0:0:
301,234,43731,2,0,L|315:180,2,55,2|2|2,0:0|0:0|0:0,0:0:0:0:
206,263,44397,5,2,0:0:0:0:
109,287,44731,2,0,B|63:261|63:261|44:196,1,110,2|2,0:0|0:0,0:0:0:0:
28,109,45397,1,2,0:0:0:0:
86,28,45731,5,2,0:0:0:0:
184,29,46064,1,2,0:0:0:0:
220,59,46231,2,0,P|275:65|325:45,1,110,0|2,0:0|0:0,0:0:0:0:
365,15,46731,2,0,L|430:28,1,55,2|2,0:0|0:0,0:0:0:0:
466,40,47064,5,2,0:0:0:0:
490,135,47397,1,2,0:0:0:0:
468,179,47564,2,0,P|416:192|363:178,1,110,0|0,0:0|0:0,0:0:0:0:
318,158,48064,1,10,0:0:0:0:
222,184,48397,5,4,0:0:0:0:
164,264,48731,1,10,0:0:0:0:
72,300,49064,2,0,L|79:359,2,55,2|2|10,0:0|0:0|0:0,0:0:0:0:
78,200,49731,6,0,L|137:173,2,55,4|4|0,0:0|0:0|0:0,0:0:0:0:
48,159,50231,1,2,0:0:0:0:
47,60,50564,2,0,P|96:34|150:30,1,110,2|2,0:0|0:0,0:0:0:0:
199,36,51064,5,6,0:0:0:0:
281,91,51397,1,10,0:0:0:0:
322,118,51564,2,0,P|376:121|425:97,1,110,0|0,0:0|0:0,0:0:0:0:
463,66,52064,1,10,0:0:0:0:
492,160,52397,5,0,0:0:0:0:
479,258,52731,1,10,0:0:0:0:
455,301,52897,2,0,P|409:324|345:314,1,110,0|0,0:0|0:0,0:0:0:0:
306,297,53397,2,0,L|262:259,1,55,10|0,0:0|0:0,0:0:0:0:
235,220,53731,5,0,0:0:0:0:
139,192,54064,2,0,B|88:218|88:218|33:208,1,110,10|0,0:0|0:0,0:0:0:0:
20,110,54731,5,10,0:0:0:0:
68,100,54897,2,0,B|123:88|123:88|160:45,1,110,0|0,0:0|0:0,0:0:0:0:
202,25,55397,2,0,B|253:15|253:15|304:41,2,110,10|0|12,0:0|0:0|0:0,0:0:0:0:
239,116,56397,5,4,0:0:0:0:
334,144,56731,1,10,0:0:0:0:
366,179,56897,2,0,P|381:259|338:327,1,165,0|10,0:0|0:0,0:0:0:0:
240,345,57731,5,0,0:0:0:0:
145,316,58064,1,10,0:0:0:0:
105,285,58231,2,0,P|75:239|81:184,1,110
107,144,58731,1,10,0:0:0:0:
185,84,59064,5,0,0:0:0:0:
274,41,59397,1,10,0:0:0:0:
320,58,59564,2,0,P|373:68|424:50,1,110
464,79,60064,1,10,0:0:0:0:
488,176,60397,6,0,L|496:254,2,55,4|0|10,0:0|0:0|0:0,0:0:0:0:
440,160,60897,2,0,B|384:156|384:156|285:220,1,165,4|14,0:0|0:0,0:0:0:0:
216,278,61731,5,4,0:0:0:0:
125,309,62064,1,10,0:0:0:0:
75,303,62231,2,0,P|44:254|43:199,1,110,0|0,0:0|0:0,0:0:0:0:
54,154,62731,1,10,0:0:0:0:
118,79,63064,5,0,0:0:0:0:
215,60,63397,1,10,0:0:0:0:
260,80,63564,2,0,P|314:77|363:53,1,110,0|0,0:0|0:0,0:0:0:0:
398,18,64064,1,10,0:0:0:0:
477,77,64397,5,0,0:0:0:0:
491,174,64731,2,0,P|442:199|388:199,1,110,10|0,0:0|0:0,0:0:0:0:
292,175,65397,5,10,0:0:0:0:
243,163,65564,2,0,P|188:154|129:171,1,110
96,197,66064,1,10,0:0:0:0:
67,237,66231,2,0,B|77:292|77:292|181:323,1,165,0|4,0:0|0:0,0:0:0:0:
280,314,67064,6,0,L|269:243,2,55,4|0|0,0:0|0:0|0:0,0:0:0:0:
327,328,67564,1,4,0:0:0:0:
424,344,67897,1,4,0:0:0:0:
483,264,68231,1,4,0:0:0:0:
467,166,68564,1,4,0:0:0:0:
371,141,68897,2,0,L|394:89,2,55,0|0|0,0:0|0:0|0:0,0:0:0:0:
321,149,69397,1,4,0:0:0:0:
153,343,70397,5,0,0:0:0:0:
103,337,70564,2,0,B|58:303|58:303|37:235,2,110,4|4|4,0:0|0:0|0:0,0:0:0:0:
133,252,71564,1,4,0:0:0:0:
165,214,71730,2,0,L|235:205,2,55,8|8|8,0:0|0:0|0:0,0:0:0:0:
112,129,72397,1,2,0:0:0:0:
219,206,77397,5,4,0:0:0:0:
300,262,77731,2,0,P|349:283|401:270,1,110,10|2,0:0|0:0,0:0:0:0:
459,189,78397,1,10,0:0:0:0:
417,99,78731,5,2,0:0:0:0:
352,23,79064,2,0,B|296:15|296:15|230:41,1,110,2|2,0:0|0:0,0:0:0:0:
157,77,79731,1,4,0:0:0:0:
66,36,80064,2,0,L|57:90,1,55,4|4,0:0|0:0,0:0:0:0:
61,138,80397,6,0,P|97:179|150:187,1,110,0|0,0:0|0:0,0:0:0:0:
198,175,80897,1,0,0:0:0:0:
275,115,81231,2,0,P|329:105|375:133,1,110
430,214,81897,2,0,P|414:266|368:295,1,110
322,313,82397,2,0,L|313:258,2,55,0|0|0,0:0|0:0|0:0,0:0:0:0:
225,337,83064,6,0,B|169:341|169:341|113:302,1,110,0|0,0:0|0:0,0:0:0:0:
82,284,83564,1,0,0:0:0:0:
26,202,83897,1,0,0:0:0:0:
83,121,84231,1,0,0:0:0:0:
53,26,84564,2,0,B|110:38|110:38|178:22,1,110
209,20,85064,2,0,L|271:32,1,55
310,44,85397,5,4,0:0:0:0:
401,81,85731,2,0,B|442:119|442:119|450:172,1,110,10|2,0:0|0:0,0:0:0:0:
466,269,86397,1,10,0:0:0:0:
412,351,86731,5,2,0:0:0:0:
313,359,87064,2,0,B|257:366|257:366|209:341,1,110,10|2,0:0|0:0,0:0:0:0:
123,292,87731,1,4,0:0:0:0:
166,203,88064,5,4,0:0:0:0:
252,154,88397,1,2,0:0:0:0:
299,138,88564,2,0,P|351:128|410:78,1,110
427,56,89063,1,2,0:0:0:0:
336,9,89397,1,0,0:0:0:0:
294,35,89564,6,0,P|243:52|191:35,1,110,14|0,0:0|0:0,0:0:0:0:
141,38,90064,1,10,0:0:0:0:
47,70,90397,1,4,0:0:0:0:
20,165,90731,5,4,0:0:0:0:
36,262,91064,1,0,0:0:0:0:
68,299,91231,2,0,L|129:286,1,55,0|8,0:0|0:0,0:0:0:0:
170,277,91564,2,0,B|221:291|221:291|289:267,1,110,0|0,0:0|0:0,0:0:0:0:
320,253,92064,6,0,L|325:186,2,55,0|8|0,0:0|0:0|0:0,0:0:0:0:
396,315,92731,1,8,0:0:0:0:
475,255,93064,1,0,0:0:0:0:
428,167,93397,5,0,0:0:0:0:
480,83,93731,1,0,0:0:0:0:
446,45,93897,2,0,L|391:35,1,55,0|8,0:0|0:0,0:0:0:0:
343,44,94231,2,0,P|292:63|239:53,1,110
194,31,94731,6,0,L|139:38,2,55
179,129,95397,1,12,0:0:0:0:
244,203,95731,1,0,0:0:0:0:
328,150,96064,5,4,0:0:0:0:
374,237,96397,1,0,0:0:0:0:
393,282,96564,2,0,L|447:292,1,55,0|8,0:0|0:0,0:0:0:0:
471,249,96897,2,0,P|488:197|477:144,1,110
447,104,97397,6,0,L|473:55,2,55,0|8|0,0:0|0:0|0:0,0:0:0:0:
355,64,98064,1,8,0:0:0:0:
261,31,98397,1,0,0:0:0:0:
166,61,98731,5,0,0:0:0:0:
148,107,98897,2,0,P|91:103|48:70,1,110
29,27,99397,1,8,0:0:0:0:
17,174,99896,6,0,L|14:228,1,55
68,311,100397,1,0,0:0:0:0:
108,339,100564,2,0,L|163:331,1,55,0|12,0:0|0:0,0:0:0:0:
251,287,101064,1,8,0:0:0:0:
343,322,101397,5,4,0:0:0:0:
417,256,101731,1,10,0:0:0:0:
444,160,102064,2,0,L|504:194,2,55,2|2|2,0:0|0:0|0:0,0:0:0:0:
400,73,102731,5,2,0:0:0:0:
301,60,103064,2,0,P|248:71|199:49,1,110,2|2,0:0|0:0,0:0:0:0:
100,59,103731,1,2,0:0:0:0:
25,124,104064,5,2,0:0:0:0:
36,222,104397,1,2,0:0:0:0:
67,260,104564,2,0,B|176:250,1,110
216,220,105064,2,0,L|232:155,1,55,2|2,0:0|0:0,0:0:0:0:
271,141,105397,5,2,0:0:0:0:
329,220,105731,1,2,0:0:0:0:
349,265,105897,2,0,B|393:287|393:287|460:259,1,110,0|0,0:0|0:0,0:0:0:0:
480,224,106397,1,10,0:0:0:0:
478,125,106731,5,4,0:0:0:0:
443,31,107064,1,10,0:0:0:0:
351,68,107397,2,0,L|347:13,2,55,2|2|10,0:0|0:0|0:0,0:0:0:0:
257,102,108064,6,0,L|252:47,1,55,4|4,0:0|0:0,0:0:0:0:
10,101,109063,1,4,0:0:0:0:
19,201,109397,5,6,0:0:0:0:
47,291,109730,1,10,0:0:0:0:
76,330,109897,2,0,P|130:327|175:297,1,110,0|0,0:0|0:0,0:0:0:0:
205,257,110397,1,10,0:0:0:0:
294,215,110730,5,0,0:0:0:0:
374,272,111063,1,10,0:0:0:0:
418,293,111230,2,0,P|452:254|459:190,1,110,0|0,0:0|0:0,0:0:0:0:
454,149,111730,2,0,L|437:81,1,55,10|0,0:0|0:0,0:0:0:0:
423,48,112063,5,0,0:0:0:0:
326,26,112397,2,0,B|271:27|271:27|222:72,1,110,10|0,0:0|0:0,0:0:0:0:
221,163,113063,5,10,0:0:0:0:
196,204,113230,2,0,P|146:184|117:129,1,110
110,88,113730,2,0,P|74:46|25:23,2,110,10|0|12,0:0|0:0|0:0,0:0:0:0:
208,54,114730,5,4,0:0:0:0:
303,27,115063,1,10,0:0:0:0:
327,66,115230,2,0,P|391:117|472:115,1,165,0|10,0:0|0:0,0:0:0:0:
490,212,116063,5,0,0:0:0:0:
459,306,116397,1,10,0:0:0:0:
424,340,116563,2,0,P|369:340|326:307,1,110,0|0,0:0|0:0,0:0:0:0:
302,264,117063,1,10,0:0:0:0:
203,260,117396,5,0,0:0:0:0:
112,299,117730,1,10,0:0:0:0:
78,262,117896,2,0,B|48:217|48:217|66:143,1,110,0|0,0:0|0:0,0:0:0:0:
74,114,118396,1,10,0:0:0:0:
153,54,118730,6,0,L|87:10,2,55,4|0|10,0:0|0:0|0:0,0:0:0:0:
195,79,119230,2,0,B|256:88|256:88|376:52,1,165,4|14,0:0|0:0,0:0:0:0:
451,36,120063,5,4,0:0:0:0:
481,132,120396,1,10,0:0:0:0:
458,176,120563,2,0,P|403:178|352:159,1,110,0|0,0:0|0:0,0:0:0:0:
313,128,121063,1,10,0:0:0:0:
219,161,121396,5,0,0:0:0:0:
164,244,121730,1,10,0:0:0:0:
131,206,121896,2,0,P|106:157|104:102,1,110,0|0,0:0|0:0,0:0:0:0:
126,58,122396,1,10,0:0:0:0:
216,18,122730,5,0,0:0:0:0:
312,38,123063,2,0,L|421:45,1,110,10|0,0:0|0:0,0:0:0:0:
478,126,123730,1,10,0:0:0:0:
441,159,123896,2,0,L|331:151,1,110,0|0,0:0|0:0,0:0:0:0:
295,185,124396,2,0,L|178:179,1,110,10|10,0:0|0:0,0:0:0:0:
103,120,125063,1,4,0:0:0:0:
28,185,125396,6,0,L|6:134,2,55,4|0|0,0:0|0:0|0:0,0:0:0:0:
56,225,125896,1,4,0:0:0:0:
152,204,126230,1,4,0:0:0:0:
230,264,126563,1,4,0:0:0:0:
327,248,126896,1,4,0:0:0:0:
415,202,127230,2,0,L|478:200,2,55,2|2|2,0:0|0:0|0:0,0:0:0:0:
402,153,127730,1,4,0:0:0:0:
256,192,128063,12,0,130396,0:0:0:0:
401,153,135730,6,0,L|472:145,2,55,0|0|0,0:0|0:0|0:0,0:0:0:0:
302,162,136396,2,0,P|248:153|202:114,1,110
177,78,136896,1,4,0:0:0:0:
83,46,137230,1,4,0:0:0:0:
23,125,137563,2,0,L|30:179,1,55,4|2,0:0|0:0,0:0:0:0:
50,224,137896,2,0,B|102:226|102:226|151:278,1,110,4|0,0:0|0:0,0:0:0:0:
173,305,138396,5,4,0:0:0:0:
256,357,138730,1,2,0:0:0:0:
339,305,139063,1,0,0:0:0:0:
427,348,139396,1,2,0:0:0:0:
467,320,139563,6,0,B|487:266|487:266|472:215,1,110,4|0,0:0|0:0,0:0:0:0:
457,168,140063,1,2,0:0:0:0:
443,120,140230,2,0,B|392:134|392:134|338:114,1,110,0|2,0:0|0:0,0:0:0:0:
293,94,140730,2,0,B|239:74|239:74|188:88,1,110,10|2,0:0|0:0,0:0:0:0:
100,133,141396,1,10,0:0:0:0:
52,220,141730,5,2,0:0:0:0:
60,318,142063,1,2,0:0:0:0:
91,356,142230,2,0,B|145:357|145:357|189:323,1,110,4|0,0:0|0:0,0:0:0:0:
228,292,142730,1,2,0:0:0:0:
268,263,142896,2,0,B|321:247|321:247|371:268,1,110,0|2,0:0|0:0,0:0:0:0:
415,292,143396,1,4,0:0:0:0:
440,196,143730,6,0,B|496:230,2,55,4|0|8,0:0|0:0|0:0,0:0:0:0:
437,146,144230,1,4,0:0:0:0:
475,54,144563,1,4,0:0:0:0:
381,20,144896,1,4,0:0:0:0:
292,65,145230,6,0,L|234:46,2,55,2|2|4,0:0|0:0|0:0,0:0:0:0:
300,163,145896,2,0,L|358:182,2,55,2|2|2,0:0|0:0|0:0,0:0:0:0:
251,153,146396,2,0,L|196:161,1,55,2|2,0:0|0:0,0:0:0:0:
40,354,147396,5,2,0:0:0:0:
89,347,147563,2,0,B|144:341|144:341|179:299,2,110,4|4|4,0:0|0:0|0:0,0:0:0:0:
41,259,148563,2,0,B|22:207|22:207|44:156,1,110,2|2,0:0|0:0,0:0:0:0:
71,114,149063,5,6,0:0:0:0:
139,41,149396,1,10,0:0:0:0:
169,79,149563,2,0,P|222:84|272:61,1,110,0|0,0:0|0:0,0:0:0:0:
310,29,150063,1,10,0:0:0:0:
408,20,150396,1,0,0:0:0:0:
473,94,150730,1,10,0:0:0:0:
472,143,150896,6,0,P|422:158|361:139,1,110,0|0,0:0|0:0,0:0:0:0:
323,120,151396,2,0,L|268:116,1,55,10|0,0:0|0:0,0:0:0:0:
226,143,151730,1,0,0:0:0:0:
135,182,152063,2,0,B|88:154|88:154|22:169,1,110,10|0,0:0|0:0,0:0:0:0:
19,264,152730,5,10,0:0:0:0:
33,311,152896,2,0,B|85:327|85:327|137:311,1,110
181,286,153396,2,0,B|216:244|216:244|269:229,2,110,10|0|12,0:0|0:0|0:0,0:0:0:0:
272,324,154396,5,4,0:0:0:0:
356,272,154730,1,10,0:0:0:0:
382,230,154896,2,0,P|357:152|293:101,1,165,0|10,0:0|0:0,0:0:0:0:
202,63,155730,5,0,0:0:0:0:
113,106,156063,1,10,0:0:0:0:
83,145,156230,2,0,P|75:198|105:242,1,110,0|0,0:0|0:0,0:0:0:0:
145,271,156730,1,10,0:0:0:0:
217,338,157063,5,0,0:0:0:0:
305,292,157396,1,10,0:0:0:0:
345,320,157563,2,0,P|399:316|444:286,1,110,0|0,0:0|0:0,0:0:0:0:
463,240,158063,1,10,0:0:0:0:
404,159,158396,6,0,L|457:144,2,55,4|0|10,0:0|0:0|0:0,0:0:0:0:
355,167,158896,2,0,B|300:154|300:154|228:67,1,165,4|14,0:0|0:0,0:0:0:0:
149,12,159730,5,4,0:0:0:0:
60,52,160063,1,10,0:0:0:0:
52,100,160230,2,0,P|61:150|35:212,1,110,0|0,0:0|0:0,0:0:0:0:
23,250,160730,1,10,0:0:0:0:
43,346,161063,5,0,0:0:0:0:
138,371,161396,1,10,0:0:0:0:
186,374,161563,2,0,P|238:356|271:313,1,110,0|0,0:0|0:0,0:0:0:0:
284,265,162063,2,0,L|319:223,1,55,10|0,0:0|0:0,0:0:0:0:
364,202,162396,5,0,0:0:0:0:
450,246,162730,2,0,P|470:195|463:141,1,110,10|0,0:0|0:0,0:0:0:0:
423,50,163396,5,10,0:0:0:0:
377,29,163563,2,0,P|329:55|274:55,1,110
228,38,164063,2,0,P|173:28|122:46,2,110,10|0|12,0:0|0:0|0:0,0:0:0:0:
185,127,165063,5,4,0:0:0:0:
113,195,165396,1,10,0:0:0:0:
132,240,165563,2,0,P|171:276|285:282,1,165,0|10,0:0|0:0,0:0:0:0:
353,219,166396,5,0,0:0:0:0:
446,251,166730,1,10,0:0:0:0:
467,207,166896,2,0,P|483:154|473:100,1,110,0|0,0:0|0:0,0:0:0:0:
450,56,167396,1,10,0:0:0:0:
358,18,167730,5,0,0:0:0:0:
266,54,168063,1,10,0:0:0:0:
245,98,168229,2,0,P|192:118|123:98,1,110
101,78,168729,1,10,0:0:0:0:
11,120,169063,6,0,L|6:65,2,55,4|0|10,0:0|0:0|0:0,0:0:0:0:
19,170,169563,2,0,B|9:305,1,110,4|0,0:0|0:0,0:0:0:0:
48,311,170063,1,14,0:0:0:0:
145,294,170396,5,4,0:0:0:0:
241,318,170730,1,10,0:0:0:0:
289,323,170896,2,0,P|341:310|378:271,1,110
397,224,171396,1,10,0:0:0:0:
461,148,171730,5,0,0:0:0:0:
457,49,172063,1,10,0:0:0:0:
414,73,172230,2,0,P|365:97|310:96,1,110
263,81,172730,1,10,0:0:0:0:
161,65,173063,5,0,0:0:0:0:
107,148,173396,2,0,P|160:166|212:148,1,110,10|0,0:0|0:0,0:0:0:0:
308,151,174063,5,10,0:0:0:0:
337,190,174230,2,0,P|385:215|439:211,1,110
476,178,174730,2,0,P|479:123|454:75,1,110,10|10,0:0|0:0,0:0:0:0:
369,24,175396,1,4,0:0:0:0:
281,69,175730,6,0,L|270:-2,2,55,4|0|0,0:0|0:0|0:0,0:0:0:0:
239,96,176230,1,4,0:0:0:0:
143,69,176563,1,4,0:0:0:0:
59,121,176896,1,4,0:0:0:0:
44,218,177230,5,4,0:0:0:0:
112,289,177563,2,0,L|58:318,2,55,2|2|0,0:0|0:0|0:0,0:0:0:0:
158,306,178063,1,4,0:0:0:0:
254,325,178396,6,0,L|243:254,2,55,4|2|2,0:0|0:0|0:0,0:0:0:0:
300,343,178896,1,4,0:0:0:0:
375,278,179230,1,4,0:0:0:0:
469,306,179563,1,4,0:0:0:0:
488,209,179896,5,0,0:0:0:0:
401,160,180230,2,0,L|437:119,2,55,0|2|0,0:0|0:0|0:0,0:0:0:0:
351,157,180730,1,4,0:0:0:0:
256,192,181063,12,0,183896,0:0:0:0:
42,330,189063,5,2,0:0:0:0:
116,264,189396,1,8,0:0:0:0:
204,308,189730,1,2,0:0:0:0:
278,242,190063,1,8,0:0:0:0:
376,244,190396,6,0,L|363:190,2,55,4|0|10,0:0|0:0|0:0,0:0:0:0:
403,284,190896,2,0,P|462:228|473:148,1,165,4|8,0:0|0:0,0:0:0:0:
445,52,191730,5,4,0:0:0:0:
351,20,192063,1,8,0:0:0:0:
269,77,192396,1,2,0:0:0:0:
182,28,192730,2,0,B|126:19|126:19|76:38,1,110,8|2,0:0|0:0,0:0:0:0:
20,114,193396,1,8,0:0:0:0:
22,213,193730,5,2,0:0:0:0:
48,308,194063,2,0,B|104:317|104:317|153:297,1,110,8|2,0:0|0:0,0:0:0:0:
249,286,194730,1,8,0:0:0:0:
343,314,195063,1,2,0:0:0:0:
439,292,195396,2,0,B|473:252|473:252|468:194,1,110,8|2,0:0|0:0,0:0:0:0:
431,104,196063,1,10,0:0:0:0:
343,58,196396,6,0,L|359:5,2,55,10|0|12,0:0|0:0|0:0,0:0:0:0:
245,78,197063,2,0,B|207:81|207:81|188:113|188:113|155:125,1,110,4|8,0:0|0:0,0:0:0:0:
109,145,197563,5,4,0:0:0:0:
59,230,197896,1,4,0:0:0:0:
82,326,198230,1,4,0:0:0:0:
170,370,198563,1,4,0:0:0:0:
219,364,198730,6,0,B|268:354|268:354|302:304,1,110,10|2,0:0|0:0,0:0:0:0:
331,265,199230,2,0,L|384:254,2,55,2|2|2,0:0|0:0|0:0,0:0:0:0:
256,192,199730,12,0,204896,0:0:0:0:
