osu file format v14

[General]
AudioFilename: happily ever after.mp3
AudioLeadIn: 1500
PreviewTime: 50564
Countdown: 0
SampleSet: Soft
StackLeniency: 0.7
Mode: 0
LetterboxInBreaks: 0
WidescreenStoryboard: 0

[Editor]
Bookmarks: 14064,19064,27064,32397,43064,61731,67064,72397,77397,85397,90731,101397,120064,125397,127731,138397,170397,175731,181064,186064,191397,197064
DistanceSpacing: 1.2
BeatDivisor: 4
GridSize: 32
TimelineZoom: 1.7

[Metadata]
Title:happily ever after
TitleUnicode:happily ever after
Artist:Nakagawa Shouko
ArtistUnicode:中川翔子
Creator:smallboat
Version:Hard
Source:Tengen Toppa Gurren Lagann
Tags:天元突破グレンラガン Shokotan best sound meg rock GAINAX tokyo hot blood robot fight final universe super drill anime Simon Kamina Yoko baldrace Tsukuyomi
BeatmapID:582519
BeatmapSetID:253823

[Difficulty]
HPDrainRate:5
CircleSize:3.5
OverallDifficulty:6.5
ApproachRate:7.5
SliderMultiplier:1.4
SliderTickRate:1

[Events]
//Background and Video events
0,0,"bg.jpg",0,0
//Break Periods
2,14097,18072
2,72597,76406
2,130596,134905
2,184096,188238
//Storyboard Layer 0 (Background)
//Storyboard Layer 1 (Fail)
//Storyboard Layer 2 (Pass)
//Storyboard Layer 3 (Foreground)
//Storyboard Sound Samples

[TimingPoints]
398,333.333333333333,4,2,3,70,1,0
4231,-100,4,2,2,70,0,0
4397,-100,4,2,1,55,0,0
5397,-100,4,2,3,40,0,0
5564,-100,4,2,1,70,0,0
6897,-100,4,2,2,70,0,0
7064,-100,4,2,1,70,0,0
9564,-100,4,2,2,70,0,0
9731,-100,4,2,1,65,0,0
10731,-100,4,2,3,50,0,0
10814,-100,4,2,2,50,0,0
11564,-100,4,2,2,75,0,0
12397,-100,4,2,2,50,0,0
12897,-100,4,2,2,50,0,0
13064,-100,4,2,1,50,0,0
13397,-100,4,2,3,60,0,0
13731,-100,4,2,2,55,0,0
14064,-111.111111111111,4,2,1,45,0,0
19064,-100,4,2,2,80,0,0
19231,-100,4,2,3,80,0,0
21397,-100,4,2,3,60,0,0
21564,-100,4,2,1,60,0,0
21731,-111.111111111111,4,2,2,60,0,0
22064,-111.111111111111,4,2,1,50,0,0
24231,-111.111111111111,4,2,2,55,0,0
24731,-111.111111111111,4,2,1,55,0,0
27064,-100,4,2,2,80,0,0
27231,-100,4,2,3,70,0,0
29397,-100,4,2,3,35,0,0
29564,-100,4,2,1,70,0,0
29731,-100,4,2,1,80,0,0
29897,-100,4,2,3,75,0,0
32064,-100,4,2,2,70,0,0
32397,-111.111111111111,4,2,2,40,0,0
37064,-111.111111111111,4,2,3,35,0,0
37231,-111.111111111111,4,2,1,50,0,0
37731,-111.111111111111,4,2,1,50,0,0
37897,-111.111111111111,4,2,2,55,0,0
42397,-111.111111111111,4,2,3,35,0,0
42564,-111.111111111111,4,2,2,70,0,0
43064,-100,4,2,1,60,0,0
43231,-100,4,2,3,70,0,0
48397,-100,4,2,1,60,0,0
48564,-100,4,2,3,75,0,0
49731,-100,4,2,1,60,0,0
50564,-125,4,2,1,45,0,0
50731,-125,4,2,1,50,0,0
51064,-90.9090909090909,4,2,1,70,0,1
51231,-90.9090909090909,4,2,2,75,0,1
56064,-90.9090909090909,4,2,3,45,0,1
56231,-90.9090909090909,4,2,2,70,0,1
56397,-90.9090909090909,4,2,1,60,0,1
56564,-90.9090909090909,4,2,2,70,0,1
60897,-90.9090909090909,4,2,2,55,0,1
61481,-90.9090909090909,4,2,3,70,0,1
61731,-90.9090909090909,4,2,1,70,0,1
61897,-90.9090909090909,4,2,2,70,0,1
66731,-90.9090909090909,4,2,3,45,0,1
67064,-100,4,2,1,60,0,0
67564,-100,4,2,2,60,0,0
68731,-100,4,2,3,30,0,0
68897,-100,4,2,1,70,0,0
69397,333.333333333333,4,2,2,55,1,0
70397,-100,4,2,2,55,0,0
71730,-100,4,2,1,40,0,0
72397,-100,4,2,1,35,0,0
77396,-100,4,2,2,80,0,0
77563,-100,4,2,3,80,0,0
79730,-100,4,2,3,40,0,0
79896,-100,4,2,1,60,0,0
80063,-100,4,2,2,45,0,0
80396,-111.111111111111,4,2,1,45,0,0
82230,-111.111111111111,4,2,1,45,0,0
85396,-100,4,2,2,70,0,0
85563,-100,4,2,3,70,0,0
87730,-100,4,2,3,70,0,0
87896,-100,4,2,1,70,0,0
88063,-100,4,2,1,80,0,0
88230,-100,4,2,3,75,0,0
89563,-100,4,2,2,70,0,0
89730,-100,4,2,3,75,0,0
90396,-100,4,2,2,70,0,0
90563,-100,4,2,3,75,0,0
90730,-111.111111111111,4,2,2,40,0,0
95396,-111.111111111111,4,2,3,30,0,0
95563,-111.111111111111,4,2,1,50,0,0
96063,-111.111111111111,4,2,1,50,0,0
96230,-111.111111111111,4,2,2,55,0,0
100730,-111.111111111111,4,2,3,35,0,0
100896,-111.111111111111,4,2,2,70,0,0
101396,-100,4,2,1,60,0,0
101563,-100,4,2,3,60,0,0
106730,-100,4,2,1,60,0,0
106896,-100,4,2,3,75,0,0
108063,-100,4,2,1,60,0,0
108896,-125,4,2,1,45,0,0
109396,-90.9090909090909,4,2,1,70,0,1
109563,-90.9090909090909,4,2,2,75,0,1
114396,-90.9090909090909,4,2,3,45,0,1
114563,-90.9090909090909,4,2,2,70,0,1
114730,-90.9090909090909,4,2,1,60,0,1
114896,-90.9090909090909,4,2,2,70,0,1
118730,-90.9090909090909,4,2,2,70,0,1
119230,-90.9090909090909,4,2,2,50,0,1
119813,-90.9090909090909,4,2,3,70,0,1
120063,-90.9090909090909,4,2,1,70,0,1
120230,-90.9090909090909,4,2,2,70,0,1
125063,-90.9090909090909,4,2,3,45,0,1
125396,-100,4,2,1,60,0,0
125896,-100,4,2,2,55,0,0
126896,-100,4,2,3,30,0,0
127063,-100,4,2,3,70,0,0
127730,333.333333333333,4,2,2,60,1,0
128396,-100,4,2,2,90,0,0
136896,-100,4,2,2,45,0,0
137896,-100,4,2,2,70,0,0
138063,-100,4,2,1,70,0,0
138563,-100,4,2,3,70,0,0
139563,-100,4,2,2,55,0,0
139730,-100,4,2,3,70,0,0
142229,-100,4,2,1,60,0,0
142396,-100,4,2,3,70,0,0
143396,-100,4,2,3,35,0,0
143563,-100,4,2,1,70,0,0
143729,-100,4,2,1,50,0,0
143896,-100,4,2,1,70,0,0
144229,-100,4,2,2,70,0,0
144896,-100,4,2,3,35,0,0
145063,-100,4,2,1,70,0,0
145229,-100,4,2,3,60,0,0
147396,-100,4,2,2,50,0,0
148563,-125,4,2,1,40,0,0
148729,-125,4,2,1,45,0,0
149063,-90.9090909090909,4,2,1,70,0,1
149229,-90.9090909090909,4,2,2,75,0,1
154063,-90.9090909090909,4,2,3,45,0,1
154229,-90.9090909090909,4,2,2,70,0,1
154396,-90.9090909090909,4,2,1,70,0,1
154563,-90.9090909090909,4,2,2,70,0,1
158896,-90.9090909090909,4,2,2,50,0,1
159479,-90.9090909090909,4,2,3,70,0,1
159729,-90.9090909090909,4,2,1,70,0,1
159896,-90.9090909090909,4,2,2,70,0,1
164729,-90.9090909090909,4,2,3,50,0,1
164896,-90.9090909090909,4,2,2,70,0,1
165063,-90.9090909090909,4,2,1,60,0,1
165229,-90.9090909090909,4,2,2,70,0,1
169063,-90.9090909090909,4,2,2,50,0,1
169563,-90.9090909090909,4,2,2,50,0,1
170146,-90.9090909090909,4,2,3,70,0,1
170396,-90.9090909090909,4,2,1,70,0,1
170563,-90.9090909090909,4,2,2,80,0,1
175396,-90.9090909090909,4,2,3,50,0,1
175729,-100,4,2,1,55,0,0
176229,-100,4,2,2,60,0,0
177396,-100,4,2,3,60,0,0
177896,-100,4,2,1,70,0,0
178063,-100,4,2,3,30,0,0
178229,-100,4,2,1,30,0,0
178396,-100,4,2,2,60,0,0
178563,-100,4,2,3,70,0,0
178896,-100,4,2,2,50,0,0
179563,-100,4,2,1,50,0,0
179729,-100,4,2,3,70,0,0
180729,-100,4,2,2,50,0,0
180896,-100,4,2,1,55,0,0
181063,-100,4,2,3,70,0,0
184063,-100,4,2,3,60,0,0
186563,-100,4,2,3,65,0,0
190396,-100,4,2,2,75,0,0
190896,-100,4,2,3,30,0,0
191396,-100,4,2,3,65,0,0
191729,-100,4,2,3,75,0,0
196729,-100,4,2,3,40,0,0
197063,-100,4,2,1,80,0,0
197563,-100,4,2,2,50,0,0
198896,-100,4,2,3,50,0,0
199729,-100,4,2,1,20,0,0
202896,-100,4,2,1,5,0,0
203063,-100,4,2,2,55,0,0
203896,-100,4,2,1,50,0,0
203979,-100,4,2,1,5,0,0

[Colours]
Combo1 : 0,130,191
Combo2 : 255,117,51
Combo3 : 221,0,0
Combo4 : 0,87,87

[HitObjects]
163,353,398,5,2,0:0:0:0:
106,301,564,2,0,B|100:222,1,70,2|0,0:0|0:0,0:0:0:0:
65,162,897,1,0,0:0:0:0:
65,162,1231,5,0,0:0:0:0:
22,98,1397,1,2,0:0:0:0:
95,19,1564,2,0,B|101:98,1,70,2|0,0:0|0:0,0:0:0:0:
141,153,1897,1,2,0:0:0:0:
257,51,2231,1,2,0:0:0:0:
371,153,2564,1,0,0:0:0:0:
444,177,2731,1,2,0:0:0:0:
444,177,2814,1,2,0:0:0:0:
444,177,2897,6,0,L|460:253,1,70,2|0,0:0|0:0,0:0:0:0:
447,322,3231,1,2,0:0:0:0:
447,322,3564,1,2,0:0:0:0:
295,296,3897,1,0,0:0:0:0:
381,229,4064,1,10,0:0:0:0:
381,229,4231,6,0,L|242:207,1,140,4|0,0:0|0:0,0:0:0:0:
218,134,4731,2,0,L|234:65,1,70,8|0,0:0|0:0,0:0:0:0:
161,41,5064,2,0,L|144:109,1,70,8|0,0:0|0:0,0:0:0:0:
157,184,5397,2,0,L|163:268,1,70,12|0,0:0|0:0,0:0:0:0:
102,311,5731,6,0,L|22:282,1,70,4|0,0:0|0:0,0:0:0:0:
16,212,6064,2,0,B|65:164|65:164|67:82,1,140,8|0,0:0|0:0,0:0:0:0:
86,18,6564,1,0,0:0:0:0:
161,41,6731,1,8,0:0:0:0:
235,23,6897,6,0,B|284:52|284:52|365:35,1,140,4|0,0:0|0:0,0:0:0:0:
438,58,7397,2,0,L|459:124,1,70,8|0,0:0|0:0,0:0:0:0:
482,198,7731,1,0,0:0:0:0:
444,264,7897,1,0,0:0:0:0:
461,339,8064,2,0,L|381:345,1,70,8|0,0:0|0:0,0:0:0:0:
329,297,8397,5,0,0:0:0:0:
254,317,8564,1,0,0:0:0:0:
237,241,8731,2,0,B|306:219|306:219|339:160,1,140,8|0,0:0|0:0,0:0:0:0:
320,85,9231,1,0,0:0:0:0:
256,41,9397,1,8,0:0:0:0:
171,107,9564,6,0,B|105:113|105:113|71:45,1,140,4|0,0:0|0:0,0:0:0:0:
14,107,10064,2,0,L|19:200,1,70,8|0,0:0|0:0,0:0:0:0:
13,253,10397,1,0,0:0:0:0:
66,308,10564,1,0,0:0:0:0:
142,296,10731,2,0,L|187:314,3,35,4|0|0|0,0:0|0:0|0:0|0:0,0:0:0:0:
211,297,11064,6,0,B|237:228,1,70,4|4,0:0|0:0,0:0:0:0:
324,209,11397,1,8,0:0:0:0:
400,258,11564,1,4,0:0:0:0:
486,98,11897,1,4,0:0:0:0:
315,32,12231,2,0,B|323:106,1,70,4|0,0:0|0:0,0:0:0:0:
247,153,12564,1,4,0:0:0:0:
174,97,12731,1,8,0:0:0:0:
73,24,12897,6,0,B|65:107,1,70,4|0,0:0|0:0,0:0:0:0:
26,160,13231,1,8,0:0:0:0:
36,236,13397,1,2,0:0:0:0:
85,295,13564,2,2,L|109:264,2,35,0|2|4,0:0|0:0|0:0,0:0:0:0:
154,329,13897,1,4,0:0:0:0:
164,190,18897,5,0,0:0:0:0:
164,190,18981,1,0,0:0:0:0:
164,190,19064,2,0,L|172:259,1,70,4|0,0:0|0:0,0:0:0:0:
231,318,19397,2,0,B|301:304|301:304|346:252,1,140,10|2,0:0|0:0,0:0:0:0:
423,219,19897,1,2,0:0:0:0:
469,148,20064,2,0,L|453:76,1,70,10|0,0:0|0:0,0:0:0:0:
357,28,20397,6,0,L|373:100,1,70
293,126,20731,2,0,B|239:136|239:136|172:83,1,140,2|2,0:0|0:0,0:0:0:0:
131,9,21231,1,2,0:0:0:0:
29,68,21397,6,0,L|35:152,1,70,12|0,0:0|0:0,0:0:0:0:
135,191,21731,1,4,0:0:0:0:
85,294,21897,1,4,0:0:0:0:
160,314,22064,6,0,P|221:311|267:269,1,125.999996154785,2|2,0:0|0:0,0:0:0:0:
302,202,22564,2,0,P|331:195|382:216,1,62.9999980773926,2|0,0:0|0:0,0:0:0:0:
424,246,22897,2,0,P|466:200|478:139,1,125.999996154785,2|2,0:0|0:0,0:0:0:0:
471,64,23397,1,0,0:0:0:0:
401,32,23564,2,0,P|340:47|282:26,1,125.999996154785,2|2,0:0|0:0,0:0:0:0:
208,41,24064,1,2,0:0:0:0:
133,27,24231,5,4,0:0:0:0:
10,154,24564,1,4,0:0:0:0:
48,217,24731,6,0,P|108:233|163:205,1,125.999996154785,2|2,0:0|0:0,0:0:0:0:
209,146,25231,2,0,P|239:136|270:139,1,62.9999980773926,2|0,0:0|0:0,0:0:0:0:
317,198,25564,2,0,P|335:223|362:239,1,62.9999980773926,2|0,0:0|0:0,0:0:0:0:
437,246,25897,2,0,P|462:227|478:200,1,62.9999980773926,2|0,0:0|0:0,0:0:0:0:
475,124,26231,2,0,P|416:107|378:58,1,125.999996154785,2|2,0:0|0:0,0:0:0:0:
314,18,26731,1,2,0:0:0:0:
239,30,26897,1,10,0:0:0:0:
153,85,27064,6,0,L|83:75,1,70,4|0,0:0|0:0,0:0:0:0:
43,149,27397,2,0,B|181:166,1,140,2|2,0:0|0:0,0:0:0:0:
251,213,27897,1,2,0:0:0:0:
315,266,28064,2,0,L|331:334,1,70,10|0,0:0|0:0,0:0:0:0:
444,352,28397,6,0,L|427:283,1,70
436,199,28731,2,0,B|467:152|467:152|441:73,1,140,2|2,0:0|0:0,0:0:0:0:
367,32,29231,1,2,0:0:0:0:
279,92,29397,2,0,L|209:82,1,70,4|0,0:0|0:0,0:0:0:0:
87,131,29731,6,0,L|156:140,1,70,4|0,0:0|0:0,0:0:0:0:
223,189,30064,1,2,0:0:0:0:
272,70,30231,2,0,L|177:61,1,70
125,28,30564,1,2,0:0:0:0:
40,30,30731,2,0,L|12:94,1,70,2|0,0:0|0:0,0:0:0:0:
16,177,31064,6,0,P|43:241|99:281,1,140,2|2,0:0|0:0,0:0:0:0:
180,255,31564,1,2,0:0:0:0:
252,297,31731,2,0,L|321:288,1,70,2|0,0:0|0:0,0:0:0:0:
379,227,32064,2,0,L|448:218,1,70,12|0,0:0|0:0,0:0:0:0:
490,134,32397,5,4,0:0:0:0:
490,134,32731,1,0,0:0:0:0:
455,66,32897,2,0,P|423:66|393:57,1,62.9999980773926,0|8,0:0|0:0,0:0:0:0:
324,24,33231,2,0,P|292:23|262:32,1,62.9999980773926
196,69,33564,1,0,0:0:0:0:
131,109,33731,6,0,L|68:116,1,62.9999980773926,0|8,0:0|0:0,0:0:0:0:
25,178,34064,1,0,0:0:0:0:
25,178,34397,2,0,L|32:240,1,62.9999980773926,8|0,0:0|0:0,0:0:0:0:
117,295,34731,2,0,L|109:232,1,62.9999980773926
163,180,35064,6,0,P|223:160|284:170,1,125.999996154785
359,185,35564,2,0,P|391:184|419:171,1,62.9999980773926,0|8,0:0|0:0,0:0:0:0:
478,125,35897,2,0,P|468:95|448:70,1,62.9999980773926,0|0,0:0|0:0,0:0:0:0:
381,34,36231,1,0,0:0:0:0:
277,80,36397,6,0,L|225:42,1,62.9999980773926,0|0,0:0|0:0,0:0:0:0:
151,27,36731,1,0,0:0:0:0:
151,27,37064,2,0,L|89:40,1,62.9999980773926,12|0,0:0|0:0,0:0:0:0:
23,131,37397,2,0,L|84:117,1,62.9999980773926
155,143,37731,6,0,P|217:148|269:182,1,125.999996154785,4|0,0:0|0:0,0:0:0:0:
342,200,38231,2,0,L|404:189,1,62.9999980773926,0|8,0:0|0:0,0:0:0:0:
474,259,38564,2,0,L|411:269,1,62.9999980773926
363,326,38897,1,0,0:0:0:0:
278,359,39064,6,0,L|215:349,1,62.9999980773926,0|8,0:0|0:0,0:0:0:0:
158,299,39397,1,0,0:0:0:0:
158,299,39731,2,0,L|95:289,1,62.9999980773926,8|0,0:0|0:0,0:0:0:0:
35,202,40064,2,0,L|97:211,1,62.9999980773926,0|0,0:0|0:0,0:0:0:0:
168,186,40397,5,0,0:0:0:0:
51,126,40564,2,0,P|76:69|131:42,1,125.999996154785
196,81,41064,2,0,P|256:91|309:59,1,125.999996154785,8|0,0:0|0:0,0:0:0:0:
379,89,41564,1,0,0:0:0:0:
433,142,41731,6,0,P|380:174|318:172,1,125.999996154785
248,201,42231,2,0,L|256:263,1,62.9999980773926,0|12,0:0|0:0,0:0:0:0:
226,333,42564,1,0,0:0:0:0:
154,356,42731,2,0,L|145:293,1,62.9999980773926,8|0,0:0|0:0,0:0:0:0:
121,212,43064,5,4,0:0:0:0:
38,195,43231,1,0,0:0:0:0:
21,112,43397,2,0,L|18:42,1,70,10|0,0:0|0:0,0:0:0:0:
97,11,43731,2,0,L|99:80,1,70,2|2,0:0|0:0,0:0:0:0:
179,106,44064,1,2,0:0:0:0:
255,70,44231,1,2,0:0:0:0:
255,70,44314,1,2,0:0:0:0:
255,70,44397,6,0,L|323:58,1,70,2|2,0:0|0:0,0:0:0:0:
435,76,44731,2,0,B|409:122|409:122|319:140,1,140,2|2,0:0|0:0,0:0:0:0:
244,168,45231,1,2,0:0:0:0:
165,195,45397,1,2,0:0:0:0:
108,257,45564,1,0,0:0:0:0:
108,341,45731,6,0,P|141:332|169:311,1,70,2|0,0:0|0:0,0:0:0:0:
228,251,46064,1,2,0:0:0:0:
311,261,46231,2,0,P|296:293|263:326,2,70,0|2|2,0:0|0:0|0:0,0:0:0:0:
368,199,46731,2,0,P|403:197|434:182,1,70,2|2,0:0|0:0,0:0:0:0:
487,117,47064,6,0,L|476:40,1,70,2|0,0:0|0:0,0:0:0:0:
400,12,47397,1,2,0:0:0:0:
328,56,47564,2,0,L|337:125,2,70,0|2|0,0:0|0:0|0:0,0:0:0:0:
250,24,48064,1,10,0:0:0:0:
172,57,48231,1,2,0:0:0:0:
172,57,48314,1,2,0:0:0:0:
172,57,48397,6,0,L|104:40,1,70,4|0,0:0|0:0,0:0:0:0:
13,96,48731,2,0,L|80:112,1,70,10|0,0:0|0:0,0:0:0:0:
120,187,49064,1,2,0:0:0:0:
200,163,49231,1,2,0:0:0:0:
271,205,49397,2,0,L|338:221,1,70,10|0,0:0|0:0,0:0:0:0:
402,277,49731,5,4,0:0:0:0:
474,192,49897,1,4,0:0:0:0:
456,81,50064,1,0,0:0:0:0:
359,24,50231,2,0,L|352:111,1,70,2|0,0:0|0:0,0:0:0:0:
289,152,50564,6,0,L|271:205,2,56,2|4|2,0:0|0:0|0:0,0:0:0:0:
232,77,51064,6,0,P|194:71|162:50,1,77.0000023498536,6|0,0:0|0:0,0:0:0:0:
78,57,51397,1,10,0:0:0:0:
25,123,51564,2,0,P|87:164|163:157,1,154.000004699707,0|0,0:0|0:0,0:0:0:0:
229,210,52064,2,0,L|211:310,1,77.0000023498536,10|0,0:0|0:0,0:0:0:0:
259,358,52397,5,0,0:0:0:0:
337,324,52564,1,0,0:0:0:0:
418,347,52731,1,10,0:0:0:0:
480,290,52897,2,0,P|486:215|441:155,1,154.000004699707,0|0,0:0|0:0,0:0:0:0:
366,112,53397,1,10,0:0:0:0:
285,137,53564,1,0,0:0:0:0:
200,139,53731,6,0,L|193:62,1,77.0000023498536
122,109,54064,2,0,L|115:32,1,77.0000023498536,10|0,0:0|0:0,0:0:0:0:
45,81,54397,2,0,L|38:4,1,77.0000023498536
63,157,54731,1,10,0:0:0:0:
125,214,54897,6,0,P|93:235|56:243,2,77.0000023498536,0|0|0,0:0|0:0|0:0,0:0:0:0:
207,233,55397,2,0,P|278:255|348:227,1,154.000004699707,10|0,0:0|0:0,0:0:0:0:
411,170,55897,1,0,0:0:0:0:
467,106,56064,2,0,L|451:30,1,77.0000023498536,12|0,0:0|0:0,0:0:0:0:
347,57,56397,6,0,P|308:57|273:42,1,77.0000023498536,4|0,0:0|0:0,0:0:0:0:
206,94,56731,1,10,0:0:0:0:
132,137,56897,2,0,P|60:122|30:54,1,154.000004699707,0|0,0:0|0:0,0:0:0:0:
17,185,57397,2,0,L|25:261,1,77.0000023498536,10|0,0:0|0:0,0:0:0:0:
105,292,57731,6,0,L|97:215,2,77.0000023498536,0|0|10,0:0|0:0|0:0,0:0:0:0:
174,339,58231,2,0,P|247:355|308:311,1,154.000004699707,0|0,0:0|0:0,0:0:0:0:
345,235,58731,2,0,P|376:256|393:290,1,77.0000023498536,10|0,0:0|0:0,0:0:0:0:
483,235,59064,6,0,L|490:158,1,77.0000023498536
483,73,59397,1,10,0:0:0:0:
402,43,59564,2,0,P|343:88|267:83,1,154.000004699707,0|0,0:0|0:0,0:0:0:0:
197,36,60064,2,0,P|159:28|121:35,1,77.0000023498536,10|0,0:0|0:0,0:0:0:0:
49,80,60397,5,4,0:0:0:0:
20,159,60564,1,0,0:0:0:0:
87,210,60731,1,10,0:0:0:0:
64,306,60897,2,0,B|120:310|120:310|199:239,1,154.000004699707,4|0,0:0|0:0,0:0:0:0:
277,244,61397,1,14,0:0:0:0:
341,298,61564,1,2,0:0:0:0:
386,303,61647,1,2,0:0:0:0:
425,293,61731,6,0,P|455:269|471:220,1,77.0000023498536,4|0,0:0|0:0,0:0:0:0:
483,150,62064,1,10,0:0:0:0:
445,73,62231,2,0,P|372:90|302:60,1,154.000004699707,0|0,0:0|0:0,0:0:0:0:
228,18,62731,2,0,L|151:29,1,77.0000023498536,10|0,0:0|0:0,0:0:0:0:
74,65,63064,5,0,0:0:0:0:
26,135,63231,1,0,0:0:0:0:
81,198,63397,1,10,0:0:0:0:
48,276,63564,2,0,P|117:304|188:278,1,154.000004699707,0|0,0:0|0:0,3:0:0:0:
255,226,64064,1,10,0:0:0:0:
334,256,64231,1,0,0:0:0:0:
400,327,64397,6,0,L|476:319,1,77.0000023498536
439,170,64731,2,0,L|362:177,1,77.0000023498536,10|0,0:0|0:0,0:0:0:0:
334,256,65064,2,0,L|410:248,1,77.0000023498536
494,232,65397,1,10,0:0:0:0:
480,89,65564,6,0,L|326:103,1,154.000004699707
270,166,66064,1,10,0:0:0:0:
207,222,66231,2,0,P|132:237|66:202,1,154.000004699707
24,128,66731,2,0,L|21:51,1,77.0000023498536,4|0,0:0|0:0,0:0:0:0:
92,22,67064,5,4,0:0:0:0:
176,72,67231,1,0,0:0:0:0:
259,20,67397,1,0,0:0:0:0:
344,69,67564,6,0,L|413:61,1,70,4|0,0:0|0:0,0:0:0:0:
476,136,67897,2,0,L|406:143,1,70,4|0,0:0|0:0,0:0:0:0:
359,230,68231,2,0,L|428:222,1,70,4|0,0:0|0:0,0:0:0:0:
498,291,68564,1,4,0:0:0:0:
408,332,68731,2,0,P|425:363|466:383,2,70,4|0|0,0:0|0:0|0:0,0:0:0:0:
313,305,69231,1,0,0:0:0:0:
220,338,69397,1,4,0:0:0:0:
44,47,70397,5,0,0:0:0:0:
27,122,70564,2,0,B|20:191,1,70,4|0,0:0|0:0,0:0:0:0:
90,270,70897,2,0,B|97:201,1,70,4|0,0:0|0:0,0:0:0:0:
179,149,71231,2,0,B|172:218,1,70,4|0,0:0|0:0,0:0:0:0:
226,277,71564,1,4,0:0:0:0:
298,250,71731,5,8,0:0:0:0:
318,176,71897,1,8,0:0:0:0:
254,130,72064,2,0,P|279:105|313:98,2,70,8|8|2,0:0|0:0|0:0,0:0:0:0:
422,273,77231,5,0,0:0:0:0:
422,273,77314,1,0,0:0:0:0:
422,273,77397,2,0,L|417:202,1,70,4|0,0:0|0:0,0:0:0:0:
398,126,77731,2,0,P|350:78|282:69,1,140,10|2,0:0|0:0,0:0:0:0:
211,99,78231,1,2,0:0:0:0:
143,135,78397,2,0,L|73:129,1,70,10|0,0:0|0:0,0:0:0:0:
20,206,78731,6,0,L|89:211,1,70,2|0,0:0|0:0,0:0:0:0:
176,292,79064,2,0,L|36:283,1,140,2|2,0:0|0:0,0:0:0:0:
7,361,79564,1,2,0:0:0:0:
112,366,79731,6,0,L|208:370,1,70,4|0,0:0|0:0,0:0:0:0:
262,290,80064,1,4,0:0:0:0:
359,346,80231,1,4,0:0:0:0:
432,312,80397,6,0,P|478:270|499:211,1,125.999996154785
476,133,80897,2,0,L|453:74,1,62.9999980773926
391,30,81231,2,0,P|329:23|274:53,1,125.999996154785
238,130,81731,1,0,0:0:0:0:
320,96,81897,6,0,P|276:52|214:45,1,125.999996154785
144,88,82397,1,0,0:0:0:0:
62,77,82564,2,0,P|32:123|28:194,1,125.999996154785
58,263,83064,6,0,P|108:300|169:293,1,125.999996154785,0|0,0:0|0:0,0:0:0:0:
228,245,83564,2,0,P|256:230|287:227,1,62.9999980773926
386,274,83897,2,0,P|357:288|326:291,1,62.9999980773926
359,205,84231,2,0,P|373:176|376:145,1,62.9999980773926,0|0,0:0|0:0,0:0:0:0:
388,70,84564,2,0,P|332:68|260:25,1,125.999996154785
195,35,85064,1,0,0:0:0:0:
123,59,85231,1,0,0:0:0:0:
32,121,85397,6,0,L|23:190,1,70,4|0,0:0|0:0,0:0:0:0:
16,274,85731,2,0,B|49:348|49:348|105:365,1,140,10|2,0:0|0:0,0:0:0:0:
179,325,86231,1,2,0:0:0:0:
261,339,86397,2,0,L|247:270,1,70,10|0,0:0|0:0,0:0:0:0:
161,177,86731,6,0,L|174:245,1,70,2|0,0:0|0:0,0:0:0:0:
322,253,87064,2,0,P|336:203|291:130,1,140,10|2,0:0|0:0,0:0:0:0:
212,108,87564,1,2,0:0:0:0:
122,111,87731,2,0,L|52:101,1,70,4|0,0:0|0:0,0:0:0:0:
17,20,88064,6,0,L|86:29,1,70,4|0,0:0|0:0,0:0:0:0:
170,21,88397,1,2,0:0:0:0:
253,16,88564,2,0,L|322:25,1,70,0|2,0:0|0:0,0:0:0:0:
400,57,88897,1,0,0:0:0:0:
459,116,89064,2,0,L|468:185,1,70,2|0,0:0|0:0,0:0:0:0:
418,278,89397,2,0,P|368:239|359:160,1,140
304,100,89897,1,0,0:0:0:0:
225,131,90064,2,0,L|155:141,1,70,10|2,0:0|0:0,0:0:0:0:
49,220,90397,2,0,L|118:209,1,70,4|2,0:0|0:0,0:0:0:0:
176,258,90731,5,4,0:0:0:0:
176,258,91064,1,0,0:0:0:0:
225,315,91231,2,0,L|287:304,1,62.9999980773926,0|8,0:0|0:0,0:0:0:0:
416,326,91564,2,0,L|354:337,1,62.9999980773926
347,261,91897,1,0,0:0:0:0:
408,217,92064,6,0,L|419:131,1,62.9999980773926,0|8,0:0|0:0,0:0:0:0:
470,101,92397,1,0,0:0:0:0:
470,101,92731,2,0,L|477:38,1,62.9999980773926,8|0,0:0|0:0,0:0:0:0:
404,0,93064,2,0,L|396:62,1,62.9999980773926,0|0,0:0|0:0,0:0:0:0:
330,98,93396,6,0,P|273:123|212:110,1,125.999996154785
137,88,93897,2,0,L|141:25,1,62.9999980773926,0|8,0:0|0:0,0:0:0:0:
63,39,94231,2,0,L|58:101,1,62.9999980773926
19,167,94564,1,0,0:0:0:0:
53,234,94731,6,0,L|114:247,1,62.9999980773926,0|0,0:0|0:0,0:0:0:0:
148,315,95064,1,0,0:0:0:0:
148,315,95397,2,0,L|209:328,1,62.9999980773926,12|0,0:0|0:0,0:0:0:0:
364,315,95731,2,0,L|302:328,1,62.9999980773926,0|0,0:0|0:0,0:0:0:0:
256,268,96063,6,0,L|256:141,1,125.999996154785,4|0,0:0|0:0,0:0:0:0:
300,73,96564,2,0,P|331:69|359:55,1,62.9999980773926,0|8,0:0|0:0,0:0:0:0:
212,73,96897,2,0,P|180:69|152:55,1,62.9999980773926
77,46,97231,1,0,0:0:0:0:
31,106,97397,6,0,L|22:168,1,62.9999980773926,0|8,0:0|0:0,0:0:0:0:
39,242,97731,1,0,0:0:0:0:
39,242,98064,2,0,L|30:304,1,62.9999980773926,8|0,0:0|0:0,0:0:0:0:
100,358,98397,2,0,L|108:295,1,62.9999980773926,0|0,0:0|0:0,0:0:0:0:
156,236,98731,5,0,0:0:0:0:
223,270,98897,2,0,B|279:279|279:279|352:224,1,125.999996154785
391,188,99397,2,0,B|447:179|447:179|490:233,1,125.999996154785,8|0,0:0|0:0,0:0:0:0:
454,300,99897,1,0,0:0:0:0:
335,237,100064,6,0,P|317:178|347:125,1,125.999996154785
415,89,100564,2,0,L|411:12,1,62.9999980773926,0|12,0:0|0:0,0:0:0:0:
337,16,100897,1,0,0:0:0:0:
267,44,101064,2,0,L|263:106,1,62.9999980773926,8|0,0:0|0:0,0:0:0:0:
212,173,101397,5,4,0:0:0:0:
167,101,101564,1,0,0:0:0:0:
85,82,101731,2,0,L|82:12,1,70,10|0,0:0|0:0,0:0:0:0:
20,122,102064,2,0,L|22:191,1,70,2|2,0:0|0:0,0:0:0:0:
35,275,102397,1,2,0:0:0:0:
92,336,102564,1,2,0:0:0:0:
92,336,102647,1,2,0:0:0:0:
92,336,102731,6,0,L|161:327,1,70,2|0,0:0|0:0,0:0:0:0:
245,320,103064,2,0,B|294:339|294:339|381:299,1,140,2|2,0:0|0:0,0:0:0:0:
457,297,103564,1,2,0:0:0:0:
490,220,103731,1,2,0:0:0:0:
446,147,103897,1,0,0:0:0:0:
483,71,104064,6,0,P|456:47|419:37,1,70,2|2,0:0|0:0,0:0:0:0:
340,43,104397,1,2,0:0:0:0:
309,122,104564,2,0,P|280:104|261:74,2,70,0|2|0,0:0|0:0|0:0,0:0:0:0:
327,203,105064,2,0,P|292:204|261:189,1,70,2|2,0:0|0:0,0:0:0:0:
181,160,105397,6,0,L|186:229,1,70,2|0,0:0|0:0,0:0:0:0:
171,312,105731,1,2,0:0:0:0:
96,357,105897,2,0,L|27:370,2,70,0|2|0,0:0|0:0|0:0,0:0:0:0:
94,272,106397,1,10,0:0:0:0:
33,214,106564,1,2,0:0:0:0:
33,214,106647,1,2,0:0:0:0:
33,214,106731,6,0,L|26:144,1,70,4|0,0:0|0:0,0:0:0:0:
98,51,107064,2,0,L|104:120,1,70,10|0,0:0|0:0,0:0:0:0:
181,160,107397,1,2,0:0:0:0:
240,101,107564,1,2,0:0:0:0:
323,114,107731,2,0,L|392:105,1,70,10|0,0:0|0:0,0:0:0:0:
447,40,108064,5,4,0:0:0:0:
472,177,108231,1,4,0:0:0:0:
472,177,108563,2,0,L|377:193,1,70,2|0,0:0|0:0,0:0:0:0:
388,268,108897,6,0,L|432:301,2,56,2|4|2,0:0|0:0|0:0,0:0:0:0:
305,284,109397,6,0,P|267:282|224:255,1,77.0000023498536,6|0,0:0|0:0,0:0:0:0:
167,210,109730,1,10,0:0:0:0:
90,248,109897,2,0,P|44:188|42:113,1,154.000004699707,0|0,0:0|0:0,0:0:0:0:
77,35,110397,2,0,L|153:28,1,77.0000023498536,10|0,0:0|0:0,0:0:0:0:
232,59,110730,5,0,0:0:0:0:
223,143,110897,1,0,0:0:0:0:
249,223,111063,1,10,0:0:0:0:
305,284,111230,2,0,P|378:301|442:263,1,154.000004699707,0|0,0:0|0:0,0:0:0:0:
503,202,111730,1,10,0:0:0:0:
491,117,111897,1,0,0:0:0:0:
443,47,112063,6,0,L|366:37,1,77.0000023498536
296,107,112397,2,0,L|372:116,1,77.0000023498536,10|0,0:0|0:0,0:0:0:0:
409,200,112730,2,0,L|332:190,1,77.0000023498536
249,223,113063,1,10,0:0:0:0:
173,261,113230,6,0,P|140:237|125:193,2,77.0000023498536,0|0|0,0:0|0:0|0:0,0:0:0:0:
245,304,113730,2,0,B|298:320|298:320|385:277,1,154.000004699707,10|0,0:0|0:0,0:0:0:0:
469,257,114230,1,0,0:0:0:0:
488,174,114397,2,0,L|495:97,1,77.0000023498536,12|0,0:0|0:0,0:0:0:0:
369,56,114730,6,0,P|331:56|297:38,1,77.0000023498536,4|0,0:0|0:0,0:0:0:0:
211,34,115063,1,10,0:0:0:0:
202,118,115230,2,0,P|129:105|86:44,1,154.000004699707,0|0,0:0|0:0,0:0:0:0:
20,97,115730,2,0,L|24:177,1,77.0000023498536,10|0,0:0|0:0,0:0:0:0:
58,251,116063,6,0,L|62:331,2,77.0000023498536,0|0|10,0:0|0:0|0:0,0:0:0:0:
134,216,116563,2,0,P|208:200|276:234,1,154.000004699707,0|0,0:0|0:0,0:0:0:0:
238,310,117063,2,0,L|161:312,1,77.0000023498536,10|0,0:0|0:0,0:0:0:0:
305,361,117396,6,0,L|381:358,1,77.0000023498536,0|0,0:0|0:0,0:0:0:0:
452,311,117730,1,10,0:0:0:0:
486,233,117896,2,0,P|478:158|424:105,1,154.000004699707,0|0,0:0|0:0,0:0:0:0:
345,75,118396,2,0,L|341:151,1,77.0000023498536,10|0,0:0|0:0,0:0:0:0:
321,235,118730,1,4,0:0:0:0:
259,176,118896,2,0,L|223:161,2,38.5000011749268,0|0|10,0:0|0:0|0:0,0:0:0:0:
170,246,119230,6,0,B|96:228|96:228|54:159,1,154.000004699707,4|0,0:0|0:0,0:0:0:0:
16,86,119730,1,14,0:0:0:0:
81,32,119896,1,2,0:0:0:0:
112,61,119980,1,0,0:0:0:0:
147,84,120063,6,0,P|184:88|219:73,1,77.0000023498536,4|0,0:0|0:0,0:0:0:0:
287,22,120396,1,10,0:0:0:0:
371,12,120563,2,0,P|439:42|462:113,1,154.000004699707,0|0,0:0|0:0,0:0:0:0:
459,198,121063,2,0,L|448:274,1,77.0000023498536,10|0,0:0|0:0,0:0:0:0:
398,342,121396,5,0,0:0:0:0:
323,301,121563,1,0,0:0:0:0:
241,323,121730,1,10,0:0:0:0:
202,246,121896,2,0,P|275:226|322:166,1,154.000004699707,0|0,0:0|0:0,0:0:0:0:
346,85,122396,1,10,0:0:0:0:
281,29,122563,1,0,0:0:0:0:
201,56,122730,6,0,L|124:49,1,77.0000023498536
14,115,123063,2,0,L|90:121,1,77.0000023498536,10|0,0:0|0:0,0:0:0:0:
234,166,123396,2,0,L|157:159,1,77.0000023498536
93,215,123730,1,10,0:0:0:0:
67,296,123896,6,0,P|142:293|201:246,1,154.000004699707
234,166,124396,1,10,0:0:0:0:
278,91,124563,2,0,P|343:54|416:70,1,154.000004699707
367,223,125063,2,0,L|357:146,1,77.0000023498536,4|0,0:0|0:0,0:0:0:0:
451,155,125396,5,4,0:0:0:0:
479,248,125563,1,0,0:0:0:0:
408,315,125730,1,0,0:0:0:0:
316,350,125896,6,0,L|246:350,1,70,4|0,0:0|0:0,0:0:0:0:
92,298,126230,2,0,L|162:298,1,70,4|0,0:0|0:0,0:0:0:0:
82,201,126563,2,0,L|12:201,1,70,4|0,0:0|0:0,0:0:0:0:
147,116,126896,1,4,0:0:0:0:
242,91,127063,2,0,L|269:10,2,70,0|2|2,0:0|0:0|0:0,0:0:0:0:
326,141,127563,1,2,0:0:0:0:
360,232,127730,5,4,0:0:0:0:
256,192,127813,12,0,130396,0:0:0:0:
256,129,135730,5,0,0:0:0:0:
211,199,135896,1,0,0:0:0:0:
256,269,136063,2,0,L|256:339,1,70
301,199,136396,1,0,0:0:0:0:
339,124,136563,2,0,L|375:108,2,35,0|0|0,0:0|0:0|0:0,0:0:0:0:
366,20,136896,6,0,L|302:48,1,70,4|0,0:0|0:0,0:0:0:0:
145,20,137230,2,0,L|210:48,1,70,4|0,0:0|0:0,0:0:0:0:
339,124,137563,2,0,L|404:97,1,70,4|2,0:0|0:0,0:0:0:0:
499,204,137896,2,0,B|462:241|462:241|380:209,1,140,4|0,0:0|0:0,0:0:0:0:
329,275,138396,6,0,L|311:342,1,70,4|0,0:0|0:0,0:0:0:0:
230,366,138730,1,2,0:0:0:0:
164,314,138896,1,0,0:0:0:0:
82,336,139063,1,0,0:0:0:0:
22,276,139230,1,0,0:0:0:0:
59,201,139396,1,2,0:0:0:0:
20,125,139563,6,0,B|71:110|71:110|161:167,1,140,4|0,0:0|0:0,0:0:0:0:
222,187,140063,2,0,L|245:121,1,70,2|0,0:0|0:0,0:0:0:0:
319,81,140396,1,2,0:0:0:0:
403,81,140563,1,2,0:0:0:0:
492,155,140730,6,0,B|412:176|412:176|358:156,1,140,10|2,0:0|0:0,0:0:0:0:
309,225,141230,1,0,0:0:0:0:
385,259,141396,2,0,L|464:253,1,70,10|0,0:0|0:0,0:0:0:0:
495,328,141730,5,2,0:0:0:0:
419,364,141896,1,0,0:0:0:0:
338,340,142063,1,2,0:0:0:0:
256,361,142230,2,0,B|207:346|207:346|177:262,1,140,4|0,0:0|0:0,0:0:0:0:
230,197,142730,1,2,0:0:0:0:
282,131,142896,6,0,B|232:110|232:110|134:142,1,140,0|2,0:0|0:0,0:0:0:0:
98,203,143396,1,4,0:0:0:0:
27,248,143563,1,0,0:0:0:0:
27,248,143646,1,0,0:0:0:0:
27,248,143730,2,0,P|15:212|23:165,2,70,4|0|8,0:0|0:0|0:0,0:0:0:0:
76,316,144230,6,0,L|145:305,1,70,4|0,0:0|0:0,0:0:0:0:
287,336,144563,2,0,L|218:347,1,70,4|0,0:0|0:0,0:0:0:0:
347,277,144896,2,0,L|416:266,1,70,4|0,0:0|0:0,0:0:0:0:
461,162,145230,1,2,0:0:0:0:
370,96,145396,1,2,0:0:0:0:
256,111,145563,6,0,L|256:41,1,70,4|0,0:0|0:0,0:0:0:0:
256,234,145896,1,2,0:0:0:0:
203,170,146063,2,0,L|133:181,1,70,2|2,0:0|0:0,0:0:0:0:
309,170,146396,2,0,L|378:181,2,70,2|2|0,0:0|0:0|0:0,0:0:0:0:
34,329,147396,5,2,0:0:0:0:
56,247,147563,2,0,L|48:163,1,70,4|0,0:0|0:0,0:0:0:0:
129,203,147896,2,0,L|121:119,1,70,4|0,0:0|0:0,0:0:0:0:
203,170,148230,2,0,L|195:86,1,70,4|0,0:0|0:0,0:0:0:0:
256,38,148563,6,0,P|280:25|308:22,2,56,2|4|2,0:0|0:0|0:0,0:0:0:0:
314,138,149063,6,0,P|350:134|387:111,1,77.0000023498536,6|0,0:0|0:0,0:0:0:0:
466,135,149396,1,10,0:0:0:0:
474,220,149563,2,0,P|430:281|357:302,1,154.000004699707,0|0,0:0|0:0,0:0:0:0:
274,284,150063,2,0,L|261:208,1,77.0000023498536,10|0,0:0|0:0,0:0:0:0:
185,169,150396,5,0,0:0:0:0:
112,213,150563,1,0,0:0:0:0:
32,182,150730,1,10,0:0:0:0:
17,98,150896,2,0,P|92:99|146:47,1,154.000004699707,0|0,0:0|0:0,0:0:0:0:
229,28,151396,1,10,0:0:0:0:
311,49,151563,1,0,0:0:0:0:
391,23,151730,6,0,L|398:99,1,77.0000023498536
484,208,152063,2,0,L|477:132,1,77.0000023498536,10|0,0:0|0:0,0:0:0:0:
411,250,152396,2,0,L|418:326,1,77.0000023498536
343,366,152730,1,10,0:0:0:0:
258,373,152896,6,0,P|221:365|177:327,2,77.0000023498536,0|0|0,0:0|0:0|0:0,0:0:0:0:
252,287,153396,2,0,P|231:216|269:151,1,154.000004699707,10|0,0:0|0:0,0:0:0:0:
346,116,153896,1,0,0:0:0:0:
428,129,154063,2,0,P|428:90|409:57,1,77.0000023498536,12|0,0:0|0:0,0:0:0:0:
302,21,154396,6,0,L|225:17,1,77.0000023498536,4|0,0:0|0:0,0:0:0:0:
144,45,154730,1,10,0:0:0:0:
61,64,154896,2,0,P|105:123|179:122,1,154.000004699707
259,97,155396,2,0,L|279:191,1,77.0000023498536,10|0,0:0|0:0,0:0:0:0:
329,237,155730,6,0,P|351:207|359:170,2,77.0000023498536,0|0|10,0:0|0:0|0:0,0:0:0:0:
245,251,156230,2,0,P|169:244|108:198,1,154.000004699707,0|0,0:0|0:0,0:0:0:0:
33,236,156730,2,0,L|27:312,1,77.0000023498536,10|0,0:0|0:0,0:0:0:0:
85,375,157063,6,0,P|123:375|159:364,1,77.0000023498536
239,333,157396,1,10,0:0:0:0:
323,322,157563,2,0,P|398:318|461:263,1,154.000004699707,0|0,0:0|0:0,0:0:0:0:
485,190,158063,2,0,L|474:113,1,77.0000023498536,10|0,0:0|0:0,0:0:0:0:
430,41,158396,5,4,0:0:0:0:
339,84,158563,1,0,0:0:0:0:
252,33,158730,1,10,0:0:0:0:
165,81,158896,2,0,B|174:157|174:157|251:149,1,154.000004699707,4|0,0:0|0:0,0:0:0:0:
321,220,159396,1,14,0:0:0:0:
243,279,159563,1,2,0:0:0:0:
243,279,159646,1,2,0:0:0:0:
243,279,159730,6,0,L|166:287,1,77.0000023498536,4|0,0:0|0:0,0:0:0:0:
96,335,160063,1,10,0:0:0:0:
29,281,160230,2,0,L|19:127,1,154.000004699707,0|0,0:0|0:0,0:0:0:0:
91,45,160730,2,0,L|97:121,1,77.0000023498536,10|0,0:0|0:0,0:0:0:0:
179,140,161063,6,0,L|173:63,2,77.0000023498536,0|0|10,0:0|0:0|0:0,0:0:0:0:
241,197,161563,2,0,P|314:188|362:128,1,154.000004699707,0|0,0:0|0:0,0:0:0:0:
443,150,162063,1,10,0:0:0:0:
491,219,162230,1,0,0:0:0:0:
476,302,162396,6,0,L|399:311,1,77.0000023498536
254,367,162730,2,0,L|330:357,1,77.0000023498536,10|0,0:0|0:0,0:0:0:0:
461,292,163063,2,0,L|384:301,1,77.0000023498536
307,266,163396,5,10,0:0:0:0:
226,295,163563,2,0,P|152:308|84:274,1,154.000004699707
37,204,164063,1,10,0:0:0:0:
52,120,164230,2,0,P|124:99|171:40,1,154.000004699707
281,125,164730,2,0,L|204:133,1,77.0000023498536,12|0,0:0|0:0,0:0:0:0:
168,218,165063,6,0,L|244:209,1,77.0000023498536,4|0,0:0|0:0,0:0:0:0:
327,189,165396,1,10,0:0:0:0:
406,216,165563,2,0,P|463:169|470:94,1,154.000004699707,0|0,0:0|0:0,0:0:0:0:
378,7,166063,2,0,L|385:84,1,77.0000023498536,10|0,0:0|0:0,0:0:0:0:
281,125,166396,6,0,L|274:48,2,77.0000023498536,0|0|10,0:0|0:0|0:0,0:0:0:0:
196,140,166896,2,0,P|121:127|74:68,1,154.000004699707,0|0,0:0|0:0,0:0:0:0:
15,129,167396,2,0,L|19:205,1,77.0000023498536,10|0,0:0|0:0,0:0:0:0:
98,328,167730,6,0,L|93:251,1,77.0000023498536
171,219,168063,1,10,0:0:0:0:
228,281,168230,2,0,P|303:285|363:239,1,154.000004699707,0|0,0:0|0:0,0:0:0:0:
395,161,168730,2,0,L|470:176,1,77.0000023498536,10|0,0:0|0:0,0:0:0:0:
500,96,169063,1,4,0:0:0:0:
439,35,169230,2,0,L|473:14,2,38.5000011749268,0|0|10,0:0|0:0|0:0,0:0:0:0:
339,78,169563,6,0,B|286:97|286:97|191:70,1,154.000004699707,4|0,0:0|0:0,0:0:0:0:
110,46,170063,1,14,0:0:0:0:
59,114,170230,1,2,0:0:0:0:
59,114,170313,1,0,0:0:0:0:
59,114,170396,6,0,L|76:202,1,77.0000023498536,4|0,0:0|0:0,0:0:0:0:
158,178,170730,1,10,0:0:0:0:
233,217,170896,2,0,P|299:252|373:235,1,154.000004699707,0|0,0:0|0:0,0:0:0:0:
446,192,171396,2,0,L|450:115,1,77.0000023498536,10|0,0:0|0:0,0:0:0:0:
418,36,171730,5,0,0:0:0:0:
340,69,171896,1,0,0:0:0:0:
266,28,172063,1,10,0:0:0:0:
191,68,172230,2,0,P|120:93|41:69,1,154.000004699707,0|0,0:0|0:0,0:0:0:0:
9,148,172730,1,10,0:0:0:0:
60,215,172896,1,0,0:0:0:0:
112,278,173063,6,0,L|121:355,1,77.0000023498536
187,210,173396,2,0,L|196:287,1,77.0000023498536,10|0,0:0|0:0,0:0:0:0:
262,147,173730,2,0,L|271:224,1,77.0000023498536
276,63,174063,5,10,0:0:0:0:
347,18,174230,2,0,P|421:7|483:49,1,154.000004699707
499,132,174730,1,10,0:0:0:0:
474,212,174896,2,0,P|400:223|338:181,1,154.000004699707
262,147,175396,2,0,L|185:156,1,77.0000023498536,4|0,0:0|0:0,0:0:0:0:
113,120,175730,5,4,0:0:0:0:
38,183,175896,1,0,0:0:0:0:
114,245,176063,1,0,0:0:0:0:
90,340,176230,6,0,L|159:334,1,70,4|0,0:0|0:0,0:0:0:0:
312,275,176563,2,0,L|243:281,1,70,4|0,0:0|0:0,0:0:0:0:
395,327,176896,2,0,L|464:321,1,70,4|0,0:0|0:0,0:0:0:0:
493,248,177230,1,4,0:0:0:0:
449,185,177396,6,0,L|465:101,2,70,2|2|2,0:0|0:0|0:0,0:0:0:0:
372,177,177896,1,0,0:0:0:0:
297,196,178063,2,0,L|287:112,1,70,4|0,0:0|0:0,0:0:0:0:
225,81,178396,5,4,0:0:0:0:
144,38,178563,1,2,0:0:0:0:
62,79,178730,1,2,0:0:0:0:
30,164,178896,2,0,L|99:156,1,70,4|0,0:0|0:0,0:0:0:0:
130,242,179230,2,0,L|60:249,1,70,4|0,0:0|0:0,0:0:0:0:
40,337,179563,6,0,L|109:329,1,70,4|0,0:0|0:0,0:0:0:0:
256,297,179896,2,0,L|187:305,1,70,0|2,0:0|0:0,0:0:0:0:
328,248,180230,2,0,L|397:240,2,70,0|2|0,0:0|0:0|0:0,0:0:0:0:
256,218,180729,1,4,0:0:0:0:
256,140,180896,1,0,0:0:0:0:
256,192,181063,12,0,183896,0:0:0:0:
182,143,189063,5,2,0:0:0:0:
182,143,189396,2,0,L|251:135,1,70,8|2,0:0|0:0,0:0:0:0:
304,77,189730,1,0,0:0:0:0:
235,42,189896,1,0,0:0:0:0:
304,77,190063,2,0,L|373:69,1,70,8|0,0:0|0:0,0:0:0:0:
442,102,190396,5,4,0:0:0:0:
487,164,190563,1,0,0:0:0:0:
460,236,190730,1,10,0:0:0:0:
483,309,190896,2,0,B|426:349|426:349|358:329,1,140,4|0,0:0|0:0,0:0:0:0:
308,270,191396,1,8,0:0:0:0:
333,197,191563,1,0,0:0:0:0:
262,151,191729,6,0,L|192:157,1,70,4|0,0:0|0:0,0:0:0:0:
119,113,192063,2,0,L|49:119,1,70,8|0,0:0|0:0,0:0:0:0:
9,193,192396,1,2,0:0:0:0:
58,260,192563,1,2,0:0:0:0:
35,341,192730,2,0,B|91:350|91:350|171:329,1,140,8|2,0:0|0:0,0:0:0:0:
227,265,193230,5,2,0:0:0:0:
308,270,193396,2,0,L|374:290,1,70,8|0,0:0|0:0,0:0:0:0:
450,329,193730,1,2,0:0:0:0:
486,253,193896,1,2,0:0:0:0:
480,168,194063,2,0,B|431:188|431:188|344:158,1,140,8|2,0:0|0:0,0:0:0:0:
315,82,194563,5,0,0:0:0:0:
246,32,194730,2,0,L|176:27,1,70,8|0,0:0|0:0,0:0:0:0:
94,48,195063,1,2,0:0:0:0:
39,112,195230,1,2,0:0:0:0:
37,195,195396,2,0,B|77:229|77:229|162:208,1,140,8|2,0:0|0:0,0:0:0:0:
245,221,195896,5,2,0:0:0:0:
328,233,196063,2,0,L|316:163,1,70,10|0,0:0|0:0,0:0:0:0:
386,98,196396,2,0,L|397:167,1,70,10|0,0:0|0:0,0:0:0:0:
422,316,196730,2,0,L|410:246,1,70,12|0,0:0|0:0,0:0:0:0:
485,217,197063,6,0,L|496:286,2,70,4|0|8,0:0|0:0|0:0,0:0:0:0:
471,141,197563,2,0,L|459:71,1,70,4|0,0:0|0:0,0:0:0:0:
392,21,197896,2,0,L|322:13,1,70,4|0,0:0|0:0,0:0:0:0:
208,73,198230,2,0,L|277:80,1,70,4|0,0:0|0:0,0:0:0:0:
321,152,198563,5,4,0:0:0:0:
351,230,198730,2,0,B|300:258|300:258|222:235,1,140,10|2,0:0|0:0,0:0:0:0:
154,184,199229,2,0,L|84:190,2,70,2|2|2,0:0|0:0|0:0,0:0:0:0:
233,156,199729,1,4,0:0:0:0:
256,192,199813,12,8,203062,0:0:0:0:
256,192,203563,5,8,0:0:0:0:
256,192,203896,12,0,204896,0:0:0:0:
