osu file format v9

[General]
AudioFilename: pile up HURRICANE!.mp3
AudioLeadIn: 1500
PreviewTime: 70817
Countdown: 0
SampleSet: Soft
StackLeniency: 0.7
Mode: 0
LetterboxInBreaks: 0

[Editor]
Bookmarks: 11863
DistanceSpacing: 1
BeatDivisor: 4
GridSize: 4

[Metadata]
Title:pile up HURRICANE!
Artist:Nakagawa Haruna
Creator:R a r e
Version:Insane
Source:Sakaagari Hurricane
Tags:game op swish quintitem

[Difficulty]
HPDrainRate:7
CircleSize:4
OverallDifficulty:7
ApproachRate:9
SliderMultiplier:1.7
SliderTickRate:1

[Events]
//Background and Video events
Video,0,"op.avi"
0,0,"bg.jpg"
//Break Periods
//Storyboard Layer 0 (Background)
//Storyboard Layer 1 (Fail)
//Storyboard Layer 2 (Pass)
//Storyboard Layer 3 (Foreground)
//Storyboard Sound Samples
//Background Colour Transformations
3,100,163,162,255

[TimingPoints]
685,382.165605095541,4,2,0,50,1,0
3838,-100,4,1,0,40,0,0
4220,-100,4,2,0,50,0,0
4411,-100,4,1,0,40,0,0
4793,-100,4,2,0,50,0,0
4984,-100,4,1,0,40,0,0
5175,-100,4,2,0,50,0,0
5462,-100,4,1,0,25,0,0
6608,-100,4,2,1,60,0,0
6704,-100,4,2,1,70,0,0
37659,-100,4,1,0,70,0,0
38041,-100,4,1,0,50,0,0
38328,-100,4,1,0,40,0,0
38614,-100,4,2,1,70,0,0
70812,-100,4,2,1,70,0,1
94793,-100,4,1,0,50,0,1
95175,-100,4,2,1,70,0,1
98328,-100,4,2,1,70,0,0
101290,-100,4,2,1,30,0,0

[Colours]
Combo1 : 255,187,119
Combo2 : 255,255,128
Combo3 : 185,185,255
Combo4 : 224,192,192

[HitObjects]
80,180,494,2,0,B|129:243,1,56.6666666666667,0|0
276,276,1003,1,2
380,160,1449,2,0,B|368:116|324:100,1,85,0|2
284,176,1831,1,0
236,248,2022,2,0,B|175:239|149:171|176:111,1,170.000000596046,2|0
272,104,2595,5,2
356,152,2787,1,0
368,184,2882,2,0,B|384:224,1,42.5000001490115,2|0
356,312,3169,1,2
264,320,3360,2,0,B|220:320|184:280,1,85.000000298023,0|2
164,200,3742,5,2
117,150,3933,1,0
184,134,4124,1,0
100,212,4315,5,2
136,88,4506,1,0
228,184,4697,1,0
190,250,4888,5,2
66,134,5080,1,0
231,86,5271,1,0
332,44,5462,5,0
356,44,5557,1,0
380,52,5653,1,0
400,68,5748,1,0
416,88,5844,1,0
424,112,5939,1,0
424,136,6035,2,0,B|431:161|424:180,5,42.5000001490115
408,208,6608,6,0,B|368:280|248:284,1,170.000000596046,4|0
224,204,7181,1,8
160,264,7373,1,0
136,252,7468,1,0
112,240,7564,2,0,B|72:216|68:168,1,85.000000298023,2|2
92,88,7946,1,8
172,56,8137,6,0,B|260:28|348:60,1,170.000000596046
400,116,8710,1,8
344,180,8901,1,0
364,196,8997,1,0
384,212,9092,2,0,B|408:252|392:296,1,85.000000298023,2|2
316,324,9474,1,8
232,336,9666,6,0,B|56:336,1,170.000000596046,4|0
62,336,10239,1,8
44,252,10430,1,0
48,228,10525,1,0
56,204,10621,2,0,B|72:160|120:148,1,85.000000298023,2|2
156,224,11003,1,8
228,180,11194,6,0,B|308:136|328:44,1,170.000000596046
408,76,11767,1,8
388,160,11959,1,0
364,160,12054,1,0
340,160,12150,2,0,B|292:156|260:99,1,85,2|2
192,144,12532,1,8
112,116,12723,6,0,B|56:184|72:288,1,170.000000596046,4|0
140,324,13296,1,8
200,264,13487,1,0
216,280,13583,1,0
236,296,13678,2,0,B|276:316|324:292,1,85.000000298023,2|2
388,244,14060,1,8
456,292,14252,2,0,B|504:204|428:128,1,170.000000596046
372,80,14825,2,0,B|364:128|316:152,1,85.000000298023,8|0
272,80,15207,6,0,B|228:60|184:76,1,85.000000298023,2|2
120,116,15589,1,8
120,116,15780,2,0,B|106:159|120:208,1,85.000000298023,4|2
192,244,16162,1,0
272,268,16353,2,0,B|283:308|269:351,1,85.000000298023,10|2
200,304,16736,5,0
344,216,16927,1,10
184,156,17118,1,8
328,68,17309,1,6
256,192,17404,12,4,19029
272,260,19411,2,0,B|238:234|192:232,1,85.000000298023,8|0
124,184,19793,2,0,B|97:218|93:262,1,85.000000298023
44,336,20175,1,8
128,344,20366,2,0,B|170:338|204:310,1,85.000000298023
212,224,20748,1,0
296,204,20939,2,0,B|332:176|376:172,2,85.000000298023,8|0|0
268,284,21513,1,0
184,292,21704,2,0,B|120:232|104:140,1,170.000000596046,8|0
164,84,22277,2,0,B|190:118|194:162,1,85.000000298023,0|8
276,180,22659,5,0
276,180,22755,1,0
276,180,22850,2,0,B|308:144|352:140,1,85.000000298023
432,164,23232,1,8
488,228,23424,2,0,B|472:315|408:375,1,170.000000596046
320,376,23997,1,8
276,300,24188,2,0,B|291:212|355:152,1,170.000000596046
276,300,24761,1,8
428,224,24952,1,0
344,208,25143,5,0
324,192,25239,1,0
300,188,25334,2,0,B|256:200|240:248,1,85.000000298023,0|8
228,328,25717,1,0
144,344,25908,6,0,B|64:301|48:196,1,170.000000596046,0|8
96,136,26481,2,0,B|132:168|136:212,1,85.000000298023
216,240,26863,2,0,B|301:240,1,85.000000298023,0|8
432,132,27245,2,0,B|347:132,1,85.000000298023
188,192,27627,2,0,B|273:192,1,85.000000298023,0|8
340,244,28010,1,0
296,316,28201,2,0,B|272:360|188:372|136:332,1,170.000000596046,0|8
60,316,28774,2,0,B|68:268|112:240,1,85.000000298023
140,168,29156,1,0
208,120,29347,6,0,B|256:128|284:172,1,85.000000298023,8|0
324,236,29729,1,0
408,232,29920,2,0,B|443:209|451:161,1,85.000000298023,0|8
404,92,30302,5,0
296,28,30494,1,2
236,140,30685,1,0
236,140,30876,5,10
88,100,31067,1,0
148,260,31258,2,0,B|156:212|120:164,1,85.000000298023,2|0
32,156,31640,5,8
68,232,31831,1,0
148,260,32022,2,0,B|188:288|232:276,1,85.000000298023
296,224,32404,2,0,B|324:264|312:308,1,85.000000298023,8|0
396,288,32787,2,0,B|441:270|456:227,1,85.000000298023
456,136,33169,5,8
388,72,33360,2,0,B|342:89|327:132,1,85.000000298023
244,136,33742,2,0,B|230:175|184:193,1,85.000000298023,0|8
112,152,34124,1,0
80,216,34315,1,0
180,160,34506,1,0
89,87,34697,1,8
20,160,34888,5,0
20,160,34984,1,0
20,160,35080,2,0,B|28:208|64:228,1,85.000000298023
144,264,35462,1,8
208,320,35653,1,0
276,268,35844,6,0,B|312:292|328:336,1,85.000000298023,2|0
400,288,36226,2,0,B|436:264|452:220,1,85.000000298023,10|0
320,48,36608,2,0,B|301:87|310:133,1,85.000000298023,2|0
452,296,36990,2,0,B|470:256|461:210,1,85.000000298023,10|0
404,52,37373,5,4
388,336,37755,2,0,B|316:332|288:268,1,127.500000447035,0|0
308,232,38137,1,0
136,44,38328,2,0,B|151:127,1,85.000000298023,0|0
76,168,38710,6,0,B|68:268|164:312,1,170.000000596046,4|0
160,320,39188,1,0
168,332,39283,2,0,B|215:334|252:300,1,85.000000298023,8|0
244,196,39666,1,0
324,172,39857,1,0
376,104,40048,1,8
456,72,40239,6,0,B|492:152|456:240,1,170.000000596046,4|0
392,288,40812,2,0,B|364:324|320:332,1,85.000000298023,8|0
240,300,41194,1,0
164,260,41385,1,0
116,188,41576,2,0,B|100:144|112:104,1,85.000000298023,8|0
188,64,41959,6,0,B|232:52|272:60,1,85.000000298023,4|0
412,136,42341,2,0,B|368:148|328:140,1,85.000000298023,8|0
244,160,42723,1,0
76,232,42914,2,0,B|120:220|172:236,1,85.000000298023,0|8
224,288,43296,1,0
224,288,43392,1,0
224,288,43487,1,4
212,40,43869,5,2
264,156,44156,2,0,B|300:136,3,42.5000001490115,0|0|2|0
384,124,44634,1,2
176,160,44825,6,0,B|136:148|84:160,1,85.000000298023,2|0
224,224,45207,1,0
300,260,45398,2,0,B|312:304|300:344,1,85.000000298023,0|2
224,224,45780,1,0
276,156,45971,2,0,B|316:168|368:156,1,85.000000298023,0|2
416,224,46353,1,0
416,224,46449,1,0
416,224,46545,1,4
52,352,46927,5,8
80,272,47118,2,0,B|44:236|36:192,2,85.000000298023
156,308,47691,1,8
240,288,47882,2,0,B|287:280|309:244,1,85.000000298023
392,260,48264,1,0
460,208,48455,2,0,B|487:168|478:127,1,85.000000298023,8|0
396,108,48838,5,0
160,28,49029,1,2
332,51,49220,1,8
223,84,49411,1,2
300,116,49602,6,0,B|328:149|322:195,1,85.000000298023,0|0
176,284,49984,2,0,B|209:255|255:261,1,85.000000298023,8|0
340,252,50366,1,0
352,124,50557,1,0
224,104,50748,1,8
160,52,50939,6,0,B|131:85|137:131,1,85.000000298023,0|2
52,120,51322,2,0,B|56:164|91:192,1,85.000000298023,0|10
28,248,51704,2,0,B|64:276|107:271,1,85.000000298023,0|2
176,232,52086,1,0
252,196,52277,2,0,B|296:176|340:192,1,85.000000298023,10|0
312,272,52659,2,0,B|372:332|476:324,1,170.000000596046,4|8
468,324,53232,1,0
496,244,53424,5,0
468,164,53615,1,2
384,148,53806,2,0,B|340:136|308:92,1,85.000000298023,8|2
356,28,54188,2,0,B|400:40|432:84,1,85.000000298023,0|2
348,228,54570,2,0,B|304:216|272:172,1,85.000000298023,8|2
248,40,54952,2,0,B|286:65|302:116,1,85.000000298023,2|0
256,236,55334,2,0,B|233:197|241:144,1,85.000000298023,10|0
164,116,55717,6,0,B|104:52|0:64,1,170.000000596046,4|8
204,232,56290,2,0,B|206:319|124:384,1,170.000000596046,0|0
320,196,56863,2,0,B|380:132|484:144,1,170.000000596046,12|0
488,184,57341,1,0
492,228,57436,6,0,B|472:268|428:284,1,85.000000298023,0|8
348,264,57818,1,0
280,212,58010,2,0,B|236:196|208:164,1,85.000000298023
148,104,58392,1,8
64,88,58583,6,0,B|40:128|56:168,1,85.000000298023,0|4
112,232,58965,1,0
196,236,59156,2,0,B|222:270|226:314,1,85.000000298023,8|0
304,344,59538,2,0,B|340:320|356:272,1,85.000000298023
440,284,59920,1,8
472,204,60111,2,0,B|464:160|428:128,1,85.000000298023,0|4
364,80,60494,5,0
288,120,60685,2,0,B|244:120|200:100,1,85.000000298023,8|0
140,48,61067,1,0
56,68,61258,2,0,B|32:104|36:150,1,85.000000298023,0|8
84,220,61640,1,0
164,244,61831,6,0,B|168:288|200:324,1,85.000000298023,4|0
280,340,62213,1,8
364,320,62404,1,0
404,244,62595,1,0
376,164,62787,2,0,B|364:116|332:88,1,85.000000298023,0|8
248,92,63169,1,0
168,64,63360,6,0,B|156:112|168:152,1,85.000000298023,4|0
344,320,63742,2,0,B|356:272|344:232,1,85.000000298023,8|0
272,196,64124,1,0
320,32,64315,1,0
348,200,64506,1,8
248,60,64697,1,0
164,68,64888,6,0,B|136:100|88:112,1,85.000000298023,4|0
44,180,65271,1,8
120,216,65462,2,0,B|132:304,2,85.000000298023
176,152,66035,2,0,B|200:112|248:104,1,85.000000298023,8|0
320,68,66417,6,0,B|331:113|303:152,1,85.000000298023,4|0
380,188,66799,1,8
328,256,66990,2,0,B|277:335|175:329,1,170.000000596046
120,272,67564,1,8
160,196,67755,2,0,B|168:152|144:108,1,85.000000298023,0|4
256,192,68041,12,0,70239
128,108,70812,6,0,B|192:44|284:48,1,170,4|0
368,44,71385,1,8
352,128,71576,2,0,B|372:212,1,85.000000298023
320,280,71959,1,0
240,304,72150,1,8
160,272,72341,1,0
120,256,72436,1,0
88,228,72532,1,0
92,140,72723,5,10
156,84,72914,2,0,B|160:128|188:160,1,85,10|0
228,176,73201,1,0
268,188,73296,1,0
340,228,73487,2,0,B|384:216|408:176,1,85.000000298023,10|10
472,128,73869,6,0,B|416:56|320:56,1,170.000000596046,4|0
276,124,74443,1,8
192,136,74634,2,0,B|148:216,1,85.000000298023
92,272,75016,1,0
144,340,75207,1,8
216,296,75398,5,0
240,312,75494,1,0
264,324,75589,2,0,B|308:340|352:328,1,85.000000298023,0|10
420,304,75971,2,0,B|432:256|416:200,1,85.000000298023,10|0
400,188,76258,1,0
364,156,76353,1,0
264,240,76545,1,10
204,124,76736,1,10
156,52,76927,6,0,B|224:4|320:36,1,170.000000596046,4|0
344,116,77500,2,0,B|344:160|320:196,1,85.000000298023,8|0
276,268,77882,1,0
128,184,78073,1,0
60,232,78264,1,8
60,312,78455,6,0,B|128:368|220:364,1,170.000000596046
300,340,79029,2,0,B|328:300|320:252,1,85.000000298023,8|0
320,176,79411,2,0,B|368:128|440:136,1,127.500000447035
468,152,79793,2,0,B|492:188|484:240,1,85.000000298023,8|0
408,300,80175,6,0,B|364:292|316:308,1,85.000000298023,4|0
256,256,80557,1,8
112,188,80748,2,0,B|156:180|204:200,1,85.000000298023,0|0
44,248,81131,1,0
232,112,81322,2,8,B|272:136|288:184,1,85,8|0
228,240,81704,5,4
156,196,81895,2,0,B|125:170|78:161,1,85.000000298023,0|8
24,84,82277,2,0,B|64:60|120:64,1,85.000000298023,0|0
186,42,82659,1,0
186,42,82755,1,8
186,42,82850,1,8
272,32,83041,6,0,B|364:40|416:124,1,170.000000596046,4|0
396,200,83615,1,8
384,284,83806,2,0,B|360:324|312:348,1,85.000000298023
240,340,84188,1,0
164,304,84379,1,8
100,248,84570,2,0,B|32:184|20:96,1,170.000000596046
68,32,85143,6,0,B|96:68|100:108,1,85.000000298023,10|0
184,252,85525,1,2
184,252,85621,1,0
184,252,85717,2,0,B|184:204|208:167,1,85.000000298023,0|10
344,84,86099,1,0
404,144,86290,6,0,B|420:184|424:240,1,85.000000298023,4|0
356,280,86672,1,8
268,136,86863,1,0
268,136,86959,1,0
268,136,87054,2,0,B|224:120|184:124,1,85.000000298023,4|0
152,204,87436,1,8
380,92,87627,1,0
372,176,87818,6,0,B|344:208|296:232,1,85.000000298023,4|0
220,220,88201,1,8
80,124,88392,1,0
80,124,88487,1,0
80,124,88583,1,4
101,206,88774,1,0
294,39,88965,1,8
344,108,89156,6,0,B|384:84|428:88,2,85.000000298023,4|0|0
272,156,89729,2,0,B|228:156|192:128,1,85.000000298023,8|0
108,120,90111,1,0
52,184,90303,2,0,B|39:227|59:268,1,85.000000298023,0|8
144,264,90685,5,0
156,256,90780,1,0
168,248,90876,1,0
204,324,91067,2,0,B|248:332|296:312,1,85.000000298023,0|8
348,256,91449,1,0
355,243,91545,1,0
363,231,91640,1,0
360,148,91831,2,0,B|332:116|280:108,1,85.000000298023,0|8
200,116,92213,1,0
124,72,92404,6,0,B|96:108|100:152,1,85.000000298023,4|0
164,300,92787,2,0,B|192:264|188:220,1,85.000000298023,8|0
200,136,93169,1,0
284,136,93360,1,0
348,188,93551,2,0,B|356:232|340:272,1,85.000000298023,8|0
264,308,93933,5,0
120,256,94124,1,2
260,316,94315,5,8
125,242,94506,1,2
80,168,94697,5,0
104,88,94888,1,0
104,88,94984,1,0
104,88,95080,1,0
184,112,95271,6,0,B|272:136|368:108,1,170.000000596046,4|0
436,112,95844,2,0,B|436:156|400:196,1,85.000000298023,8|0
320,192,96226,1,0
296,272,96417,1,0
228,324,96608,2,0,B|184:316|156:272,1,85.000000298023,8|4
80,248,96990,2,0,B|100:208|152:196,1,85.000000298023
224,164,97373,2,0,B|238:206|209:251,1,85.000000298023,8|0
276,304,97755,1,0
356,280,97946,2,0,B|432:224|424:128,1,170.000000596046,8|4
356,84,98519,5,0
276,116,98710,2,0,B|228:108|200:80,1,85.000000298023,0|10
116,64,99092,1,0
116,64,99188,1,2
116,64,99283,1,0
116,64,99379,1,2
116,64,99474,1,0
64,132,99666,2,0,B|56:176|80:220,1,85.000000298023,10|0
152,252,100048,5,0
236,236,100239,1,0
308,284,100430,1,10
388,260,100621,1,0
416,240,100717,1,2
436,212,100812,1,0
444,180,100908,1,2
440,144,101003,1,0
368,96,101194,2,0,B|332:68|276:76,1,85.000000298023,10|4
