osu file format v14

[General]
AudioFilename: Unreal Color.mp3
AudioLeadIn: 2000
PreviewTime: 57396
Countdown: 0
SampleSet: Soft
StackLeniency: 0.7
Mode: 0
LetterboxInBreaks: 0
WidescreenStoryboard: 0

[Editor]
Bookmarks: 11203,21686,44100,84839
DistanceSpacing: 1.4
BeatDivisor: 4
GridSize: 4
TimelineZoom: 1.8

[Metadata]
Title:Unreal Color
TitleUnicode:Unreal Color
Artist:Nakae Mitsuki
ArtistUnicode:中恵光城
Creator:Alyce
Version:Extra
Source:ソーサリージョーカーズ
Tags:SORCERY JOKERS 3rdeye まもも mamomo opening Homura-
BeatmapID:711209
BeatmapSetID:319538

[Difficulty]
HPDrainRate:6
CircleSize:4
OverallDifficulty:8
ApproachRate:9
SliderMultiplier:1.7
SliderTickRate:1

[Events]
//Background and Video events
Video,0,"unreal color video.avi"
0,0,"bg.jpg",0,0
//Break Periods
//Storyboard Layer 0 (Background)
//Storyboard Layer 1 (Fail)
//Storyboard Layer 2 (Pass)
//Storyboard Layer 3 (Foreground)
//Storyboard Sound Samples

[TimingPoints]
125,340.909090909091,4,2,1,60,1,0
465,340.909090909091,4,2,1,60,1,0
465,-125,4,2,1,60,0,0
11033,-111.111111111111,4,2,1,60,0,0
11374,-111.111111111111,4,2,1,60,0,0
22283,-142.857142857143,4,2,1,60,0,0
28078,340.909090909091,4,2,1,60,1,0
28078,-142.857142857143,4,2,1,60,0,0
33873,-125,4,2,1,60,0,0
44441,-166.666666666667,4,2,1,40,0,0
52623,-125,4,2,1,60,0,0
58078,-100,4,2,1,70,0,1
66430,-100,4,2,1,60,0,1
67453,-100,4,2,1,50,0,1
68987,-100,4,2,1,70,0,1
79043,-100,4,2,1,40,0,1
79896,-100,4,2,1,40,0,0
80748,-100,4,2,1,45,0,0
81089,-100,4,2,1,50,0,0
81430,-100,4,2,1,55,0,0
81771,-100,4,2,1,60,0,0
82112,-100,4,2,1,65,0,0
82453,-100,4,2,1,70,0,0

[Colours]
Combo1 : 255,255,128
Combo2 : 155,255,255
Combo3 : 255,128,128
Combo4 : 192,192,192
Combo5 : 128,255,128

[HitObjects]
100,80,125,6,0,L|107:121,1,42.5,2|2,0:0|0:0,0:0:0:0:
192,176,295,2,0,L|184:217,1,42.5,8|8,0:0|0:0,0:0:0:0:
232,316,465,6,0,L|298:304,1,68,4|0,0:0|0:0,0:0:0:0:
372,244,805,2,0,L|385:177,1,68,8|0,0:1|0:0,0:0:0:0:
356,88,1146,1,8,0:1:0:0:
284,152,1317,1,0,0:0:0:0:
208,96,1487,2,0,L|140:84,1,68,8|0,0:1|0:0,0:0:0:0:
60,196,1828,6,0,L|84:336,1,136,12|8,0:1|3:1,0:0:0:0:
188,356,2340,1,0,0:0:0:0:
291,263,2510,2,0,L|156:252,1,136,12|8,0:1|1:1,0:0:0:0:
80,100,3021,1,8,0:0:0:0:
80,100,3107,1,8,0:0:0:0:
80,100,3192,6,0,L|198:112,1,102,12|0,0:0|0:0,0:0:0:0:
192,124,3533,1,8,0:0:0:0:
292,56,3703,1,8,0:0:0:0:
403,132,3874,2,0,P|399:165|392:198,1,68,12|0,1:0|0:0,0:0:0:0:
344,328,4215,1,8,1:0:0:0:
156,224,4385,1,8,0:0:0:0:
156,224,4470,1,8,0:0:0:0:
156,224,4555,5,12,0:0:0:0:
248,280,4726,1,8,0:0:0:0:
156,336,4896,1,8,0:0:0:0:
344,232,5067,1,8,1:0:0:0:
160,116,5237,1,12,1:0:0:0:
248,280,5408,1,8,1:0:0:0:
440,180,5578,1,8,1:0:0:0:
256,64,5749,1,8,1:0:0:0:
248,280,5919,5,12,0:0:0:0:
156,336,6090,2,0,L|123:345,2,34,0|0|8,0:0|0:0|0:1,0:0:0:0:
16,204,6430,2,0,L|28:172,2,34,2|0|8,0:0|0:0|0:1,0:0:0:0:
88,12,6771,2,0,L|100:43,2,34,2|0|8,0:0|0:0|0:1,0:0:0:0:
180,196,7112,2,0,L|212:206,2,34,2|0|8,0:0|0:0|0:1,0:0:0:0:
384,164,7453,2,0,L|396:132,2,34,2|0|10,0:0|0:0|0:1,0:0:0:0:
384,28,7794,1,0,0:0:0:0:
488,116,7965,5,8,0:0:0:0:
496,148,8050,1,8,0:0:0:0:
496,180,8135,1,8,0:0:0:0:
484,212,8220,1,8,0:0:0:0:
467,240,8305,2,0,P|456:252|442:262,1,34,8|8,0:3|0:3,0:0:0:0:
368,324,8476,2,0,P|359:308|353:293,1,34,8|8,0:3|0:3,0:0:0:0:
256,292,8646,6,0,L|156:268,1,102,12|0,0:1|0:0,0:0:0:0:
83,227,8987,2,0,P|75:195|73:161,1,68,10|10,0:0|0:0,0:0:0:0:
140,84,9328,2,0,L|205:101,1,68,8|2,0:0|0:0,0:0:0:0:
308,84,9669,1,8,0:0:0:0:
324,220,9840,1,10,0:0:0:0:
324,220,9925,1,8,0:0:0:0:
324,220,10010,5,10,0:0:0:0:
436,40,10180,1,10,0:0:0:0:
444,32,10521,1,10,0:1:0:0:
460,168,10692,1,8,0:0:0:0:
440,304,10862,1,10,1:0:0:0:
255,255,11033,2,0,L|216:244,1,38.2499988327027,2|0,0:0|0:0,0:0:0:0:
142,158,11203,2,0,L|104:163,1,38.2499988327027,8|2,0:0|0:0,0:0:0:0:
28,175,11374,5,6,0:0:0:0:
105,266,11544,1,0,0:0:0:0:
184,52,11715,1,10,0:0:0:0:
331,228,11885,1,8,0:1:0:0:
142,158,12055,5,10,0:1:0:0:
298,32,12226,1,10,0:1:0:0:
373,118,12396,1,8,0:0:0:0:
218,244,12567,1,2,0:0:0:0:
298,32,12737,5,6,0:0:0:0:
331,228,12908,1,0,0:0:0:0:
142,158,13078,1,10,0:0:0:0:
260,138,13249,1,8,0:1:0:0:
287,334,13419,5,10,0:1:0:0:
142,158,13590,1,8,0:1:0:0:
373,118,13760,1,10,0:0:0:0:
218,244,13930,1,0,0:0:0:0:
298,32,14101,5,6,0:0:0:0:
142,158,14271,1,0,0:0:0:0:
331,228,14442,1,10,0:0:0:0:
184,52,14612,1,10,0:1:0:0:
142,158,14783,5,0,0:0:0:0:
287,334,14953,1,2,0:0:0:0:
331,228,15124,1,8,1:0:0:0:
142,158,15294,1,2,0:0:0:0:
373,118,15465,5,4,0:0:0:0:
172,348,15635,2,0,L|97:336,1,76.4999976654053,2|10,0:0|0:0,0:0:0:0:
28,175,15976,1,8,0:1:0:0:
218,244,16146,5,10,0:1:0:0:
172,348,16317,1,8,0:1:0:0:
142,158,16487,1,10,0:0:0:0:
331,228,16658,1,0,0:0:0:0:
331,228,16743,1,0,0:0:0:0:
331,228,16828,5,6,0:0:0:0:
287,334,16999,1,0,0:0:0:0:
142,158,17169,1,10,0:0:0:0:
373,118,17340,1,10,0:1:0:0:
331,228,17510,5,0,0:1:0:0:
142,158,17680,1,2,0:0:0:0:
260,138,17851,1,8,0:1:0:0:
172,348,18021,1,2,0:0:0:0:
184,52,18192,5,4,0:0:0:0:
331,228,18362,2,0,L|406:217,1,76.4999976654053,2|10,0:0|0:0,0:0:0:0:
260,138,18703,1,8,0:1:0:0:
172,348,18874,5,10,0:1:0:0:
100,260,19044,1,8,0:1:0:0:
331,228,19215,1,10,0:0:0:0:
142,158,19385,1,0,0:0:0:0:
142,158,19470,1,0,0:0:0:0:
142,158,19555,6,0,L|66:148,1,76.4999976654053,6|0,0:0|0:0,0:0:0:0:
184,52,19896,1,10,0:0:0:0:
331,228,20067,2,0,L|320:303,1,76.4999976654053,10|0,0:1|0:0,0:0:0:0:
172,348,20408,5,10,0:1:0:0:
260,138,20578,1,8,0:1:0:0:
404,320,20749,1,2,0:0:0:0:
172,348,20919,6,0,L|59:334,1,114.749996498108,6|0,0:0|0:0,0:0:0:0:
16,260,21260,2,0,L|1:186,1,76.4999976654053,10|2,0:0|0:0,0:0:0:0:
331,228,21601,1,12,0:1:0:0:
172,348,21771,1,8,0:0:0:0:
142,158,21942,1,12,0:1:0:0:
400,180,22112,1,0,0:0:0:0:
372,156,22197,1,0,0:0:0:0:
344,144,22283,6,0,L|354:85,1,59.4999981842042,12|0,0:1|0:0,0:0:0:0:
276,12,22624,2,0,L|265:70,1,59.4999981842042,8|0,0:1|0:0,0:0:0:0:
172,96,22965,2,0,L|112:84,1,59.4999981842042,8|0,0:1|0:0,0:0:0:0:
12,96,23305,1,8,0:1:0:0:
16,216,23476,6,0,L|132:239,1,118.999996368408,2|0,0:0|0:0,0:0:0:0:
220,188,23987,1,8,0:1:0:0:
308,240,24158,2,0,L|326:357,1,118.999996368408,0|0,0:0|0:0,0:0:0:0:
428,368,24669,1,8,0:1:0:0:
428,368,25010,6,0,L|442:279,1,89.2499972763062,10|0,0:1|0:0,0:0:0:0:
440,264,25351,1,8,0:1:0:0:
308,240,25521,1,0,0:0:0:0:
292,120,25692,2,0,L|350:130,1,59.4999981842042,8|0,0:1|0:0,0:0:0:0:
256,24,26033,1,8,0:1:0:0:
152,80,26203,6,0,L|178:196,1,118.999996368408,0|0,0:0|0:0,0:0:0:0:
136,288,26715,2,0,L|77:276,1,59.4999981842042,8|0,0:1|0:0,0:0:0:0:
252,324,27055,1,10,0:1:0:0:
156,292,27226,1,0,0:0:0:0:
308,240,27396,1,10,0:1:0:0:
318,193,27481,1,0,0:0:0:0:
328,151,27566,1,0,0:0:0:0:
337,107,27651,1,0,0:0:0:0:
347,63,27737,5,8,0:1:0:0:
428,124,27908,1,0,0:0:0:0:
232,176,28078,2,0,L|252:88,1,89.2499972763062,10|0,0:1|0:0,0:0:0:0:
256,40,28418,2,0,L|197:51,1,59.4999981842042,8|0,0:1|0:0,0:0:0:0:
120,119,28759,2,0,P|110:148|103:177,1,59.4999981842042,8|0,0:1|0:0,0:0:0:0:
144,272,29100,1,8,0:1:0:0:
342,196,29271,6,0,P|290:169|232:176,1,118.999996368408,2|0,0:0|0:0,0:0:0:0:
144,272,29782,2,0,L|84:284,1,59.4999981842042,8|2,0:1|0:0,0:0:0:0:
4,100,30123,1,10,0:1:0:0:
40,192,30293,1,0,0:0:0:0:
194,165,30464,2,0,L|136:156,1,59.4999981842042,8|0,0:1|0:0,0:0:0:0:
136,156,30720,1,0,0:0:0:0:
136,156,30805,5,10,0:1:0:0:
280,116,30975,1,0,0:0:0:0:
312,292,31146,1,10,0:1:0:0:
342,196,31316,1,0,0:0:0:0:
212,312,31487,5,10,0:1:0:0:
244,216,31657,1,0,0:0:0:0:
412,272,31828,1,10,0:1:0:0:
380,368,31998,1,0,0:0:0:0:
244,216,32168,5,10,0:1:0:0:
380,104,32339,1,0,0:0:0:0:
312,292,32509,1,10,0:1:0:0:
280,116,32680,1,0,0:0:0:0:
412,272,32850,5,6,0:0:0:0:
404,296,32935,1,2,0:0:0:0:
396,320,33021,1,2,0:0:0:0:
388,344,33106,1,2,0:0:0:0:
380,368,33191,5,10,0:1:0:0:
352,316,33276,1,2,0:0:0:0:
304,280,33361,1,2,0:0:0:0:
244,288,33447,1,2,0:0:0:0:
200,324,33532,1,6,0:0:0:0:
200,324,33873,6,0,L|132:313,1,68,8|0,0:1|0:0,0:0:0:0:
29,186,34214,2,0,L|96:196,1,68,8|0,0:1|0:0,0:0:0:0:
164,96,34555,1,8,0:1:0:0:
296,128,34725,6,0,P|306:195|313:262,1,136,0|2,0:0|0:0,0:0:0:0:
252,360,35237,1,8,0:1:0:0:
152,300,35407,2,0,P|120:288|86:289,1,68,0|10,0:0|0:1,0:0:0:0:
252,360,35748,2,0,P|283:371|317:370,1,68,0|8,0:0|0:1,0:0:0:0:
416,308,36089,1,0,0:0:0:0:
364,184,36259,6,0,P|314:179|271:206,1,102,10|0,0:1|0:0,0:0:0:0:
252,236,36600,2,0,L|184:224,1,68,8|0,0:1|0:0,0:0:0:0:
97,27,36941,2,0,L|128:124,1,102,10|0,0:1|0:0,0:0:0:0:
117,155,37282,2,0,L|41:143,1,68,8|0,0:1|0:0,0:0:0:0:
100,368,37623,5,10,0:1:0:0:
64,260,37793,1,0,0:0:0:0:
117,155,37964,5,8,0:1:0:0:
180,252,38134,1,0,0:0:0:0:
336,88,38305,5,10,0:1:0:0:
228,128,38475,1,0,0:0:0:0:
372,280,38646,1,8,0:1:0:0:
380,256,38731,1,0,0:0:0:0:
388,228,38816,1,0,0:0:0:0:
396,200,38901,1,0,0:0:0:0:
404,172,38986,5,10,0:1:0:0:
488,228,39157,1,0,0:0:0:0:
432,76,39328,1,10,0:1:0:0:
316,148,39498,2,0,L|249:133,1,68,2|8,0:0|0:1,0:0:0:0:
129,51,39839,2,0,L|196:36,1,68,2|8,0:0|0:1,0:0:0:0:
155,204,40180,6,0,P|89:208|36:168,1,136,2|2,0:0|0:0,0:0:0:0:
71,60,40691,2,0,P|103:72|126:97,1,68,10|0,0:1|0:0,0:0:0:0:
140,320,41032,2,0,P|186:299|235:307,1,102,10|0,0:1|0:0,0:0:0:0:
268,316,41373,2,0,L|335:304,1,68,10|0,0:1|0:0,0:0:0:0:
456,176,41714,6,0,P|418:141|370:127,1,102,8|0,0:1|0:0,0:0:0:0:
352,132,42055,1,10,0:1:0:0:
243,167,42225,2,0,P|210:164|177:156,1,68,2|8,0:0|0:1,0:0:0:0:
93,287,42566,2,0,P|125:276|159:272,1,68,2|8,0:0|0:1,0:0:0:0:
268,316,42907,1,2,0:0:0:0:
468,273,43078,6,0,P|430:241|380:236,1,102,10|0,0:1|0:0,0:0:0:0:
364,244,43418,1,10,0:1:0:0:
336,356,43589,1,0,0:0:0:0:
240,288,43759,2,0,P|209:275|176:271,1,68,14|0,0:1|0:0,0:0:0:0:
39,361,44100,2,0,P|72:357|104:344,1,68,14|0,0:1|0:0,0:0:0:0:
194,118,44441,5,4,0:0:0:0:
194,118,44782,1,0,0:0:0:0:
240,288,44953,1,0,0:0:0:0:
217,203,45123,1,2,0:0:0:0:
217,203,45464,1,2,0:0:0:0:
263,373,45805,6,0,P|306:346|356:336,1,101.999996887207,2|0,0:0|0:0,0:0:0:0:
402,262,46316,1,0,0:0:0:0:
336,208,46487,2,0,L|324:257,1,50.9999984436036,2|0,0:0|0:0,0:0:0:0:
239,142,46828,2,0,L|252:192,1,50.9999984436036,2|0,0:0|0:0,0:0:0:0:
192,300,47168,6,0,P|147:275|97:280,1,101.999996887207,2|2,0:0|0:0,0:0:0:0:
24,328,47680,1,0,0:0:0:0:
24,240,47850,2,0,P|15:215|12:190,1,50.9999984436036,2|0,0:0|0:0,0:0:0:0:
52,116,48191,2,0,P|76:123|101:126,1,50.9999984436036,0|0,0:0|0:0,0:0:0:0:
224,60,48532,6,0,P|202:105|207:155,1,101.999996887207,2|2,0:0|0:0,0:0:0:0:
248,232,49043,2,0,L|348:246,1,101.999996887207,0|0,0:0|0:0,0:0:0:0:
428,212,49555,1,0,0:0:0:0:
360,160,49725,1,0,0:0:0:0:
420,300,49896,6,0,P|380:330|329:333,1,101.999996887207,2|2,0:0|0:0,0:0:0:0:
244,324,50407,1,0,0:0:0:0:
160,300,50578,2,0,P|134:302|110:309,1,50.9999984436036,2|0,0:0|0:0,0:0:0:0:
43,210,50918,2,0,P|66:219|92:224,1,50.9999984436036,2|0,0:0|0:0,0:0:0:0:
384,84,51259,6,0,P|334:81|294:112,1,101.999996887207,10|0,0:1|0:0,0:0:0:0:
200,160,51771,2,0,L|99:141,1,101.999996887207,10|0,0:1|0:0,0:0:0:0:
256,244,52282,1,12,0:1:0:0:
208,316,52453,1,2,0:0:0:0:
99,141,52623,5,12,0:1:0:0:
12,220,52793,1,0,0:0:0:0:
12,220,52879,1,0,0:0:0:0:
12,220,52964,2,0,L|78:233,1,68,10|0,0:0|0:0,0:0:0:0:
200,160,53305,1,10,0:1:0:0:
256,244,53475,1,10,0:1:0:0:
388,216,53646,2,0,L|403:149,1,68,8|0,0:0|0:0,0:0:0:0:
382,78,53901,1,0,0:0:0:0:
382,78,53987,6,0,P|331:77|289:105,1,102,12|0,0:1|0:0,0:0:0:0:
271,177,54328,2,0,L|256:244,1,68,8|0,0:0|0:0,0:0:0:0:
272,336,54668,1,8,0:1:0:0:
363,309,54839,1,8,0:1:0:0:
183,303,55009,2,0,P|168:273|160:240,1,68,8|0,0:0|0:0,0:0:0:0:
174,165,55265,1,0,0:0:0:0:
174,165,55350,6,0,P|191:135|202:103,1,68,12|0,0:1|0:0,0:0:0:0:
160,20,55691,1,10,0:0:0:0:
60,116,55862,2,0,L|80:252,1,136,8|8,0:1|0:1,0:0:0:0:
135,335,56373,2,0,L|200:356,1,68,8|0,0:0|0:0,0:0:0:0:
308,172,56714,5,4,0:0:0:0:
432,336,56884,1,4,0:0:0:0:
432,336,57225,5,8,1:2:0:0:
509,254,57396,1,8,0:0:0:0:
464,228,57481,1,8,0:0:0:0:
412,224,57566,1,8,0:0:0:0:
364,244,57651,1,8,0:0:0:0:
320,268,57737,1,8,0:0:0:0:
268,260,57822,1,8,0:0:0:0:
228,228,57907,1,8,0:0:0:0:
212,180,57992,1,8,0:0:0:0:
220,132,58078,6,0,L|245:7,1,127.5,4|0,0:0|0:0,0:0:0:0:
204,4,58418,2,0,L|121:24,1,85,8|0,0:0|0:0,0:0:0:0:
312,96,58759,1,8,0:1:0:0:
228,228,58930,1,10,0:1:0:0:
328,76,59100,1,8,0:0:0:0:
452,192,59271,6,0,L|415:358,1,170,12|8,0:1|0:1,0:0:0:0:
280,372,59782,1,8,0:0:0:0:
196,244,59953,1,0,0:0:0:0:
196,244,60038,1,0,0:0:0:0:
196,243,60123,2,0,P|236:231|278:231,1,85,8|8,0:1|0:1,0:0:0:0:
160,351,60464,2,0,P|96:352|36:332,1,127.5,8|0,0:0|0:0,0:0:0:0:
12,292,60805,5,12,0:1:0:0:
128,148,60975,1,0,0:0:0:0:
196,244,61146,1,8,0:0:0:0:
12,172,61316,1,0,0:0:0:0:
136,28,61487,2,0,P|177:36|210:62,1,85,8|8,0:1|0:1,0:0:0:0:
292,212,61828,1,8,0:0:0:0:
442,83,61998,6,0,P|362:63|296:111,1,170,12|8,0:1|0:1,0:0:0:0:
272,356,62509,1,8,0:0:0:0:
332,272,62680,2,0,P|251:253|180:304,1,170,4|8,0:0|0:1,0:0:0:0:
28,228,63191,1,8,0:0:0:0:
244,104,63362,1,0,0:0:0:0:
244,104,63447,1,0,0:0:0:0:
244,104,63532,5,12,0:1:0:0:
292,212,63703,1,8,0:1:0:0:
196,284,63873,2,0,P|154:276|114:260,1,85,8|0,0:0|0:0,0:0:0:0:
92,32,64214,1,8,0:1:0:0:
72,148,64384,1,10,0:1:0:0:
184,104,64555,2,0,P|224:91|266:91,1,85,8|8,0:0|0:1,0:0:0:0:
392,140,64896,5,0,0:0:0:0:
348,268,65066,1,10,0:1:0:0:
220,216,65237,1,8,0:0:0:0:
392,140,65407,1,8,0:1:0:0:
392,140,65492,1,8,0:0:0:0:
392,140,65578,1,8,0:1:0:0:
196,228,65748,1,8,0:1:0:0:
364,344,65918,1,8,0:0:0:0:
392,140,66089,1,8,0:1:0:0:
252,328,66259,5,4,0:0:0:0:
468,304,66430,1,10,0:0:0:0:
495,261,66515,1,8,0:0:0:0:
496,212,66600,1,10,0:0:0:0:
308,348,66771,5,6,0:0:0:0:
376,188,66941,1,8,0:0:0:0:
392,140,67026,1,8,0:0:0:0:
380,92,67111,1,8,0:0:0:0:
200,352,67282,5,4,0:0:0:0:
261,155,67453,1,8,0:0:0:0:
264,104,67538,1,8,0:0:0:0:
240,61,67623,1,8,0:0:0:0:
208,24,67708,1,8,0:0:0:0:
160,12,67793,1,8,0:0:0:0:
108,16,67879,1,8,0:0:0:0:
64,44,67964,1,8,0:0:0:0:
40,88,68049,1,8,0:0:0:0:
32,136,68134,1,8,0:0:0:0:
48,184,68220,1,8,0:0:0:0:
76,224,68305,6,0,L|67:265,1,42.5,8|8,0:0|0:0,0:0:0:0:
192,349,68475,2,0,L|184:308,1,42.5,8|8,0:0|0:0,0:0:0:0:
308,276,68646,2,0,L|349:283,1,42.5,8|8,0:0|0:0,0:0:0:0:
401,162,68816,2,0,L|360:156,1,42.5,8|8,0:0|0:0,0:0:0:0:
144,120,68987,6,0,L|160:204,1,85,6|0,0:0|0:0,0:0:0:0:
268,344,69328,2,0,L|352:360,1,85,8|0,0:0|0:0,0:0:0:0:
492,216,69668,1,8,0:1:0:0:
279,151,69839,1,8,0:1:0:0:
351,359,70009,1,8,0:0:0:0:
76,244,70180,6,0,P|149:206|229:229,1,170,10|8,0:1|0:1,0:0:0:0:
308,364,70691,1,8,0:0:0:0:
160,316,70862,1,0,0:0:0:0:
340,208,71032,2,0,P|345:165|349:123,1,85,10|8,0:1|0:1,0:0:0:0:
176,24,71373,2,0,P|166:87|160:150,1,127.5,8|0,0:0|0:0,0:0:0:0:
164,172,71714,5,12,0:1:0:0:
348,123,71884,1,0,0:0:0:0:
268,296,72055,2,0,L|184:284,1,85,8|0,0:0|0:0,0:0:0:0:
48,88,72396,1,8,0:1:0:0:
164,172,72566,1,8,0:1:0:0:
16,252,72737,1,10,0:0:0:0:
148,67,72907,6,0,P|228:83|267:155,1,170,12|8,0:1|0:1,0:0:0:0:
224,320,73418,1,8,0:0:0:0:
100,204,73589,1,0,0:0:0:0:
264,240,73759,1,12,0:1:0:0:
176,92,73930,1,8,0:1:0:0:
164,260,74100,1,10,0:0:0:0:
236,156,74271,1,0,0:0:0:0:
152,372,74441,5,12,0:1:0:0:
100,204,74612,1,8,0:1:0:0:
264,240,74782,2,0,P|305:249|347:258,1,85,8|0,0:0|0:0,0:0:0:0:
440,108,75123,1,8,0:1:0:0:
476,316,75293,1,8,0:1:0:0:
476,316,75379,1,8,0:1:0:0:
476,316,75464,1,8,0:0:0:0:
347,258,75634,1,0,0:0:0:0:
436,132,75805,6,0,P|445:90|452:48,1,85,0|10,0:0|0:1,0:0:0:0:
256,8,76146,1,8,0:0:0:0:
340,224,76316,1,8,0:1:0:0:
340,224,76401,1,8,0:0:0:0:
340,224,76487,1,8,0:1:0:0:
216,152,76657,1,8,0:1:0:0:
340,80,76828,1,8,0:0:0:0:
340,224,76998,1,0,0:0:0:0:
200,324,77168,6,0,P|157:318|115:311,1,85,4|2,0:0|0:0,0:0:0:0:
32,108,77509,1,8,0:0:0:0:
144,240,77680,1,4,0:0:0:0:
16,196,77850,1,8,0:1:0:0:
40,332,78021,1,8,0:1:0:0:
244,232,78191,1,8,0:0:0:0:
32,108,78362,1,4,0:0:0:0:
120,324,78532,5,10,0:1:0:0:
244,232,78703,1,8,0:1:0:0:
16,196,78873,5,8,0:0:0:0:
228,324,79043,1,8,0:0:0:0:
279,321,79129,1,8,0:0:0:0:
319,290,79214,1,8,0:0:0:0:
337,242,79299,1,8,0:0:0:0:
325,192,79384,1,8,0:0:0:0:
289,154,79470,1,8,0:0:0:0:
239,142,79555,1,8,0:0:0:0:
191,160,79640,1,8,0:0:0:0:
158,199,79725,1,8,0:0:0:0:
121,234,79810,1,8,0:0:0:0:
72,248,79896,5,8,0:0:0:0:
146,63,80066,1,8,0:0:0:0:
222,248,80237,1,8,0:0:0:0:
39,171,80407,1,8,0:0:0:0:
222,95,80578,5,8,0:0:0:0:
146,278,80748,1,8,0:0:0:0:
72,95,80918,1,8,0:0:0:0:
254,171,81089,1,8,0:0:0:0:
56,260,81259,5,8,0:0:0:0:
53,77,81430,1,8,0:0:0:0:
273,168,81600,1,8,0:0:0:0:
145,296,81771,1,8,0:0:0:0:
145,40,81941,5,8,0:0:0:0:
236,257,82112,1,8,0:0:0:0:
17,168,82282,1,8,0:0:0:0:
236,77,82453,1,10,0:0:0:0:
236,77,82538,1,2,0:0:0:0:
236,77,82623,5,8,0:0:0:0:
376,328,82793,1,8,0:0:0:0:
161,205,82964,1,8,0:0:0:0:
376,81,83134,1,8,0:0:0:0:
232,327,83305,5,8,0:0:0:0:
447,205,83475,1,8,0:0:0:0:
192,60,83646,1,8,0:0:0:0:
270,357,83816,1,8,0:0:0:0:
490,139,83987,5,8,0:0:0:0:
144,232,84157,1,8,0:0:0:0:
443,311,84328,1,8,0:0:0:0:
364,13,84498,1,8,0:0:0:0:
228,240,84668,6,0,L|272:251,1,42.5,8|8,0:0|0:0,0:0:0:0:
368,168,84839,2,0,L|324:157,1,42.5,8|0,0:0|0:0,0:0:0:0:
