osu file format v12

[General]
AudioFilename: Nakae Mitsuki - Pure Love, True Love.mp3
AudioLeadIn: 0
PreviewTime: 55819
Countdown: 0
SampleSet: Normal
StackLeniency: 0.7
Mode: 1
LetterboxInBreaks: 1
EpilepsyWarning: 1
CountdownOffset: 3
WidescreenStoryboard: 0

[Editor]
DistanceSpacing: 1.4
BeatDivisor: 4
GridSize: 32

[Metadata]
Title:Pure Love, True Love
TitleUnicode:Pure Love, True Love
Artist:Nakae Mitsuki
ArtistUnicode:中恵光城
Creator:El SolarBeam
Version:Muzukashii
Source:LOVELY QUEST
Tags:hook hooksoft meis clauson sumita mao eroge gal visual novel opening hatsune lavander nardoxyribonucleic ts8zs ラブリークエスト ラブクエ
BeatmapID:321111
BeatmapSetID:123687

[Difficulty]
HPDrainRate:4
CircleSize:5
OverallDifficulty:4
ApproachRate:5
SliderMultiplier:1.4
SliderTickRate:2

[Events]
//Background and Video events
0,0,"background.jpg",0,0
//Break Periods
//Storyboard Layer 0 (Background)
//Storyboard Layer 1 (Fail)
//Storyboard Layer 2 (Pass)
//Storyboard Layer 3 (Foreground)
Sprite,Foreground,Centre,"lyrics\creator.png",320,240 M,0,160584,160693,219,113,308,113 S,0,160584,163519,0.8100644 M,0,160693,163628,308,113,407,113 S,0,163519,,0.8100644 F,0,163519,163628,1,0 V,0,163519,163628,1,1,0.1,1
//Storyboard Sound Samples
//Background Colour Transformations
3,100,23,139,255

[TimingPoints]
595,434.782608695652,4,1,1,60,1,0
11029,-100,4,1,1,45,0,0
14073,-100,4,1,1,30,0,0
14508,-100,4,1,1,60,0,0
28421,-100,4,1,1,70,0,0
42334,-100,4,1,1,80,0,0
56247,-90.9090909090909,4,1,1,90,0,1
80594,-90.9090909090909,4,1,1,80,0,0
81029,-100,4,1,1,80,0,0
91029,-100,4,1,1,60,0,0
103203,-100,4,1,1,45,0,0
104942,-100,4,1,1,70,0,0
118855,-100,4,1,1,80,0,0
132768,-90.9090909090909,4,1,1,90,0,1
157116,-90.9090909090909,4,1,1,80,0,0
157551,-100,4,1,1,70,0,0
160594,-100,4,1,1,80,0,0
167551,-100,4,1,1,60,0,0
191899,-100,4,1,1,45,0,0
195377,-100,4,1,1,50,0,0
205812,-100,4,1,1,80,0,0
219725,-90.9090909090909,4,1,1,90,0,1
244073,-90.9090909090909,4,1,1,90,0,0
244508,-100,4,1,1,90,0,0
254508,-100,4,1,1,70,0,0
254942,-100,4,1,1,60,0,0
255377,-100,4,1,1,50,0,0
255812,-100,4,1,1,40,0,0
256247,-100,4,1,1,30,0,0
256681,-100,4,1,1,20,0,0
257116,-100,4,1,1,10,0,0
257551,-100,4,1,1,5,0,0

[Colours]
Combo1 : 255,172,47
Combo2 : 85,255,85
Combo3 : 0,232,232
Combo4 : 251,49,49
Combo5 : 163,70,255

[HitObjects]
256,192,595,1,0,0:0:0:0:
256,192,1029,1,8,0:0:0:0:
256,192,1464,1,0,0:0:0:0:
256,192,1681,1,0,0:0:0:0:
256,192,1899,1,8,0:0:0:0:
256,192,2334,1,0,0:0:0:0:
256,192,2551,1,0,0:0:0:0:
256,192,2768,1,8,0:0:0:0:
256,192,3203,1,0,0:0:0:0:
256,192,3421,1,8,0:0:0:0:
256,192,3638,1,8,0:0:0:0:
256,192,4073,1,0,0:0:0:0:
256,192,4508,1,8,0:0:0:0:
256,192,4942,1,0,0:0:0:0:
256,192,5377,1,8,0:0:0:0:
256,192,5594,1,0,0:0:0:0:
256,192,6029,1,8,0:0:0:0:
256,192,6464,1,8,0:0:0:0:
256,192,6899,1,8,0:0:0:0:
256,192,7116,1,0,0:0:0:0:
256,192,7551,1,0,0:0:0:0:
256,192,7986,1,8,0:0:0:0:
256,192,8421,1,0,0:0:0:0:
256,192,8638,1,0,0:0:0:0:
256,192,8855,1,8,0:0:0:0:
256,192,9290,1,0,0:0:0:0:
256,192,9508,1,0,0:0:0:0:
256,192,9725,1,8,0:0:0:0:
256,192,10160,1,0,0:0:0:0:
256,192,10377,1,8,0:0:0:0:
256,192,10594,1,8,0:0:0:0:
256,192,11029,1,0,0:0:0:0:
256,192,11464,1,0,0:0:0:0:
256,192,11899,1,8,0:0:0:0:
256,192,12116,1,8,0:0:0:0:
256,192,12334,1,0,0:0:0:0:
256,192,12551,8,4,14073,0:0:0:0:
256,192,14508,5,4,0:0:0:0:
256,192,14942,1,8,0:0:0:0:
256,192,15377,1,8,0:0:0:0:
256,192,15594,1,8,0:0:0:0:
256,192,15812,1,0,0:0:0:0:
256,192,16247,1,0,0:0:0:0:
256,192,16681,1,8,0:0:0:0:
256,192,17116,1,0,0:0:0:0:
256,192,17334,1,0,0:0:0:0:
256,192,17551,1,8,0:0:0:0:
256,192,17986,1,0,0:0:0:0:
256,192,18421,1,8,0:0:0:0:
256,192,18855,1,8,0:0:0:0:
256,192,19073,1,8,0:0:0:0:
256,192,19290,1,0,0:0:0:0:
256,192,19725,1,0,0:0:0:0:
256,192,20160,1,8,0:0:0:0:
256,192,20594,1,0,0:0:0:0:
256,192,20812,1,0,0:0:0:0:
256,192,21029,1,8,0:0:0:0:
256,192,21464,1,0,0:0:0:0:
256,192,21899,1,8,0:0:0:0:
256,192,22334,1,0,0:0:0:0:
256,192,22551,1,0,0:0:0:0:
256,192,22768,1,8,0:0:0:0:
256,192,23203,1,0,0:0:0:0:
256,192,23638,1,8,0:0:0:0:
256,192,24073,1,8,0:0:0:0:
256,192,24290,1,8,0:0:0:0:
256,192,24508,1,0,0:0:0:0:
256,192,24942,1,0,0:0:0:0:
256,192,25377,1,8,0:0:0:0:
256,192,25812,1,0,0:0:0:0:
256,192,26029,1,0,0:0:0:0:
256,192,26247,1,8,0:0:0:0:
256,192,26464,1,0,0:0:0:0:
256,192,26899,1,0,0:0:0:0:
256,192,27116,1,8,0:0:0:0:
256,192,27334,1,0,0:0:0:0:
256,192,27551,1,8,0:0:0:0:
256,192,27768,1,8,0:0:0:0:
256,192,27986,1,8,0:0:0:0:
256,192,28421,1,4,0:0:0:0:
256,192,28855,1,8,0:0:0:0:
256,192,29290,1,0,0:0:0:0:
256,192,29508,1,0,0:0:0:0:
256,192,29725,1,8,0:0:0:0:
256,192,30160,1,0,0:0:0:0:
256,192,30594,1,8,0:0:0:0:
256,192,31029,1,0,0:0:0:0:
256,192,31247,1,8,0:0:0:0:
256,192,31464,1,0,0:0:0:0:
256,192,31899,1,4,0:0:0:0:
256,192,32334,1,8,0:0:0:0:
256,192,32768,1,0,0:0:0:0:
256,192,32986,1,0,0:0:0:0:
256,192,33203,1,8,0:0:0:0:
256,192,33638,1,0,0:0:0:0:
256,192,34073,1,8,0:0:0:0:
256,192,34508,1,0,0:0:0:0:
256,192,34725,1,8,0:0:0:0:
256,192,34942,1,8,0:0:0:0:
256,192,35377,1,4,0:0:0:0:
256,192,35812,1,8,0:0:0:0:
256,192,36247,1,0,0:0:0:0:
256,192,36464,1,0,0:0:0:0:
256,192,36681,1,8,0:0:0:0:
256,192,37116,1,0,0:0:0:0:
256,192,37551,1,8,0:0:0:0:
256,192,37986,1,0,0:0:0:0:
256,192,38203,1,0,0:0:0:0:
256,192,38421,1,8,0:0:0:0:
256,192,38855,1,4,0:0:0:0:
256,192,39290,1,8,0:0:0:0:
256,192,39725,1,0,0:0:0:0:
256,192,39942,1,0,0:0:0:0:
256,192,40160,1,8,0:0:0:0:
256,192,40377,1,0,0:0:0:0:
256,192,40812,1,0,0:0:0:0:
256,192,41029,1,8,0:0:0:0:
256,192,41464,1,8,0:0:0:0:
256,192,41681,1,8,0:0:0:0:
256,192,41790,1,8,0:0:0:0:
256,192,41899,1,8,0:0:0:0:
256,192,42116,1,0,0:0:0:0:
256,192,42334,1,4,0:0:0:0:
256,192,42768,1,8,0:0:0:0:
256,192,43203,1,0,0:0:0:0:
256,192,43421,1,0,0:0:0:0:
256,192,43638,1,8,0:0:0:0:
256,192,44073,1,0,0:0:0:0:
256,192,44508,1,8,0:0:0:0:
256,192,44942,1,0,0:0:0:0:
256,192,45160,1,0,0:0:0:0:
256,192,45377,1,8,0:0:0:0:
256,192,45812,1,0,0:0:0:0:
256,192,46247,1,8,0:0:0:0:
256,192,46681,1,0,0:0:0:0:
256,192,46899,1,0,0:0:0:0:
256,192,47116,1,8,0:0:0:0:
256,192,47334,1,0,0:0:0:0:
256,192,47768,1,0,0:0:0:0:
256,192,47986,1,8,0:0:0:0:
256,192,48203,1,0,0:0:0:0:
256,192,48638,1,0,0:0:0:0:
256,192,48855,1,8,0:0:0:0:
256,192,49073,1,8,0:0:0:0:
256,192,49181,1,8,0:0:0:0:
256,192,49290,1,0,0:0:0:0:
256,192,49725,1,8,0:0:0:0:
256,192,50160,1,0,0:0:0:0:
256,192,50377,1,0,0:0:0:0:
256,192,50594,1,8,0:0:0:0:
256,192,50812,1,0,0:0:0:0:
256,192,51247,1,0,0:0:0:0:
256,192,51464,1,8,0:0:0:0:
256,192,51899,1,0,0:0:0:0:
256,192,52116,1,0,0:0:0:0:
256,192,52334,1,8,0:0:0:0:
256,192,52768,1,4,0:0:0:0:
256,192,53203,1,8,0:0:0:0:
256,192,53638,1,0,0:0:0:0:
256,192,53855,1,0,0:0:0:0:
256,192,54073,1,8,0:0:0:0:
256,192,54290,1,0,0:0:0:0:
256,192,54725,1,4,0:0:0:0:
256,192,54942,1,4,0:0:0:0:
256,192,55377,1,0,0:0:0:0:
256,192,55812,1,8,0:0:0:0:
256,192,55921,1,8,0:0:0:0:
256,192,56029,1,8,0:0:0:0:
256,192,56247,1,4,0:0:0:0:
256,192,56681,1,8,0:0:0:0:
256,192,57116,1,0,0:0:0:0:
256,192,57334,1,0,0:0:0:0:
256,192,57551,1,8,0:0:0:0:
256,192,57986,1,0,0:0:0:0:
256,192,58421,1,8,0:0:0:0:
256,192,58855,1,0,0:0:0:0:
256,192,59073,1,0,0:0:0:0:
256,192,59290,1,8,0:0:0:0:
256,192,59725,1,0,0:0:0:0:
256,192,60160,1,8,0:0:0:0:
256,192,60594,1,0,0:0:0:0:
256,192,61029,1,8,0:0:0:0:
256,192,61247,1,0,0:0:0:0:
256,192,61681,1,0,0:0:0:0:
256,192,61899,1,8,0:0:0:0:
256,192,62116,1,0,0:0:0:0:
256,192,62551,1,0,0:0:0:0:
256,192,62768,1,8,0:0:0:0:
256,192,62986,1,8,0:0:0:0:
256,192,63094,1,8,0:0:0:0:
256,192,63203,1,8,0:0:0:0:
256,192,63638,1,8,0:0:0:0:
256,192,64073,1,0,0:0:0:0:
256,192,64290,1,0,0:0:0:0:
256,192,64508,1,8,0:0:0:0:
256,192,64942,1,0,0:0:0:0:
256,192,65377,1,8,0:0:0:0:
256,192,65812,1,0,0:0:0:0:
256,192,66029,1,0,0:0:0:0:
256,192,66247,1,8,0:0:0:0:
256,192,66681,1,0,0:0:0:0:
256,192,67116,1,8,0:0:0:0:
256,192,67334,1,0,0:0:0:0:
256,192,67768,1,0,0:0:0:0:
256,192,67986,1,8,0:0:0:0:
256,192,68203,1,0,0:0:0:0:
256,192,68638,1,0,0:0:0:0:
256,192,68855,1,8,0:0:0:0:
256,192,69290,1,8,0:0:0:0:
256,192,69508,1,8,0:0:0:0:
256,192,69725,1,0,0:0:0:0:
256,192,69834,1,0,0:0:0:0:
256,192,69942,1,0,0:0:0:0:
256,192,70160,1,4,0:0:0:0:
256,192,70594,1,8,0:0:0:0:
256,192,71029,1,0,0:0:0:0:
256,192,71247,1,0,0:0:0:0:
256,192,71464,1,8,0:0:0:0:
256,192,71899,1,0,0:0:0:0:
256,192,72334,1,8,0:0:0:0:
256,192,72768,1,0,0:0:0:0:
256,192,72986,1,0,0:0:0:0:
256,192,73203,1,8,0:0:0:0:
256,192,73638,1,0,0:0:0:0:
256,192,74073,1,8,0:0:0:0:
256,192,74508,1,0,0:0:0:0:
256,192,74942,1,8,0:0:0:0:
256,192,75160,1,0,0:0:0:0:
256,192,75594,1,0,0:0:0:0:
256,192,75812,1,8,0:0:0:0:
256,192,76029,1,0,0:0:0:0:
256,192,76464,1,0,0:0:0:0:
256,192,76681,1,8,0:0:0:0:
256,192,76899,1,8,0:0:0:0:
256,192,77008,1,8,0:0:0:0:
256,192,77116,1,8,0:0:0:0:
256,192,77551,1,0,0:0:0:0:
256,192,77986,1,8,0:0:0:0:
256,192,78203,1,0,0:0:0:0:
256,192,78421,1,8,0:0:0:0:
256,192,78638,1,8,0:0:0:0:
256,192,78855,1,12,0:0:0:0:
256,192,79073,1,12,0:0:0:0:
256,192,79725,1,0,0:0:0:0:
256,192,79942,1,8,0:0:0:0:
256,192,80160,1,0,0:0:0:0:
256,192,80268,1,0,0:0:0:0:
256,192,80377,1,0,0:0:0:0:
256,192,80594,1,0,0:0:0:0:
256,192,81029,1,8,0:0:0:0:
256,192,81464,1,0,0:0:0:0:
256,192,81681,1,0,0:0:0:0:
256,192,81899,1,8,0:0:0:0:
256,192,82334,1,0,0:0:0:0:
256,192,82768,1,8,0:0:0:0:
256,192,83203,1,0,0:0:0:0:
256,192,83421,1,0,0:0:0:0:
256,192,83638,1,8,0:0:0:0:
256,192,84073,1,0,0:0:0:0:
256,192,84508,1,8,0:0:0:0:
256,192,84942,1,0,0:0:0:0:
256,192,85377,1,8,0:0:0:0:
256,192,85594,1,0,0:0:0:0:
256,192,86029,1,8,0:0:0:0:
256,192,86464,1,8,0:0:0:0:
256,192,86899,1,8,0:0:0:0:
256,192,87116,1,0,0:0:0:0:
256,192,87551,1,0,0:0:0:0:
256,192,87986,1,8,0:0:0:0:
256,192,88421,1,0,0:0:0:0:
256,192,88638,1,0,0:0:0:0:
256,192,88855,1,8,0:0:0:0:
256,192,89290,1,0,0:0:0:0:
256,192,89725,1,8,0:0:0:0:
256,192,90160,1,8,0:0:0:0:
256,192,90377,1,8,0:0:0:0:
256,192,90594,1,0,0:0:0:0:
256,192,90812,1,8,0:0:0:0:
256,192,91029,1,0,0:0:0:0:
256,192,91464,1,8,0:0:0:0:
256,192,91899,1,0,0:0:0:0:
256,192,92116,1,0,0:0:0:0:
256,192,92334,1,8,0:0:0:0:
256,192,92768,1,0,0:0:0:0:
256,192,93203,1,8,0:0:0:0:
256,192,93638,1,8,0:0:0:0:
256,192,93855,1,0,0:0:0:0:
256,192,94073,1,0,0:0:0:0:
256,192,94508,1,0,0:0:0:0:
256,192,94942,1,8,0:0:0:0:
256,192,95377,1,0,0:0:0:0:
256,192,95594,1,0,0:0:0:0:
256,192,95812,1,8,0:0:0:0:
256,192,96247,1,0,0:0:0:0:
256,192,96681,1,8,0:0:0:0:
256,192,97116,1,0,0:0:0:0:
256,192,97334,1,8,0:0:0:0:
256,192,97551,1,8,0:0:0:0:
256,192,97986,1,0,0:0:0:0:
256,192,98421,1,8,0:0:0:0:
256,192,98855,1,0,0:0:0:0:
256,192,99073,1,0,0:0:0:0:
256,192,99290,1,8,0:0:0:0:
256,192,99725,1,0,0:0:0:0:
256,192,100160,1,8,0:0:0:0:
256,192,100594,1,8,0:0:0:0:
256,192,100812,1,8,0:0:0:0:
256,192,101029,1,0,0:0:0:0:
256,192,101464,1,0,0:0:0:0:
256,192,101899,1,8,0:0:0:0:
256,192,102334,1,0,0:0:0:0:
256,192,102551,1,0,0:0:0:0:
256,192,102768,1,8,0:0:0:0:
256,192,102986,1,0,0:0:0:0:
256,192,103203,8,0,104508,0:0:0:0:
256,192,104942,5,4,0:0:0:0:
256,192,105377,1,8,0:0:0:0:
256,192,105812,1,0,0:0:0:0:
256,192,106029,1,0,0:0:0:0:
256,192,106247,1,8,0:0:0:0:
256,192,106681,1,0,0:0:0:0:
256,192,107116,1,8,0:0:0:0:
256,192,107551,1,0,0:0:0:0:
256,192,107768,1,8,0:0:0:0:
256,192,107986,1,0,0:0:0:0:
256,192,108421,1,4,0:0:0:0:
256,192,108855,1,8,0:0:0:0:
256,192,109290,1,0,0:0:0:0:
256,192,109508,1,0,0:0:0:0:
256,192,109725,1,8,0:0:0:0:
256,192,110160,1,0,0:0:0:0:
256,192,110594,1,8,0:0:0:0:
256,192,111029,1,0,0:0:0:0:
256,192,111247,1,8,0:0:0:0:
256,192,111464,1,8,0:0:0:0:
256,192,111899,1,4,0:0:0:0:
256,192,112334,1,8,0:0:0:0:
256,192,112768,1,0,0:0:0:0:
256,192,112986,1,0,0:0:0:0:
256,192,113203,1,8,0:0:0:0:
256,192,113638,1,0,0:0:0:0:
256,192,114073,1,8,0:0:0:0:
256,192,114508,1,0,0:0:0:0:
256,192,114725,1,0,0:0:0:0:
256,192,114942,1,8,0:0:0:0:
256,192,115377,1,0,0:0:0:0:
256,192,115812,1,8,0:0:0:0:
256,192,116247,1,0,0:0:0:0:
256,192,116464,1,0,0:0:0:0:
256,192,116681,1,8,0:0:0:0:
256,192,116899,1,0,0:0:0:0:
256,192,117334,1,0,0:0:0:0:
256,192,117551,1,8,0:0:0:0:
256,192,117986,1,8,0:0:0:0:
256,192,118203,1,8,0:0:0:0:
256,192,118312,1,8,0:0:0:0:
256,192,118421,1,8,0:0:0:0:
256,192,118638,1,0,0:0:0:0:
256,192,118855,1,4,0:0:0:0:
256,192,119290,1,8,0:0:0:0:
256,192,119725,1,0,0:0:0:0:
256,192,119942,1,0,0:0:0:0:
256,192,120160,1,8,0:0:0:0:
256,192,120594,1,0,0:0:0:0:
256,192,121029,1,8,0:0:0:0:
256,192,121464,1,0,0:0:0:0:
256,192,121681,1,0,0:0:0:0:
256,192,121899,1,8,0:0:0:0:
256,192,122334,1,0,0:0:0:0:
256,192,122768,1,8,0:0:0:0:
256,192,123203,1,0,0:0:0:0:
256,192,123421,1,0,0:0:0:0:
256,192,123638,1,8,0:0:0:0:
256,192,123855,1,0,0:0:0:0:
256,192,124290,1,0,0:0:0:0:
256,192,124508,1,8,0:0:0:0:
256,192,124725,1,0,0:0:0:0:
256,192,125160,1,0,0:0:0:0:
256,192,125377,1,8,0:0:0:0:
256,192,125594,1,0,0:0:0:0:
256,192,125703,1,0,0:0:0:0:
256,192,125812,1,0,0:0:0:0:
256,192,126247,1,8,0:0:0:0:
256,192,126681,1,0,0:0:0:0:
256,192,126899,1,0,0:0:0:0:
256,192,127116,1,8,0:0:0:0:
256,192,127334,1,0,0:0:0:0:
256,192,127768,1,0,0:0:0:0:
256,192,127986,1,8,0:0:0:0:
256,192,128203,1,0,0:0:0:0:
256,192,128638,1,0,0:0:0:0:
256,192,128855,1,8,0:0:0:0:
256,192,129073,1,0,0:0:0:0:
256,192,129290,1,0,0:0:0:0:
256,192,129725,1,8,0:0:0:0:
256,192,130160,1,0,0:0:0:0:
256,192,130377,1,0,0:0:0:0:
256,192,130594,1,8,0:0:0:0:
256,192,130812,1,0,0:0:0:0:
256,192,131247,1,12,0:0:0:0:
256,192,131464,1,12,0:0:0:0:
256,192,131899,1,0,0:0:0:0:
256,192,132334,1,8,0:0:0:0:
256,192,132442,1,8,0:0:0:0:
256,192,132551,1,8,0:0:0:0:
256,192,132768,1,4,0:0:0:0:
256,192,133203,1,8,0:0:0:0:
256,192,133638,1,0,0:0:0:0:
256,192,133855,1,0,0:0:0:0:
256,192,134073,1,8,0:0:0:0:
256,192,134508,1,0,0:0:0:0:
256,192,134942,1,8,0:0:0:0:
256,192,135377,1,0,0:0:0:0:
256,192,135594,1,0,0:0:0:0:
256,192,135812,1,8,0:0:0:0:
256,192,136247,1,0,0:0:0:0:
256,192,136681,1,8,0:0:0:0:
256,192,137116,1,0,0:0:0:0:
256,192,137551,1,8,0:0:0:0:
256,192,137768,1,0,0:0:0:0:
256,192,138203,1,0,0:0:0:0:
256,192,138421,1,8,0:0:0:0:
256,192,138638,1,0,0:0:0:0:
256,192,139073,1,0,0:0:0:0:
256,192,139290,1,8,0:0:0:0:
256,192,139508,1,0,0:0:0:0:
256,192,139616,1,0,0:0:0:0:
256,192,139725,1,0,0:0:0:0:
256,192,140160,1,8,0:0:0:0:
256,192,140594,1,0,0:0:0:0:
256,192,140812,1,0,0:0:0:0:
256,192,141029,1,8,0:0:0:0:
256,192,141464,1,0,0:0:0:0:
256,192,141899,1,8,0:0:0:0:
256,192,142334,1,0,0:0:0:0:
256,192,142551,1,0,0:0:0:0:
256,192,142768,1,8,0:0:0:0:
256,192,143203,1,0,0:0:0:0:
256,192,143638,1,8,0:0:0:0:
256,192,143855,1,0,0:0:0:0:
256,192,144290,1,0,0:0:0:0:
256,192,144508,1,8,0:0:0:0:
256,192,144725,1,0,0:0:0:0:
256,192,145160,1,0,0:0:0:0:
256,192,145377,1,8,0:0:0:0:
256,192,145812,1,0,0:0:0:0:
256,192,146029,1,0,0:0:0:0:
256,192,146247,1,8,0:0:0:0:
256,192,146355,1,8,0:0:0:0:
256,192,146464,1,8,0:0:0:0:
256,192,146681,1,4,0:0:0:0:
256,192,147116,1,8,0:0:0:0:
256,192,147551,1,0,0:0:0:0:
256,192,147768,1,0,0:0:0:0:
256,192,147986,1,8,0:0:0:0:
256,192,148421,1,0,0:0:0:0:
256,192,148855,1,8,0:0:0:0:
256,192,149290,1,0,0:0:0:0:
256,192,149508,1,0,0:0:0:0:
256,192,149725,1,8,0:0:0:0:
256,192,150160,1,0,0:0:0:0:
256,192,150594,1,8,0:0:0:0:
256,192,151029,1,0,0:0:0:0:
256,192,151464,1,8,0:0:0:0:
256,192,151681,1,0,0:0:0:0:
256,192,152116,1,0,0:0:0:0:
256,192,152334,1,8,0:0:0:0:
256,192,152551,1,0,0:0:0:0:
256,192,152986,1,0,0:0:0:0:
256,192,153203,1,8,0:0:0:0:
256,192,153421,1,0,0:0:0:0:
256,192,153529,1,0,0:0:0:0:
256,192,153638,1,0,0:0:0:0:
256,192,154073,1,12,0:0:0:0:
256,192,154508,1,0,0:0:0:0:
256,192,154725,1,0,0:0:0:0:
256,192,154942,1,8,0:0:0:0:
256,192,155160,1,0,0:0:0:0:
256,192,155377,1,12,0:0:0:0:
256,192,155594,1,12,0:0:0:0:
256,192,156247,1,8,0:0:0:0:
256,192,156464,1,0,0:0:0:0:
256,192,156681,1,8,0:0:0:0:
256,192,156790,1,8,0:0:0:0:
256,192,156899,1,8,0:0:0:0:
256,192,157116,8,4,160160,0:0:0:0:
256,192,160594,5,0,0:0:0:0:
256,192,161029,1,8,0:0:0:0:
256,192,161464,1,0,0:0:0:0:
256,192,161899,1,8,0:0:0:0:
256,192,162116,1,0,0:0:0:0:
256,192,162551,1,0,0:0:0:0:
256,192,162768,1,8,0:0:0:0:
256,192,162986,1,0,0:0:0:0:
256,192,163421,1,0,0:0:0:0:
256,192,163638,1,8,0:0:0:0:
256,192,163855,1,0,0:0:0:0:
256,192,163964,1,0,0:0:0:0:
256,192,164073,1,0,0:0:0:0:
256,192,164508,1,8,0:0:0:0:
256,192,164942,1,0,0:0:0:0:
256,192,165160,1,0,0:0:0:0:
256,192,165377,1,8,0:0:0:0:
256,192,165812,1,0,0:0:0:0:
256,192,166247,1,8,0:0:0:0:
256,192,166464,1,0,0:0:0:0:
256,192,166681,1,0,0:0:0:0:
256,192,166899,1,8,0:0:0:0:
256,192,167116,1,0,0:0:0:0:
256,192,167334,1,0,0:0:0:0:
256,192,167442,1,0,0:0:0:0:
256,192,167551,1,0,0:0:0:0:
256,192,167986,1,8,0:0:0:0:
256,192,168421,1,0,0:0:0:0:
256,192,168638,1,0,0:0:0:0:
256,192,168855,1,8,0:0:0:0:
256,192,169290,1,0,0:0:0:0:
256,192,169725,1,8,0:0:0:0:
256,192,170160,1,0,0:0:0:0:
256,192,170377,1,0,0:0:0:0:
256,192,170594,1,8,0:0:0:0:
256,192,171029,1,0,0:0:0:0:
256,192,171464,1,8,0:0:0:0:
256,192,171899,1,0,0:0:0:0:
256,192,172116,1,0,0:0:0:0:
256,192,172334,1,8,0:0:0:0:
256,192,172768,1,0,0:0:0:0:
256,192,173203,1,8,0:0:0:0:
256,192,173638,1,0,0:0:0:0:
256,192,173855,1,0,0:0:0:0:
256,192,174073,1,8,0:0:0:0:
256,192,174290,1,0,0:0:0:0:
256,192,174399,1,0,0:0:0:0:
256,192,174508,1,2,0:0:0:0:
256,192,174942,1,8,0:0:0:0:
256,192,175377,1,0,0:0:0:0:
256,192,175594,1,0,0:0:0:0:
256,192,175812,1,8,0:0:0:0:
256,192,176247,1,0,0:0:0:0:
256,192,176681,1,8,0:0:0:0:
256,192,177116,1,0,0:0:0:0:
256,192,177334,1,0,0:0:0:0:
256,192,177551,1,8,0:0:0:0:
256,192,177986,1,0,0:0:0:0:
256,192,178421,1,8,0:0:0:0:
256,192,178855,1,0,0:0:0:0:
256,192,179073,1,0,0:0:0:0:
256,192,179290,1,8,0:0:0:0:
256,192,179725,1,0,0:0:0:0:
256,192,180160,1,8,0:0:0:0:
256,192,180594,1,0,0:0:0:0:
256,192,180812,1,0,0:0:0:0:
256,192,181029,1,8,0:0:0:0:
256,192,181247,1,0,0:0:0:0:
256,192,181355,1,0,0:0:0:0:
256,192,181464,1,2,0:0:0:0:
256,192,181899,1,8,0:0:0:0:
256,192,182334,1,0,0:0:0:0:
256,192,182768,1,8,0:0:0:0:
256,192,182986,1,0,0:0:0:0:
256,192,183421,1,0,0:0:0:0:
256,192,183638,1,8,0:0:0:0:
256,192,184073,1,0,0:0:0:0:
256,192,184290,1,0,0:0:0:0:
256,192,184508,1,8,0:0:0:0:
256,192,184942,1,0,0:0:0:0:
256,192,185377,1,8,0:0:0:0:
256,192,185812,1,0,0:0:0:0:
256,192,186029,1,0,0:0:0:0:
256,192,186247,1,8,0:0:0:0:
256,192,186464,1,0,0:0:0:0:
256,192,186899,1,8,0:0:0:0:
256,192,187334,1,0,0:0:0:0:
256,192,187768,1,8,0:0:0:0:
256,192,187986,1,0,0:0:0:0:
256,192,188203,1,0,0:0:0:0:
256,192,188312,1,0,0:0:0:0:
256,192,188421,1,2,0:0:0:0:
256,192,188855,1,8,0:0:0:0:
256,192,189290,1,0,0:0:0:0:
256,192,189725,1,8,0:0:0:0:
256,192,189942,1,0,0:0:0:0:
256,192,190377,1,8,0:0:0:0:
256,192,190594,1,0,0:0:0:0:
256,192,191029,1,8,0:0:0:0:
256,192,191247,1,8,0:0:0:0:
256,192,191464,1,0,0:0:0:0:
256,192,191899,8,4,193203,0:0:0:0:
256,192,193638,5,4,0:0:0:0:
256,192,194508,1,8,0:0:0:0:
256,192,194725,1,0,0:0:0:0:
256,192,195377,1,8,0:0:0:0:
256,192,195812,1,8,0:0:0:0:
256,192,196247,1,0,0:0:0:0:
256,192,196464,1,0,0:0:0:0:
256,192,196681,1,8,0:0:0:0:
256,192,197116,1,8,0:0:0:0:
256,192,197551,1,8,0:0:0:0:
256,192,197986,1,0,0:0:0:0:
256,192,198203,1,0,0:0:0:0:
256,192,198421,1,8,0:0:0:0:
256,192,198855,1,8,0:0:0:0:
256,192,199290,1,8,0:0:0:0:
256,192,199725,1,0,0:0:0:0:
256,192,200160,1,8,0:0:0:0:
256,192,200377,1,0,0:0:0:0:
256,192,200812,1,8,0:0:0:0:
256,192,201029,1,0,0:0:0:0:
256,192,201464,1,8,0:0:0:0:
256,192,201681,1,8,0:0:0:0:
256,192,201899,1,0,0:0:0:0:
256,192,202116,1,8,0:0:0:0:
256,192,202225,1,8,0:0:0:0:
256,192,202334,1,8,0:0:0:0:
256,192,202768,1,8,0:0:0:0:
256,192,203203,1,0,0:0:0:0:
256,192,203638,1,8,0:0:0:0:
256,192,203855,1,8,0:0:0:0:
256,192,204073,1,0,0:0:0:0:
256,192,204508,1,8,0:0:0:0:
256,192,204942,1,0,0:0:0:0:
256,192,205377,1,8,0:0:0:0:
256,192,205594,1,0,0:0:0:0:
256,192,205703,1,0,0:0:0:0:
256,192,205812,1,0,0:0:0:0:
256,192,206247,1,8,0:0:0:0:
256,192,206464,1,0,0:0:0:0:
256,192,206899,1,8,0:0:0:0:
256,192,207116,1,8,0:0:0:0:
256,192,207334,1,0,0:0:0:0:
256,192,207768,1,0,0:0:0:0:
256,192,207986,1,8,0:0:0:0:
256,192,208421,1,0,0:0:0:0:
256,192,208638,1,8,0:0:0:0:
256,192,208747,1,8,0:0:0:0:
256,192,208855,1,8,0:0:0:0:
256,192,209073,1,8,0:0:0:0:
256,192,209181,1,8,0:0:0:0:
256,192,209290,1,8,0:0:0:0:
256,192,209725,1,8,0:0:0:0:
256,192,210160,1,0,0:0:0:0:
256,192,210377,1,0,0:0:0:0:
256,192,210594,1,8,0:0:0:0:
256,192,211029,1,0,0:0:0:0:
256,192,211464,1,8,0:0:0:0:
256,192,211899,1,0,0:0:0:0:
256,192,212116,1,0,0:0:0:0:
256,192,212334,1,8,0:0:0:0:
256,192,212768,1,0,0:0:0:0:
256,192,213203,1,8,0:0:0:0:
256,192,213638,1,0,0:0:0:0:
256,192,214073,1,8,0:0:0:0:
256,192,214290,1,4,0:0:0:0:
256,192,214725,1,8,0:0:0:0:
256,192,214942,1,8,0:0:0:0:
256,192,215160,1,4,0:0:0:0:
256,192,215594,1,0,0:0:0:0:
256,192,215812,1,8,0:0:0:0:
256,192,216029,1,8,0:0:0:0:
256,192,216138,1,8,0:0:0:0:
256,192,216247,1,8,0:0:0:0:
256,192,216681,1,8,0:0:0:0:
256,192,217116,1,8,0:0:0:0:
256,192,217334,1,0,0:0:0:0:
256,192,217551,1,8,0:0:0:0:
256,192,217768,1,8,0:0:0:0:
256,192,217986,8,0,218855,0:0:0:0:
256,192,219073,5,0,0:0:0:0:
256,192,219290,1,8,0:0:0:0:
256,192,219399,1,8,0:0:0:0:
256,192,219508,1,8,0:0:0:0:
256,192,219725,1,4,0:0:0:0:
256,192,220160,1,8,0:0:0:0:
256,192,220594,1,0,0:0:0:0:
256,192,220812,1,0,0:0:0:0:
256,192,221029,1,8,0:0:0:0:
256,192,221464,1,0,0:0:0:0:
256,192,221899,1,8,0:0:0:0:
256,192,222334,1,0,0:0:0:0:
256,192,222551,1,0,0:0:0:0:
256,192,222768,1,8,0:0:0:0:
256,192,223203,1,0,0:0:0:0:
256,192,223638,1,8,0:0:0:0:
256,192,224073,1,0,0:0:0:0:
256,192,224508,1,8,0:0:0:0:
256,192,224725,1,0,0:0:0:0:
256,192,225160,1,0,0:0:0:0:
256,192,225377,1,8,0:0:0:0:
256,192,225594,1,0,0:0:0:0:
256,192,226029,1,0,0:0:0:0:
256,192,226247,1,8,0:0:0:0:
256,192,226464,1,0,0:0:0:0:
256,192,226681,1,4,0:0:0:0:
256,192,227116,1,8,0:0:0:0:
256,192,227551,1,0,0:0:0:0:
256,192,227768,1,0,0:0:0:0:
256,192,227986,1,8,0:0:0:0:
256,192,228421,1,0,0:0:0:0:
256,192,228855,1,8,0:0:0:0:
256,192,229290,1,0,0:0:0:0:
256,192,229508,1,0,0:0:0:0:
256,192,229725,1,8,0:0:0:0:
256,192,230160,1,0,0:0:0:0:
256,192,230594,1,8,0:0:0:0:
256,192,231029,1,0,0:0:0:0:
256,192,231247,1,0,0:0:0:0:
256,192,231464,1,8,0:0:0:0:
256,192,231681,1,4,0:0:0:0:
256,192,232116,1,0,0:0:0:0:
256,192,232334,1,8,0:0:0:0:
256,192,232768,1,0,0:0:0:0:
256,192,232986,1,0,0:0:0:0:
256,192,233203,1,8,0:0:0:0:
256,192,233312,1,8,0:0:0:0:
256,192,233421,1,8,0:0:0:0:
256,192,233638,1,4,0:0:0:0:
256,192,234073,1,8,0:0:0:0:
256,192,234508,1,0,0:0:0:0:
256,192,234725,1,0,0:0:0:0:
256,192,234942,1,8,0:0:0:0:
256,192,235377,1,0,0:0:0:0:
256,192,235812,1,8,0:0:0:0:
256,192,236247,1,0,0:0:0:0:
256,192,236464,1,0,0:0:0:0:
256,192,236681,1,8,0:0:0:0:
256,192,237116,1,0,0:0:0:0:
256,192,237551,1,8,0:0:0:0:
256,192,237986,1,0,0:0:0:0:
256,192,238421,1,8,0:0:0:0:
256,192,238638,1,0,0:0:0:0:
256,192,239073,1,0,0:0:0:0:
256,192,239290,1,8,0:0:0:0:
256,192,239508,1,0,0:0:0:0:
256,192,239942,1,0,0:0:0:0:
256,192,240160,1,8,0:0:0:0:
256,192,240377,1,0,0:0:0:0:
256,192,240486,1,0,0:0:0:0:
256,192,240594,1,8,0:0:0:0:
256,192,241029,1,8,0:0:0:0:
256,192,241464,1,8,0:0:0:0:
256,192,241681,1,0,0:0:0:0:
256,192,241899,1,8,0:0:0:0:
256,192,242116,1,8,0:0:0:0:
256,192,242334,1,4,0:0:0:0:
256,192,242551,1,12,0:0:0:0:
256,192,243203,1,0,0:0:0:0:
256,192,243421,1,8,0:0:0:0:
256,192,243638,1,0,0:0:0:0:
256,192,243747,1,0,0:0:0:0:
256,192,243855,1,0,0:0:0:0:
256,192,244073,1,4,0:0:0:0:
256,192,244508,1,8,0:0:0:0:
256,192,244942,1,0,0:0:0:0:
256,192,245160,1,0,0:0:0:0:
256,192,245377,1,8,0:0:0:0:
256,192,245812,1,0,0:0:0:0:
256,192,246029,1,0,0:0:0:0:
256,192,246247,1,8,0:0:0:0:
256,192,246681,1,8,0:0:0:0:
256,192,246899,1,8,0:0:0:0:
256,192,247116,1,0,0:0:0:0:
256,192,247551,1,0,0:0:0:0:
256,192,247986,1,8,0:0:0:0:
256,192,248421,1,0,0:0:0:0:
256,192,248638,1,0,0:0:0:0:
256,192,248855,1,8,0:0:0:0:
256,192,249073,1,0,0:0:0:0:
256,192,249508,1,8,0:0:0:0:
256,192,249725,1,8,0:0:0:0:
256,192,249942,1,0,0:0:0:0:
256,192,250377,1,0,0:0:0:0:
256,192,250594,1,8,0:0:0:0:
256,192,251029,1,0,0:0:0:0:
256,192,251464,1,8,0:0:0:0:
256,192,251899,1,0,0:0:0:0:
256,192,252116,1,0,0:0:0:0:
256,192,252334,1,8,0:0:0:0:
256,192,252768,1,0,0:0:0:0:
256,192,252986,1,0,0:0:0:0:
256,192,253203,1,8,0:0:0:0:
256,192,253638,1,8,0:0:0:0:
256,192,253855,1,8,0:0:0:0:
256,192,254073,1,0,0:0:0:0:
256,192,254290,1,0,0:0:0:0:
256,192,254508,8,0,257986,0:0:0:0:
