osu file format v11

[General]
AudioFilename: Kawaii.mp3
AudioLeadIn: 1500
PreviewTime: 55737
Countdown: 0
SampleSet: Soft
StackLeniency: 0.3
Mode: 0
LetterboxInBreaks: 0

[Editor]
DistanceSpacing: 1.4
BeatDivisor: 2
GridSize: 4

[Metadata]
Title:Pure Love, True Love
TitleUnicode:Pure Love, True Love
Artist:Nakae Mitsuki
ArtistUnicode:Nakae Mitsuki
Creator:Andrea
Version:Normal
Source:LOVELY QUEST
Tags:Hook Hooksoft Meis Clauson Sumita Mao Hentai Eroge Gal Game Bishoujo Visual Novel Opening cRyo[iceeicee] h3k1ru Lally osuplayer111
BeatmapID:214317
BeatmapSetID:75761

[Difficulty]
HPDrainRate:4
CircleSize:3
OverallDifficulty:4
ApproachRate:5
SliderMultiplier:1.2
SliderTickRate:2

[Events]
//Background and Video events
0,0,"BG.jpg"
//Break Periods
//Storyboard Layer 0 (Background)
//Storyboard Layer 1 (Fail)
//Storyboard Layer 2 (Pass)
//Storyboard Layer 3 (Foreground)
//Storyboard Sound Samples
//Background Colour Transformations
3,100,0,128,255

[TimingPoints]
955,434.782608695652,4,2,1,60,1,0
12911,-100,4,2,1,45,0,0
15302,-100,4,2,1,60,0,0
56607,-100,4,2,1,60,0,1
80954,-100,4,2,1,60,0,0
91389,-100,4,2,1,5,0,0

[Colours]
Combo1 : 254,194,158
Combo2 : 190,226,248
Combo3 : 254,243,169
Combo4 : 248,152,167
Combo5 : 179,180,227

[HitObjects]
100,168,955,2,0,P|160:168|196:124,1,120,4|2,0:0|0:0,0:0:0
256,68,1607,1,0,0:0:0
316,124,1824,2,0,P|352:168|412:168,2,120,2|2|2,0:0|0:0|0:0,0:0:0
256,280,3129,1,2,0:0:0
88,280,3563,2,0,P|48:236|48:236|48:176,1,120,2|2,0:0|0:0,0:0:0
48,92,4216,1,0,0:0:0
124,132,4433,6,0,P|184:132|184:132|224:88,1,120,2|2,0:0|0:0,0:0:0
392,84,5303,2,0,P|436:124|436:184,1,120,2|2,0:0|0:0,0:0:0
436,264,5955,1,0,0:0:0
312,380,6389,1,0,0:0:0
256,316,6607,1,2,0:0:0
200,380,6824,2,0,P|140:380|104:336,1,120
72,260,7476,6,0,P|8:260,2,60,2|0|4,0:0|0:0|0:0,0:0:0
120,100,8346,1,2,0:0:0
256,196,8781,1,2,0:0:0
392,100,9216,1,2,0:0:0
400,268,9650,1,2,0:0:0
256,356,10085,1,2,0:0:0
112,268,10520,1,2,0:0:0
256,196,10955,6,0,P|256:132,1,60,2|0,0:0|0:0,0:0:0
204,72,11389,2,0,P|256:42|256:42|312:76,2,120,2|2|2,0:0|0:0|0:0,0:0:0
256,228,12694,2,0,P|256:288,1,60,2|4,0:0|0:0,0:0:0
256,192,13129,12,4,14868,0:0:0
300,192,15303,6,0,P|360:192|404:152,2,120,2|0|2,0:0|0:0|0:0,0:0:0
256,108,16389,1,0,0:0:0
212,192,16607,2,0,P|152:192|109:153,2,120,0|2|0,0:0|0:0|0:0,0:0:0
256,360,17911,1,2,0:0:0
408,288,18346,6,0,P|468:288|468:288|504:240,1,120,0|2,0:0|0:0,0:0:0
436,192,18998,1,0,0:0:0
504,144,19216,2,0,P|468:96|468:96|408:96,1,120,0|2,0:0|0:0,0:0:0
256,24,20085,2,0,P|196:24|156:64,1,120,0|2,0:0|0:0,0:0:0
100,128,20737,2,0,P|56:176,1,60
60,340,21389,1,2,0:0:0
212,264,21824,6,0,P|272:264|320:296,1,120,0|2,0:0|0:0,0:0:0
284,372,22476,1,0,0:0:0
368,372,22694,2,0,P|428:372|464:328,1,120,0|2,0:0|0:0,0:0:0
464,160,23563,1,0,0:0:0
316,84,23998,1,2,0:0:0
256,144,24216,1,0,0:0:0
196,84,24433,6,0,P|76:84,2,120,0|2|0,0:0|0:0|0:0,0:0:0
256,240,25737,1,2,0:0:0
316,84,26172,2,0,P|436:84,2,120,0|2|0,0:0|0:0|0:0,0:0:0
256,240,27476,5,2,0:0:0
92,196,27911,1,0,0:0:0
164,240,28129,2,0,P|204:316|292:320,1,180,8|4,0:0|0:0,0:0:0
440,260,29216,5,8,0:0:0
388,192,29433,1,0,0:0:0
440,124,29650,2,0,P|400:80|340:80,1,120,0|8,0:0|0:0,0:0:0
176,84,30520,1,0,0:0:0
48,192,30955,1,8,0:0:0
176,300,31389,1,0,0:0:0
256,328,31607,1,0,0:0:0
336,300,31824,6,0,P|396:300|396:300|440:256,2,120,8|2|8,0:0|0:0|0:0,0:0:0
256,328,32911,1,0,0:0:0
176,300,33129,2,0,P|116:300|116:300|72:256,2,120,0|8|0,0:0|0:0|0:0,0:0:0
256,328,34216,1,0,0:0:0
256,244,34433,2,0,P|256:120,3,120,8|0|8|2,0:0|0:0|0:0|0:0,0:0:0
412,56,36172,5,8,0:0:0
468,116,36389,2,0,P|468:176|468:176|428:220,1,120
360,272,37042,2,0,P|360:332,1,60,8|0,0:0|0:0,0:0:0
276,336,37476,2,0,P|216:336|172:296,1,120,0|8,0:0|0:0,0:0:0
168,212,38129,1,0,0:0:0
96,256,38346,6,0,P|56:208|56:208|56:148,1,120,2|8,0:0|0:0,0:0:0
188,44,39216,1,2,0:0:0
356,44,39650,2,0,P|416:44,2,60,8|0|0,0:0|0:0|0:0,0:0:0
436,192,40520,1,8,0:0:0
396,264,40737,6,0,P|308:264|256:332,1,180,4|8,0:0|0:0,0:0:0
88,332,41824,1,8,0:0:0
148,272,42042,1,8,0:0:0
88,212,42259,2,0,P|88:152|88:152|124:100,1,120,8|4,0:0|0:0,0:0:0
276,32,43129,6,0,P|336:32|376:72,1,120,10|2,0:0|0:0,0:0:0
496,192,43998,1,10,0:0:0
444,256,44216,1,0,0:0:0
388,320,44433,2,0,P|328:320|288:280,1,120,2|10,0:0|0:0,0:0:0
144,192,45303,1,2,0:0:0
256,68,45737,6,0,P|316:68,2,60,10|0|2,0:0|0:0|0:0,0:0:0
144,192,46607,1,10,0:0:0
112,268,46824,2,0,P|136:324|204:344,1,120
256,292,47476,1,10,0:0:0
324,345,47694,2,0,P|376:324|400:268,1,120,4|0,0:0|0:0,0:0:0
368,192,48346,1,10,0:0:0
312,128,48563,2,0,P|256:108|200:128,1,120,4|0,0:0|0:0,0:0:0
256,192,49215,1,10,0:0:0
416,236,49650,6,0,P|448:180|432:116,1,120,4|10,0:0|0:0,0:0:0
372,64,50303,1,0,0:0:0
296,116,50520,2,0,P|236:116|236:116|184:84,1,120,2|10,0:0|0:0,0:0:0
100,88,51172,2,0,P|40:88|4:136,1,120,4|0,0:0|0:0,0:0:0
64,192,51824,1,10,0:0:0
5,252,52042,2,0,P|40:296|100:296,1,120
184,296,52694,6,0,P|248:296,2,60,10|0|4,0:0|0:0|0:0,0:0:0
328,296,53563,1,10,0:0:0
392,240,53781,2,0,P|392:180|392:180|352:132,1,120
296,72,54433,1,10,0:0:0
216,72,54650,2,8,P|156:72|112:112,1,120
188,152,55303,1,8,0:0:0
44,236,55737,6,8,P|84:280|84:280|144:280,1,120
228,276,56389,1,8,0:0:0
300,324,56607,6,0,P|360:324|404:284,1,120,4|10,0:0|0:0,0:0:0
368,120,57476,2,0,P|320:84,1,60,2|0,0:0|0:0,0:0:0
256,32,57911,1,10,0:0:0
192,84,58129,2,0,P|144:120,1,60,0|2,0:0|0:0,0:0:0
8,216,58781,1,10,0:0:0
152,304,59216,5,2,0:0:0
228,336,59433,1,0,0:0:0
312,336,59650,2,0,P|372:336|372:336|416:296,1,120,10|2,0:0|0:0,0:0:0
464,132,60520,1,10,0:0:0
396,84,60737,1,0,0:0:0
328,36,60955,2,0,P|268:36|232:80,1,120,2|10,0:0|0:0,0:0:0
236,164,61607,6,0,P|112:164,1,120,4|0,0:0|0:0,0:0:0
48,212,62259,1,10,0:0:0
116,264,62476,2,0,P|176:264|216:308,1,120,4|0,0:0|0:0,0:0:0
276,364,63129,1,10,0:0:0
440,324,63563,5,4,0:0:0
404,160,63998,2,0,P|344:160|300:124,1,120,10|2,0:0|0:0,0:0:0
256,52,64650,1,0,0:0:0
212,124,64868,2,0,P|148:124,1,60,10|0,0:0|0:0,0:0:0
68,124,65303,1,2,0:0:0
28,292,65737,1,10,0:0:0
192,252,66172,5,2,0:0:0
256,308,66389,1,0,0:0:0
320,252,66607,2,0,P|380:252|380:252|424:208,3,120,10|2|10|2,0:0|0:0|0:0|0:0,0:0:0
332,68,68346,1,10,0:0:0
256,104,68563,6,0,P|196:104|196:104|152:144|152:144|88:144,1,180,4|10,0:0|0:0,0:0:0
36,304,69650,1,10,0:0:0
196,356,70085,1,10,0:0:0
256,300,70303,1,8,0:0:0
316,356,70520,6,0,P|376:356|412:308,1,120,4|10,0:0|0:0,0:0:0
452,148,71389,1,2,0:0:0
380,104,71607,1,0,0:0:0
308,60,71824,2,0,P|252:60|208:104,1,120,10|2,0:0|0:0,0:0:0
112,244,72694,1,10,0:0:0
256,332,73129,6,0,P|316:332,1,60,2|0,0:0|0:0,0:0:0
400,328,73563,2,0,P|436:280|436:280|436:220,1,120,10|2,0:0|0:0,0:0:0
324,92,74433,1,10,0:0:0
256,44,74650,2,0,P|196:44|160:88,1,120
164,172,75303,1,10,0:0:0
84,144,75520,6,0,P|84:204|128:248,1,120,4|0,0:0|0:0,0:0:0
192,296,76172,1,10,0:0:0
256,348,76389,2,0,P|316:348|316:348|360:304,1,120,4|0,0:0|0:0,0:0:0
360,220,77042,1,10,0:0:0
256,88,77476,5,4,0:0:0
152,220,77911,1,10,0:0:0
256,348,78346,2,0,P|256:284,1,60,2|0,0:0|0:0,0:0:0
256,204,78781,1,10,0:0:0
256,36,79216,5,4,0:0:0
192,92,79433,2,0,P|256:156|256:156|320:92,1,180,4|2,0:0|0:0,0:0:0
452,196,80520,1,8,0:0:0
392,256,80737,1,8,0:0:0
328,312,80955,6,0,P|204:312,1,120,4|10,0:0|0:0,0:0:0
80,200,81824,2,0,P|200:200,2,120,2|10|2,0:0|0:0|0:0,0:0:0
196,80,83129,1,10,0:0:0
312,200,83563,6,0,P|372:200|412:244,1,120,2|10,0:0|0:0,0:0:0
336,280,84216,1,0,0:0:0
404,328,84433,1,2,0:0:0
488,180,84868,1,10,0:0:0
368,64,85303,2,0,P|308:64|272:108,1,120,2|10,0:0|0:0,0:0:0
232,180,85955,6,0,P|172:180|132:140,1,120,4|0,0:0|0:0,0:0:0
80,72,86607,1,10,0:0:0
36,144,86824,1,4,0:0:0
36,312,87259,2,0,P|96:312,1,60,0|10,0:0|0:0,0:0:0
180,312,87694,1,0,0:0:0
256,344,87911,6,0,P|316:344|360:304,1,120,4|10,0:0|0:0,0:0:0
444,160,88781,2,0,P|384:160|340:200,2,120,2|10|4,0:0|0:0|0:0,0:0:0
312,52,90085,1,10,0:0:0
152,92,90520,6,8,P|200:140,1,60
256,192,90955,1,8,0:0:0
256,192,91172,1,8,0:0:0
256,192,91389,12,0,94868,0:0:0
