osu file format v11

[General]
AudioFilename: Kawaii.mp3
AudioLeadIn: 1500
PreviewTime: 55737
Countdown: 0
SampleSet: Soft
StackLeniency: 0.3
Mode: 0
LetterboxInBreaks: 0

[Editor]
DistanceSpacing: 1.2
BeatDivisor: 4
GridSize: 4

[Metadata]
Title:Pure Love, True Love
TitleUnicode:Pure Love, True Love
Artist:Nakae Mitsuki
ArtistUnicode:Nakae Mitsuki
Creator:Andrea
Version:Hard
Source:LOVELY QUEST
Tags:Hook Hooksoft Meis Clauson Sumita Mao Hentai Eroge Gal Game Bishoujo Visual Novel Opening cRyo[iceeicee] h3k1ru Lally osuplayer111
BeatmapID:213935
BeatmapSetID:75761

[Difficulty]
HPDrainRate:6
CircleSize:4
OverallDifficulty:6
ApproachRate:7
SliderMultiplier:1.4
SliderTickRate:2

[Events]
//Background and Video events
0,0,"BG.jpg"
//Break Periods
//Storyboard Layer 0 (Background)
//Storyboard Layer 1 (Fail)
//Storyboard Layer 2 (Pass)
//Storyboard Layer 3 (Foreground)
//Storyboard Sound Samples
//Background Colour Transformations
3,100,0,128,255

[TimingPoints]
955,434.782608695652,4,2,1,60,1,0
12911,-100,4,2,1,40,0,0
15302,-111.111111111111,4,2,1,60,0,0
28128,-100,4,2,1,60,0,0
56607,-100,4,2,1,60,0,1
80954,-100,4,2,1,60,0,0
91389,-100,4,2,1,5,0,0

[Colours]
Combo1 : 254,194,158
Combo2 : 190,226,248
Combo3 : 254,243,169
Combo4 : 248,152,167
Combo5 : 179,180,227

[HitObjects]
168,48,955,2,0,P|216:100,1,70,4|0,0:0|0:0,0:0:0
344,48,1389,2,0,P|296:100,1,70,2|0,0:0|0:0,0:0:0
256,172,1824,1,2,0:0:0
256,256,2041,1,0,0:0:0
200,320,2259,2,0,P|257:355|313:319,1,140,2|2,0:0|0:0,0:0:0
312,319,2911,1,0,0:0:0
348,248,3128,6,0,P|380:184,1,70,2|0,0:0|0:0,0:0:0
256,184,3563,2,0,P|256:114,1,70,2|0,0:0|0:0,0:0:0
164,248,3998,2,0,P|132:185,1,70,2|0,0:0|0:0,0:0:0
196,56,4433,6,0,P|256:20|256:20|316:56,1,140,2|2,0:0|0:0,0:0:0
256,116,5085,1,0,0:0:0
336,136,5302,2,0,P|336:204|292:264,1,140,2|2,0:0|0:0,0:0:0
216,261,5954,2,0,P|176:204|176:136,1,140,0|0,0:0|0:0,0:0:0
256,116,6607,1,2,0:0:0
196,56,6824,2,0,P|232:56|256:24|256:24|280:56|316:56,1,140
400,52,7476,1,2,0:0:0
448,120,7694,1,0,0:0:0
404,192,7911,6,0,P|336:192|300:248,2,140,2|2|2,0:0|0:0|0:0,0:0:0
380,272,8998,1,0,0:0:0
312,324,9215,2,0,P|276:328|248:304,1,70,2|0,0:0|0:0,0:0:0
196,240,9650,2,0,P|128:236|76:188,2,140,2|2|2,0:0|0:0|0:0,0:0:0
256,180,10737,1,0,0:0:0
316,120,10954,1,2,0:0:0
256,60,11172,1,0,0:0:0
196,120,11389,6,0,P|148:120|148:120|112:96|112:96|64:96,2,140,2|2|2,0:0|0:0|0:0,0:0:0
256,60,12476,1,0,0:0:0
316,120,12694,1,2,0:0:0
256,180,12911,1,4,0:0:0
256,192,13020,12,4,14868,0:0:0
44,112,15302,6,0,P|96:156,1,62.9999980773926,2|0,0:0|0:0,0:0:0
44,272,15737,2,0,P|96:228,1,62.9999980773926,2|0,0:0|0:0,0:0:0
156,192,16172,2,0,P|208:240,1,62.9999980773926,2|0,0:0|0:0,0:0:0
256,288,16607,1,2,0:0:0
309,234,16824,2,0,P|356:192,1,62.9999980773926,0|2,0:0|0:0,0:0:0
419,231,17259,2,0,P|468:272,1,62.9999980773926,0|2,0:0|0:0,0:0:0
419,152,17694,2,0,P|468:112,1,62.9999980773926,0|2,0:0|0:0,0:0:0
356,192,18346,6,0,P|224:192,1,125.999996154785,2|2,0:0|0:0,0:0:0
230,192,18998,1,0,0:0:0
172,140,19215,2,0,P|141:192|172:244,2,125.999996154785,2|2|2,0:0|0:0|0:0,0:0:0
216,76,20302,2,0,P|216:8,1,62.9999980773926,0|2,0:0|0:0,0:0:0
296,76,20737,2,0,P|296:8,2,62.9999980773926,0|2|0,0:0|0:0|0:0,0:0:0
340,140,21389,6,0,P|371:192|340:244,2,125.999996154785,2|2|2,0:0|0:0|0:0,0:0:0
284,192,22476,1,0,0:0:0
228,244,22694,2,0,P|192:244|172:272,1,62.9999980773926,2|0,0:0|0:0,0:0:0
52,236,23128,2,0,P|88:236|108:208,1,62.9999980773926,2|0,0:0|0:0,0:0:0
144,144,23563,2,0,P|160:84|208:40,1,125.999996154785,2|2,0:0|0:0,0:0:0
256,100,24215,1,0,0:0:0
306,41,24433,2,0,P|352:84|368:144,1,125.999996154785,2|2,0:0|0:0,0:0:0
380,220,25085,1,0,0:0:0
308,192,25302,6,0,P|272:192|256:222|256:222|236:192|204:192,1,125.999996154785,2|2,0:0|0:0,0:0:0
132,220,25954,1,0,0:0:0
164,289,26172,1,2,0:0:0
200,356,26389,1,0,0:0:0
256,304,26607,1,2,0:0:0
312,356,26824,6,0,P|376:356|376:356|416:308,1,125.999996154785
452,240,27476,1,2,0:0:0
392,192,27694,1,0,0:0:0
452,144,27911,1,2,0:0:0
392,88,28128,2,0,P|288:88|204:28,1,210,8|4,0:0|0:0,0:0:0
52,104,29215,6,0,P|88:104|88:104|116:124,1,70,8|0,0:0|0:0,0:0:0
68,192,29650,1,0,0:0:0
52,280,29868,2,0,P|88:280|88:280|116:260,1,70,0|8,0:0|0:0,0:0:0
164,192,30302,1,0,0:0:0
212,264,30520,1,0,0:0:0
256,192,30737,1,0,0:0:0
212,120,30954,2,0,P|240:100|276:100,1,70,8|0,0:0|0:0,0:0:0
212,264,31389,2,0,P|240:284|276:284,1,70
256,192,31824,6,0,P|396:192,2,140,8|2|8,0:0|0:0|0:0,0:0:0
204,124,32911,1,0,0:0:0
128,152,33128,1,0,0:0:0
128,232,33346,1,0,0:0:0
204,260,33563,1,8,0:0:0
256,192,33781,6,0,P|400:192,1,140
456,136,34433,2,0,P|516:88,1,70,8|0,0:0|0:0,0:0:0
456,248,34868,2,0,P|516:296,1,70
452,352,35302,6,0,P|384:352|328:312,1,140,8|2,0:0|0:0,0:0:0
256,268,35954,1,0,0:0:0
184,312,36172,2,0,P|128:352|60:352,1,140,8|0,0:0|0:0,0:0:0
104,276,36824,2,0,P|76:208,1,70,0|8,0:0|0:0,0:0:0
176,160,37259,2,0,P|204:96,1,70
336,160,37694,2,0,P|308:96,1,70,0|8,0:0|0:0,0:0:0
408,276,38128,2,0,P|436:208,1,70,0|2,0:0|0:0,0:0:0
256,344,38781,5,8,0:0:0
256,344,38998,1,0,0:0:0
200,288,39215,2,0,P|256:252|312:288,1,140,2|8,0:0|0:0,0:0:0
256,344,39868,2,0,P|256:196,1,140
256,120,40520,1,8,0:0:0
200,56,40737,6,0,P|256:14|256:14|312:56,1,140,4|0,0:0|0:0,0:0:0
376,108,41389,1,8,0:0:0
448,148,41607,2,0,P|488:148,2,35,0|0|8,0:0|0:0|0:0,0:0:0
448,236,42041,2,0,P|488:236,2,35,0|0|8,0:0|0:0|0:0,0:0:0
376,276,42476,1,8,0:0:0
312,328,42694,6,0,P|256:370|256:370|200:328,1,140,4|10,0:0|0:0,0:0:0
132,176,43563,2,0,P|168:176|168:176|192:152,1,70,2|0,0:0|0:0,0:0:0
256,96,43998,1,10,0:0:0
380,176,44215,2,0,P|344:176|344:176|320:152,1,70,0|2,0:0|0:0,0:0:0
256,348,44868,2,0,P|256:204,1,140,10|2,0:0|0:0,0:0:0
320,152,45520,1,0,0:0:0
256,96,45737,1,10,0:0:0
192,152,45954,1,0,0:0:0
256,208,46172,6,0,P|256:348,1,140,2|10,0:0|0:0,0:0:0
256,348,46824,1,0,0:0:0
88,348,47259,1,0,0:0:0
40,280,47476,1,10,0:0:0
40,196,47694,2,0,P|108:196|148:136,1,140,4|0,0:0|0:0,0:0:0
68,120,48346,1,10,0:0:0
68,120,48563,2,0,P|132:244,1,140,4|0,0:0|0:0,0:0:0
168,320,49215,1,10,0:0:0
216,252,49433,6,0,P|216:180,1,70,0|4,0:0|0:0,0:0:0
296,132,49868,2,0,P|296:204,2,70,0|10|0,0:0|0:0|0:0,0:0:0
296,48,50520,2,0,P|364:48|416:96,1,140,2|10,0:0|0:0,0:0:0
415,179,51172,2,0,P|347:179|295:131,1,140,4|0,0:0|0:0,0:0:0
296,48,51824,1,10,0:0:0
224,88,52041,1,0,0:0:0
152,132,52259,2,0,P|80:132|80:132|28:180,1,140,2|10,0:0|0:0,0:0:0
32,264,52911,5,0,0:0:0
84,328,53128,1,4,0:0:0
168,328,53346,1,0,0:0:0
216,260,53563,1,10,0:0:0
296,260,53781,2,0,P|360:280|412:236,1,140
484,192,54433,1,8,0:0:0
412,148,54650,2,8,P|360:104|296:124,1,140
212,124,55302,6,0,P|72:124,1,140,8|8,0:0|0:0,0:0:0
20,192,55954,1,8,0:0:0
72,260,56172,1,8,0:0:0
88,280,56281,1,8,0:0:0
104,300,56389,1,8,0:0:0
160,364,56607,6,0,P|228:364|264:308,2,140,4|10|2,0:0|0:0|0:0,0:0:0
192,288,57694,2,0,P|148:232,1,70,0|10,0:0|0:0,0:0:0
192,96,58128,2,0,P|148:152,1,70,0|2,0:0|0:0,0:0:0
220,192,58563,1,0,0:0:0
220,192,58781,2,0,P|364:192,1,140,10|2,0:0|0:0,0:0:0
412,124,59433,2,0,P|448:124|448:124|476:148,1,70,0|10,0:0|0:0,0:0:0
412,260,59868,2,0,P|448:260|448:260|476:236,1,70,0|2,0:0|0:0,0:0:0
332,328,60520,5,10,0:0:0
256,292,60737,2,0,P|184:292|184:292|128:248,1,140
68,192,61389,1,10,0:0:0
130,134,61607,2,0,P|184:92|184:92|256:92,1,140,4|0,0:0|0:0,0:0:0
332,56,62259,1,10,0:0:0
376,128,62476,2,0,P|400:192|376:256,1,140,4|0,0:0|0:0,0:0:0
292,248,63128,1,10,0:0:0
228,192,63346,1,0,0:0:0
292,136,63563,1,4,0:0:0
144,192,63998,6,0,P|-4:192,2,140,10|2|10,0:0|0:0|0:0,0:0:0
228,192,65085,2,0,P|296:192|344:240,1,140
276,288,65737,2,0,P|420:288,1,140,10|2,0:0|0:0,0:0:0
500,284,66389,1,0,0:0:0
456,212,66607,1,10,0:0:0
372,212,66824,1,0,0:0:0
412,140,67041,6,0,P|344:140|296:92,1,140,2|10,0:0|0:0,0:0:0
216,92,67694,2,0,P|168:140|100:140,1,140
136,64,68346,1,10,0:0:0
136,64,68563,2,0,P|192:192,1,140,4|0,0:0|0:0,0:0:0
376,64,69215,2,0,P|320:192,1,140,10|10,0:0|0:0,0:0:0
256,248,69868,1,8,0:0:0
256,332,70085,2,8,P|256:376,2,35,10|8|8,0:0|0:0|0:0,0:0:0
256,248,70520,6,0,P|256:104,2,140,4|10|2,0:0|0:0|0:0,0:0:0
328,288,71607,1,0,0:0:0
256,332,71824,1,10,0:0:0
184,288,72041,1,0,0:0:0
256,248,72259,1,2,0:0:0
104,132,72694,6,0,P|140:192|140:192|104:252,1,140,10|2,0:0|0:0,0:0:0
52,320,73346,1,0,0:0:0
131,359,73563,1,10,0:0:0
184,288,73781,1,0,0:0:0
104,252,73998,1,2,0:0:0
268,288,74433,5,10,0:0:0
352,288,74650,2,0,P|420:288|472:240,1,140
404,192,75302,1,10,0:0:0
471,142,75520,2,0,P|420:96|352:96,1,140,4|0,0:0|0:0,0:0:0
316,172,76172,1,10,0:0:0
256,116,76389,2,0,P|184:116|128:80,1,140,4|0,0:0|0:0,0:0:0
84,152,77041,1,10,0:0:0
84,232,77259,1,0,0:0:0
128,304,77476,6,0,P|184:268|256:268,2,140,4|10|2,0:0|0:0|0:0,0:0:0
176,372,78563,1,0,0:0:0
256,344,78781,1,10,0:0:0
336,372,78998,1,0,0:0:0
416,344,79215,1,4,0:0:0
416,344,79433,1,4,0:0:0
468,96,80085,6,0,P|432:96|400:72,1,70,2|0,0:0|0:0,0:0:0
320,80,80520,1,8,0:0:0
296,64,80628,1,8,0:0:0
272,48,80737,2,0,P|200:48,1,70,8|4,0:0|0:0,0:0:0
116,48,81172,1,0,0:0:0
52,104,81389,2,0,P|52:140|72:168,1,70,10|0,0:0|0:0,0:0:0
156,164,81824,2,0,P|224:164|272:212,1,140,2|10,0:0|0:0,0:0:0
192,240,82476,1,0,0:0:0
256,296,82694,6,0,P|396:296,2,140,2|10|2,0:0|0:0|0:0,0:0:0
192,352,83781,1,0,0:0:0
128,296,83998,1,10,0:0:0
192,240,84215,1,0,0:0:0
256,296,84433,6,0,P|400:296,1,140,2|10,0:0|0:0,0:0:0
484,152,85302,1,2,0:0:0
424,96,85520,1,0,0:0:0
340,96,85737,1,10,0:0:0
276,44,85954,2,0,P|208:44|160:92,1,140,4|0,0:0|0:0,0:0:0
160,176,86607,1,10,0:0:0
232,220,86824,2,0,P|92:220,1,140,4|0,0:0|0:0,0:0:0
8,224,87476,1,10,0:0:0
56,292,87694,1,0,0:0:0
104,360,87911,6,0,P|172:360|220:312,2,140,4|10|2,0:0|0:0|0:0,0:0:0
56,292,88998,1,0,0:0:0
140,288,89215,1,10,0:0:0
200,228,89433,1,0,0:0:0
204,144,89650,6,0,P|240:144|256:104|256:104|272:144|312:144,2,140,4|10|8,0:0|0:0|0:0,0:0:0
200,228,90737,1,8,0:0:0
256,292,90954,1,8,0:0:0
312,228,91172,1,8,0:0:0
256,192,91389,12,0,94868,0:0:0
