osu file format v14

[General]
AudioFilename: onmysheep.mp3
AudioLeadIn: 1000
PreviewTime: 48974
Countdown: 0
SampleSet: Soft
StackLeniency: 0.7
Mode: 0
LetterboxInBreaks: 0
WidescreenStoryboard: 0

[Editor]
DistanceSpacing: 1.8
BeatDivisor: 4
GridSize: 4
TimelineZoom: 1.2

[Metadata]
Title:On my Sheep -TV size-
TitleUnicode:On my Sheep -TV size-
Artist:Nakae Mitsuki
ArtistUnicode:中恵光城
Creator:CloudSplash16
Version:Very Hard
Source:大図書館の羊飼い
Tags:Daitoshokan no Hitsujikai A Good Librarian Like a Good Shepherd TV Animation August anime opening Momochikun CakiP xxdeathx
BeatmapID:687479
BeatmapSetID:239741

[Difficulty]
HPDrainRate:6
CircleSize:4
OverallDifficulty:7
ApproachRate:8.5
SliderMultiplier:1.5
SliderTickRate:1

[Events]
//Background and Video events
Video,0,"OP.avi"
0,0,"bg.jpg",0,0
//Break Periods
//Storyboard Layer 0 (Background)
//Storyboard Layer 1 (Fail)
//Storyboard Layer 2 (Pass)
//Storyboard Layer 3 (Foreground)
//Storyboard Sound Samples

[TimingPoints]
754,338.983050847458,4,2,1,70,1,0
11601,-100,4,2,2,60,0,0
44143,-100,4,2,2,70,0,0
48126,-100,4,2,2,50,0,0
49228,-100,4,2,2,5,0,0
49567,-100,4,2,2,80,0,1
50245,-100,4,2,1,80,0,1
50415,-100,4,2,2,80,0,1
51431,-100,4,2,1,80,0,1
51770,-100,4,2,2,80,0,1
52957,-100,4,2,1,80,0,1
53126,-100,4,2,2,80,0,1
54143,-100,4,2,1,80,0,1
54482,-100,4,2,2,80,0,1
55669,-100,4,2,1,80,0,1
55838,-100,4,2,2,80,0,1
57025,-100,4,2,1,80,0,1
57194,-100,4,2,2,80,0,1
59737,-100,4,2,1,80,0,1
60415,-100,4,2,2,80,0,1
61601,-100,4,2,1,80,0,1
61770,-100,4,2,2,80,0,1
64652,-100,4,2,1,80,0,1
64821,-100,4,2,2,80,0,1
67194,-100,4,2,1,80,0,1
67364,-100,4,2,2,80,0,1
69737,-100,4,2,1,100,0,0
69821,-100,4,2,1,50,0,0
71262,-100,4,2,2,60,0,0
79398,-100,4,2,1,70,0,0
83804,-100,4,2,2,70,0,0
83974,-100,4,2,1,70,0,0
84737,-100,4,2,1,50,0,0
86177,-100,4,2,1,40,0,0
86855,-100,4,2,1,30,0,0
87533,-100,4,2,1,20,0,0
88211,-100,4,2,1,10,0,0
88550,-100,4,2,1,5,0,0

[Colours]
Combo1 : 246,56,142
Combo2 : 213,53,61
Combo3 : 250,212,79
Combo4 : 62,190,226
Combo5 : 193,77,219
Combo6 : 246,140,54
Combo7 : 0,189,124
Combo8 : 23,64,236

[HitObjects]
244,92,754,6,0,L|236:241,1,150,4|0,0:0|0:0,0:0:0:0:
173,181,1262,2,0,P|240:154|305:188,1,150,2|2,0:0|0:0,0:0:0:0:
148,268,1770,1,0,0:0:0:0:
148,268,1940,6,0,L|73:264,1,75,4|0,0:0|0:0,0:0:0:0:
38,120,2279,2,0,L|113:117,1,75,2|0,0:0|0:0,0:0:0:0:
173,181,2618,2,0,P|201:113|169:48,1,150,2|0,0:0|0:0,0:0:0:0:
92,221,3126,2,0,P|114:251|147:267,1,75,8|0,0:0|0:0,0:0:0:0:
252,251,3465,6,0,P|324:236|397:252,1,150,4|0,0:0|0:0,0:0:0:0:
480,288,3974,1,2,0:0:0:0:
480,288,4143,2,0,P|480:325|468:360,1,75,0|2,0:0|0:0,0:0:0:0:
344,200,4482,1,0,0:0:0:0:
344,200,4652,6,0,P|343:162|355:127,1,75,4|0,0:0|0:0,0:0:0:0:
508,153,4991,2,0,P|476:172|440:180,1,75,0|0,0:0|0:0,0:0:0:0:
281,92,5330,2,0,P|337:46|407:64,1,150,2|2,0:0|0:0,0:0:0:0:
344,200,5838,2,0,L|340:274,1,75,8|0,0:0|0:0,0:0:0:0:
468,200,6177,6,0,L|471:125,1,75,4|0,0:0|0:0,0:0:0:0:
281,92,6516,2,0,L|206:88,1,75,8|2,0:0|0:0,0:0:0:0:
200,240,6855,1,0,0:0:0:0:
296,196,7025,1,2,0:0:0:0:
164,160,7194,2,0,L|89:156,1,75,8|2,0:0|0:0,0:0:0:0:
147,302,7533,6,0,P|217:320|273:274,1,150,0|8,0:0|0:0,0:0:0:0:
296,196,8042,1,2,0:0:0:0:
164,160,8211,1,0,0:0:0:0:
200,240,8381,1,2,0:0:0:0:
248,112,8550,1,8,0:0:0:0:
120,93,8720,6,0,P|84:156|113:222,1,150,4|0,0:0|0:0,0:0:0:0:
296,196,9228,1,2,0:0:0:0:
164,160,9398,1,0,0:0:0:0:
200,240,9567,1,2,0:0:0:0:
248,112,9737,1,0,0:0:0:0:
120,93,9906,1,2,0:0:0:0:
296,196,10076,1,4,0:0:0:0:
296,196,11601,6,0,L|370:192,1,75,4|0,0:0|0:0,0:0:0:0:
432,296,11940,2,0,L|357:292,1,75,2|0,0:0|0:0,0:0:0:0:
248,296,12279,1,2,0:0:0:0:
248,296,12448,2,0,P|216:276|195:245,1,75,0|2,0:0|0:0,0:0:0:0:
136,172,12787,6,0,P|169:154|206:151,1,75,0|2,0:0|0:0,0:0:0:0:
296,196,13126,1,0,0:0:0:0:
296,196,13296,1,2,0:0:0:0:
116,252,13465,2,0,P|60:205|62:132,1,150,0|0,0:0|0:0,0:0:0:0:
144,76,13974,1,8,0:0:0:0:
136,172,14143,1,0,0:0:0:0:
136,172,14313,2,0,P|64:185|31:250,1,150,2|2,0:0|0:0,0:0:0:0:
103,336,14821,6,0,P|140:333|173:315,1,75,0|2,0:0|0:0,0:0:0:0:
248,220,15160,1,0,0:0:0:0:
320,340,15330,1,2,0:0:0:0:
432,304,15499,2,0,L|446:154,1,150,0|0,0:0|0:0,0:0:0:0:
456,52,16008,6,0,P|418:54|385:72,1,75,2|0,0:0|0:0,0:0:0:0:
296,136,16347,1,2,0:0:0:0:
132,96,16516,1,0,0:0:0:0:
232,44,16686,1,8,0:0:0:0:
196,196,16855,1,0,0:0:0:0:
196,196,17025,6,0,B|216:256|180:312|180:312|208:320,1,150,2|2,0:0|0:0,0:0:0:0:
296,280,17533,2,0,L|424:272,1,112.5,0|0,0:0|0:0,0:0:0:0:
456,284,17872,2,0,P|467:319|464:356,1,75,0|2,0:0|0:0,0:0:0:0:
328,352,18211,6,0,L|342:202,1,150,0|0,0:0|0:0,0:0:0:0:
380,112,18720,1,2,0:0:0:0:
380,112,18889,2,0,P|333:168|260:166,1,150,0|0,0:0|0:0,0:0:0:0:
156,120,19398,2,0,L|167:194,1,75,8|0,0:0|0:0,0:0:0:0:
148,312,19737,5,2,0:0:0:0:
148,312,19906,1,0,0:0:0:0:
72,240,20076,1,2,0:0:0:0:
224,264,20245,2,0,L|298:260,1,75,0|2,0:0|0:0,0:0:0:0:
440,340,20584,2,0,L|365:343,1,75,0|2,0:0|0:0,0:0:0:0:
401,241,20923,6,0,P|421:171|380:112,1,150,0|0,0:0|0:0,0:0:0:0:
232,108,21431,1,8,0:0:0:0:
339,186,21601,1,2,0:0:0:0:
339,186,21940,1,2,0:0:0:0:
224,264,22109,1,8,0:0:0:0:
224,264,22279,1,8,0:0:0:0:
224,264,22364,1,8,0:0:0:0:
224,264,22448,6,0,L|298:260,1,75,4|0,0:0|0:0,0:0:0:0:
232,108,22787,2,0,L|157:104,1,75,8|0,0:0|0:0,0:0:0:0:
104,260,23126,1,2,0:0:0:0:
172,192,23296,1,0,0:0:0:0:
92,50,23465,2,0,P|74:82|73:119,1,75,8|0,0:0|0:0,0:0:0:0:
124,330,23804,6,0,P|122:293|105:261,1,75,2|0,0:0|0:0,0:0:0:0:
22,188,24143,1,8,0:0:0:0:
22,188,24313,2,0,L|172:192,1,150,0|0,0:0|0:0,0:0:0:0:
260,148,24821,1,8,0:0:0:0:
288,292,24991,1,0,0:0:0:0:
288,292,25160,6,0,L|138:288,1,150,2|8,0:0|0:0,0:0:0:0:
110,144,25669,2,0,L|260:148,1,150,0|0,0:0|0:0,0:0:0:0:
348,208,26177,1,8,0:0:0:0:
348,208,26347,6,0,P|384:216|421:209,1,75,0|2,0:0|0:0,0:0:0:0:
384,72,26686,2,0,P|347:63|310:70,2,75,0|8|0,0:0|0:0|0:0,0:0:0:0:
468,124,27194,1,2,0:0:0:0:
348,208,27364,2,0,L|344:282,1,75,0|8,0:0|0:0,0:0:0:0:
428,320,27703,1,0,0:0:0:0:
255,259,27872,6,0,P|182:248|107:252,1,150,4|8,0:0|0:0,0:0:0:0:
24,200,28381,2,0,P|15:163|22:126,1,75,0|2,0:0|0:0,0:0:0:0:
80,28,28720,1,0,0:0:0:0:
168,144,28889,1,8,0:0:0:0:
168,144,29059,6,0,P|242:147|316:136,1,150,0|0,0:0|0:0,0:0:0:0:
404,96,29567,1,8,0:0:0:0:
404,96,29737,2,0,P|412:132|406:169,1,75,0|2,0:0|0:0,0:0:0:0:
292,304,30076,2,0,P|283:267|289:230,1,75,0|8,0:0|0:0,0:0:0:0:
316,136,30415,6,0,P|242:147|168:144,1,150,4|0,0:0|0:0,0:0:0:0:
48,104,30923,1,0,0:0:0:0:
112,240,31092,1,2,0:0:0:0:
112,240,31431,1,2,0:0:0:0:
112,240,31770,6,0,L|186:233,1,75,4|0,0:0|0:0,0:0:0:0:
299,229,32109,2,0,L|292:303,1,75,8|8,0:0|0:0,0:0:0:0:
216,152,32448,1,8,0:0:0:0:
216,152,32533,1,8,0:0:0:0:
216,152,32618,2,0,L|209:77,1,75,8|8,0:0|0:0,0:0:0:0:
184,56,33126,6,0,L|197:205,1,150,4|0,0:0|0:0,0:0:0:0:
204,320,33635,1,0,0:0:0:0:
204,320,33804,2,0,P|272:344|336:309,1,150,2|0,0:0|0:0,0:0:0:0:
330,195,34313,1,0,0:0:0:0:
330,195,34482,6,0,P|261:170|197:205,1,150,2|0,0:0|0:0,0:0:0:0:
104,272,34991,1,2,0:0:0:0:
104,272,35160,2,0,L|90:122,1,150,0|0,0:0|0:0,0:0:0:0:
184,56,35669,1,0,0:0:0:0:
184,56,35838,6,0,L|197:205,1,150,2|0,0:0|0:0,0:0:0:0:
204,320,36347,1,0,0:0:0:0:
204,320,36516,2,0,P|272:344|336:309,1,150,2|2,0:0|0:0,0:0:0:0:
330,195,37025,1,0,0:0:0:0:
330,195,37194,6,0,P|261:170|197:205,1,150,2|0,0:0|0:0,0:0:0:0:
268,258,37703,1,2,0:0:0:0:
268,258,37872,1,0,0:0:0:0:
488,216,38211,2,0,L|504:176,2,37.5,8|8|2,0:0|0:0|0:0,0:0:0:0:
417,271,38550,6,0,L|268:258,1,150,2|0,0:0|0:0,0:0:0:0:
168,216,39059,1,2,0:0:0:0:
168,216,39228,2,0,P|180:252|180:289,1,75,0|0,0:0|0:0,0:0:0:0:
68,188,39567,2,0,P|66:150|75:114,1,75,2|8,0:0|0:0,0:0:0:0:
188,108,39906,6,0,P|252:141|321:117,1,150,4|0,0:0|0:0,0:0:0:0:
412,52,40415,1,8,0:0:0:0:
412,52,40584,2,0,L|398:201,1,150,2|0,0:0|0:0,0:0:0:0:
398,201,41092,1,8,0:0:0:0:
340,300,41262,1,2,0:0:0:0:
340,300,41347,1,2,0:0:0:0:
340,300,41431,6,0,P|305:311|268:307,1,75,4|0,0:0|0:0,0:0:0:0:
160,204,41770,2,0,P|195:192|232:196,1,75,2|0,0:0|0:0,0:0:0:0:
180,292,42109,2,0,L|173:367,1,75,2|0,0:0|0:0,0:0:0:0:
320,216,42448,2,0,L|327:141,1,75,2|0,0:0|0:0,0:0:0:0:
264,56,42787,6,0,P|192:48|142:101,1,150,2|2,0:0|0:0,0:0:0:0:
201,252,43296,2,0,P|243:193|222:124,1,150,0|0,0:0|0:0,0:0:0:0:
62,99,43804,1,2,0:0:0:0:
62,99,43974,6,0,P|91:165|162:181,1,150,0|0,0:0|0:0,0:0:0:0:
327,141,44482,2,0,L|395:109,1,75,2|0,0:0|0:0,0:0:0:0:
208,177,44821,2,0,L|201:252,2,75,2|0|2,0:0|0:0|0:0,0:0:0:0:
264,56,45330,5,8,0:0:0:0:
264,56,45669,1,2,0:0:0:0:
264,56,46008,1,2,0:0:0:0:
316,244,46347,5,8,0:0:0:0:
316,244,46516,1,8,0:0:0:0:
316,244,46686,2,0,L|465:236,1,150,4|2,0:0|0:0,0:0:0:0:
466,236,47194,1,2,0:0:0:0:
264,56,47533,5,2,0:0:0:0:
264,56,47703,1,2,0:0:0:0:
184,268,48042,1,4,0:0:0:0:
256,192,48126,12,0,49228,0:0:0:0:
118,234,49567,6,0,L|191:253,1,75,4|0,0:0|0:0,0:0:0:0:
256,85,49906,2,0,L|184:104,1,75,8|2,0:0|0:0,0:0:0:0:
292,164,50245,2,0,P|339:109|326:38,1,150,2|8,0:0|0:0,0:0:0:0:
184,104,50754,6,0,L|191:253,1,150,2|0,0:0|0:0,0:0:0:0:
228,352,51262,1,8,0:0:0:0:
228,352,51431,2,0,P|264:360|301:355,1,75,2|0,0:0|0:0,0:0:0:0:
392,312,51770,1,2,0:0:0:0:
416,148,51940,1,8,0:0:0:0:
261,232,52109,6,0,P|190:253|118:233,1,150,4|0,0:0|0:0,0:0:0:0:
60,136,52618,2,0,L|56:61,1,75,8|2,0:0|0:0,0:0:0:0:
216,128,52957,1,2,0:0:0:0:
149,34,53126,1,2,0:0:0:0:
60,136,53296,1,8,0:0:0:0:
60,136,53465,6,0,L|63:210,1,75,2|0,0:0|0:0,0:0:0:0:
160,224,53804,1,0,0:0:0:0:
0,296,53974,1,8,0:0:0:0:
104,328,54143,2,0,B|140:312|140:312|250:315,1,150,2|2,0:0|0:0,0:0:0:0:
344,263,54652,2,0,P|362:231|364:194,1,75,8|2,0:0|0:0,0:0:0:0:
236,56,54991,6,0,P|237:93|255:125,1,75,4|0,0:0|0:0,0:0:0:0:
404,68,55330,1,8,0:0:0:0:
392,184,55499,1,2,0:0:0:0:
336,32,55669,1,2,0:0:0:0:
268,140,55838,1,2,0:0:0:0:
472,136,56008,2,0,L|468:210,1,75,8|2,0:0|0:0,0:0:0:0:
402,324,56347,6,0,P|333:347|272:308,1,150,4|8,0:0|0:0,0:0:0:0:
216,212,56855,1,2,0:0:0:0:
216,212,57194,1,2,0:0:0:0:
344,132,57364,1,8,0:0:0:0:
328,228,57533,1,2,0:0:0:0:
210,136,57703,6,0,P|148:173|146:244,1,150,4|2,0:0|0:0,0:0:0:0:
146,244,58211,1,4,0:0:0:0:
344,132,58550,1,4,0:0:0:0:
136,114,58889,6,0,P|149:184|216:212,1,150,4|0,0:0|0:0,0:0:0:0:
344,132,59398,2,0,L|348:58,1,75,8|0,0:0|0:0,0:0:0:0:
212,98,59737,2,0,L|209:135,3,37.5,2|0|0|0,0:0|0:0|0:0|0:0,0:0:0:0:
219,174,60076,2,0,L|216:211,3,37.5,2|0|0|0,0:0|0:0|0:0|0:0,0:0:0:0:
226,250,60415,6,0,L|222:324,1,75,4|0,0:0|0:0,0:0:0:0:
112,240,60754,2,0,P|74:236|39:247,1,75,8|0,0:0|0:0,0:0:0:0:
88,338,61092,2,0,P|157:359|221:324,1,150,2|8,0:0|0:0,0:0:0:0:
320,216,61601,6,0,L|316:290,1,75,2|0,0:0|0:0,0:0:0:0:
112,240,61940,2,0,L|116:166,1,75,0|8,0:0|0:0,0:0:0:0:
252,100,62279,2,0,L|248:174,1,75,0|2,0:0|0:0,0:0:0:0:
44,124,62618,2,0,L|48:50,1,75,0|8,0:0|0:0,0:0:0:0:
168,32,62957,6,0,L|160:181,1,150,0|0,0:0|0:0,0:0:0:0:
152,316,63465,1,8,0:0:0:0:
44,124,63804,2,0,L|48:50,2,75,2|0|8,0:0|0:0|0:0,0:0:0:0:
80,302,64313,6,0,P|113:316|152:315,1,75,4|0,0:0|0:0,0:0:0:0:
244,196,64652,2,0,P|279:185|316:191,1,75,2|8,0:0|0:0,0:0:0:0:
428,252,64991,2,0,L|422:326,1,75,2|0,0:0|0:0,0:0:0:0:
290,352,65330,2,0,L|284:277,1,75,2|8,0:0|0:0,0:0:0:0:
248,100,65669,1,0,0:0:0:0:
248,100,65838,6,0,P|183:69|121:105,1,150,4|8,0:0|0:0,0:0:0:0:
88,252,66347,1,2,0:0:0:0:
88,252,66516,2,0,P|111:282|144:299,1,75,0|2,0:0|0:0,0:0:0:0:
312,148,66855,2,0,P|326:113|324:76,1,75,8|0,0:0|0:0,0:0:0:0:
187,148,67194,6,0,L|192:297,1,150,2|8,0:0|0:0,0:0:0:0:
292,368,67703,1,2,0:0:0:0:
396,308,67872,2,0,L|470:296,1,75,0|2,0:0|0:0,0:0:0:0:
332,204,68211,1,8,0:0:0:0:
292,368,68381,1,0,0:0:0:0:
152,232,68550,5,4,0:0:0:0:
288,284,68720,1,0,0:0:0:0:
268,140,68889,1,8,0:0:0:0:
268,140,69059,2,0,L|193:128,1,75,2|0,0:0|0:0,0:0:0:0:
78,244,69398,2,0,L|152:232,1,75,2|0,0:0|0:0,0:0:0:0:
362,295,69737,2,0,L|287:283,1,75,2|0,0:0|0:0,0:0:0:0:
256,192,69991,12,0,70923,0:0:0:0:
88,80,71262,6,0,L|84:117,3,37.5,2|0|0|0,0:0|0:0|0:0|0:0,0:0:0:0:
60,160,71601,2,0,L|75:194,3,37.5,2|0|0|0,0:0|0:0|0:0|0:0,0:0:0:0:
75,243,71940,2,0,L|105:264,3,37.5,2|0|0|0,0:0|0:0|0:0|0:0,0:0:0:0:
148,288,72279,2,0,L|224:284,1,75,2|0,0:0|0:0,0:0:0:0:
336,296,72618,6,0,L|339:258,3,37.5,2|0|0|0,0:0|0:0|0:0|0:0,0:0:0:0:
364,216,72957,2,0,L|348:181,3,37.5,2|0|0|0,0:0|0:0|0:0|0:0,0:0:0:0:
349,133,73296,2,0,L|318:111,3,37.5,2|0|0|0,0:0|0:0|0:0|0:0,0:0:0:0:
276,88,73635,2,0,L|200:92,1,75,2|0,0:0|0:0,0:0:0:0:
76,176,73974,6,0,P|138:212|205:183,1,150,2|2,0:0|0:0,0:0:0:0:
276,88,74482,1,0,0:0:0:0:
276,88,74652,2,0,L|290:237,1,150,2|2,0:0|0:0,0:0:0:0:
328,328,75160,1,0,0:0:0:0:
328,328,75330,6,0,P|291:319|255:327,1,75,2|0,0:0|0:0,0:0:0:0:
132,256,75669,2,0,P|168:264|204:256,1,75,2|0,0:0|0:0,0:0:0:0:
316,192,76008,2,0,L|301:42,1,150,2|2,0:0|0:0,0:0:0:0:
200,92,76516,1,0,0:0:0:0:
200,92,76686,6,0,P|163:100|127:91,1,75,4|0,0:0|0:0,0:0:0:0:
24,68,77025,1,2,0:0:0:0:
24,68,77194,1,0,0:0:0:0:
12,208,77364,1,2,0:0:0:0:
12,208,77533,1,0,0:0:0:0:
104,316,77703,2,0,P|136:334|174:334,1,75,2|0,0:0|0:0,0:0:0:0:
300,328,78042,6,0,L|329:304,3,37.5,2|0|2|0,0:0|0:0|0:0|0:0,0:0:0:0:
376,291,78381,2,0,L|389:255,3,37.5,2|0|2|0,0:0|0:0|0:0|0:0,0:0:0:0:
424,221,78720,2,0,L|417:183,3,37.5,2|0|2|0,0:0|0:0|0:0|0:0,0:0:0:0:
430,136,79059,2,0,L|406:106,3,37.5,2|0|2|0,0:0|0:0|0:0|0:0,0:0:0:0:
368,75,79398,6,0,P|307:116|237:96,1,150,4|0,0:0|0:0,0:0:0:0:
172,24,79906,2,0,L|148:180,1,150,2|0,0:0|0:0,0:0:0:0:
104,260,80415,1,2,0:0:0:0:
104,260,80584,6,0,L|29:252,1,75,4|0,0:0|0:0,0:0:0:0:
148,344,80923,2,0,L|222:336,1,75,2|0,0:0|0:0,0:0:0:0:
312,296,81262,2,0,P|331:225|291:165,1,150,2|0,0:0|0:0,0:0:0:0:
196,144,81770,2,0,L|121:136,1,75,8|0,0:0|0:0,0:0:0:0:
29,252,82109,6,0,L|104:260,1,75,4|0,0:0|0:0,0:0:0:0:
241,242,82448,1,0,0:0:0:0:
241,242,82618,2,0,P|304:206|372:230,1,150,2|2,0:0|0:0,0:0:0:0:
316,360,83126,1,0,3:0:0:0:
316,360,83296,6,0,L|241:352,1,75,4|0,0:0|0:0,0:0:0:0:
100,304,83635,2,0,L|174:296,1,75,2|2,0:0|0:0,0:0:0:0:
316,249,83974,2,0,L|241:241,1,75,4|0,0:0|0:0,0:0:0:0:
100,194,84313,2,0,L|174:186,1,75,4|0,0:0|0:0,0:0:0:0:
316,139,84652,1,4,0:0:0:0:
256,192,84737,12,0,88550,0:0:0:0:
