osu file format v14

[General]
AudioFilename: onmysheep.mp3
AudioLeadIn: 1000
PreviewTime: 48974
Countdown: 0
SampleSet: Soft
StackLeniency: 0.7
Mode: 0
LetterboxInBreaks: 0
WidescreenStoryboard: 0

[Editor]
DistanceSpacing: 1.8
BeatDivisor: 4
GridSize: 4
TimelineZoom: 1.2

[Metadata]
Title:On my Sheep -TV size-
TitleUnicode:On my Sheep -TV size-
Artist:Nakae Mitsuki
ArtistUnicode:中恵光城
Creator:CloudSplash16
Version:Insane
Source:大図書館の羊飼い
Tags:Daitoshokan no Hitsujikai A Good Librarian Like a Good Shepherd TV Animation August anime opening Momochikun CakiP xxdeathx
BeatmapID:554252
BeatmapSetID:239741

[Difficulty]
HPDrainRate:7
CircleSize:4
OverallDifficulty:8
ApproachRate:9
SliderMultiplier:1.6
SliderTickRate:1

[Events]
//Background and Video events
Video,0,"OP.avi"
0,0,"bg.jpg",0,0
//Break Periods
//Storyboard Layer 0 (Background)
//Storyboard Layer 1 (Fail)
//Storyboard Layer 2 (Pass)
//Storyboard Layer 3 (Foreground)
//Storyboard Sound Samples

[TimingPoints]
754,338.983050847458,4,2,1,70,1,0
11601,-100,4,2,2,60,0,0
44143,-100,4,2,2,70,0,0
48126,-100,4,2,2,50,0,0
49228,-100,4,2,2,5,0,0
49567,-100,4,2,2,80,0,1
50245,-100,4,2,1,80,0,1
50415,-100,4,2,2,80,0,1
51431,-100,4,2,1,80,0,1
51770,-100,4,2,2,80,0,1
52957,-100,4,2,1,80,0,1
53126,-100,4,2,2,80,0,1
54143,-100,4,2,1,80,0,1
54482,-100,4,2,2,80,0,1
55669,-100,4,2,1,80,0,1
55838,-100,4,2,2,80,0,1
57025,-100,4,2,1,80,0,1
57194,-100,4,2,2,80,0,1
59737,-100,4,2,1,80,0,1
60415,-100,4,2,2,80,0,1
61601,-100,4,2,1,80,0,1
61770,-100,4,2,2,80,0,1
64652,-100,4,2,1,80,0,1
64821,-100,4,2,2,80,0,1
67194,-100,4,2,1,80,0,1
67364,-100,4,2,2,80,0,1
69737,-100,4,2,1,100,0,0
69821,-100,4,2,1,50,0,0
71262,-100,4,2,2,60,0,0
79398,-100,4,2,1,70,0,0
83804,-100,4,2,2,70,0,0
83974,-100,4,2,1,70,0,0
84737,-100,4,2,1,50,0,0
86177,-100,4,2,1,40,0,0
86855,-100,4,2,1,30,0,0
87533,-100,4,2,1,20,0,0
88211,-100,4,2,1,10,0,0
88550,-100,4,2,1,5,0,0

[Colours]
Combo1 : 246,56,142
Combo2 : 213,53,61
Combo3 : 250,212,79
Combo4 : 62,190,226
Combo5 : 193,77,219
Combo6 : 246,140,54
Combo7 : 0,189,124
Combo8 : 23,64,236

[HitObjects]
272,276,754,5,4,0:0:0:0:
420,184,923,1,0,0:0:0:0:
356,356,1092,1,0,0:0:0:0:
144,248,1262,2,0,L|263:236,1,120,2|0,0:0|0:0,0:0:0:0:
368,277,1601,2,0,P|367:317|356:355,1,80,2|0,0:0|0:0,0:0:0:0:
160,228,1940,6,0,L|279:216,1,120,4|0,0:0|0:0,0:0:0:0:
384,257,2279,2,0,P|383:297|372:335,1,80,2|0,0:0|0:0,0:0:0:0:
136,140,2618,2,0,P|184:81|259:98,1,160,2|0,0:0|0:0,0:0:0:0:
236,332,3126,2,0,P|225:294|221:255,1,80,8|0,0:0|0:0,0:0:0:0:
209,150,3465,5,4,0:0:0:0:
104,268,3635,1,0,0:0:0:0:
256,172,3804,1,0,0:0:0:0:
66,169,3974,2,0,P|61:129|75:92,1,80,2|0,0:0|0:0,0:0:0:0:
323,73,4313,1,2,0:0:0:0:
172,52,4482,1,0,0:0:0:0:
166,268,4652,6,0,P|239:246|256:172,1,160,4|0,0:0|0:0,0:0:0:0:
48,324,5330,2,0,P|127:312|201:338,1,160,2|2,0:0|0:0,0:0:0:0:
400,252,5838,2,0,P|363:267|323:266,1,80,8|0,0:0|0:0,0:0:0:0:
120,220,6177,6,0,L|46:188,1,80,4|0,0:0|0:0,0:0:0:0:
248,144,6516,2,0,L|321:175,1,80,0|2,0:0|0:0,0:0:0:0:
244,300,6855,1,0,0:0:0:0:
120,220,7025,1,2,0:0:0:0:
248,144,7194,1,8,0:0:0:0:
125,300,7364,6,0,P|54:268|43:193,1,160,2|0,0:0|0:0,0:0:0:0:
224,217,7872,2,0,P|263:219|299:201,1,80,0|2,0:0|0:0,0:0:0:0:
248,144,8211,1,0,0:0:0:0:
324,284,8381,1,2,0:0:0:0:
392,116,8550,1,8,0:0:0:0:
388,364,8720,6,0,P|403:285|400:206,1,160,4|0,0:0|0:0,0:0:0:0:
224,217,9228,1,2,0:0:0:0:
324,284,9398,1,0,0:0:0:0:
312,160,9567,1,2,0:0:0:0:
232,316,9737,1,0,0:0:0:0:
404,240,9906,1,2,0:0:0:0:
180,216,10076,5,4,0:0:0:0:
180,216,11601,6,0,P|258:228|336:212,1,160,4|2,0:0|0:0,0:0:0:0:
448,156,12109,1,0,0:0:0:0:
304,136,12279,1,2,0:0:0:0:
436,240,12448,1,0,0:0:0:0:
396,32,12618,2,0,L|381:110,1,80,2|0,0:0|0:0,0:0:0:0:
288,324,12957,6,0,L|273:245,1,80,2|0,0:0|0:0,0:0:0:0:
304,136,13296,1,2,0:0:0:0:
160,284,13465,2,0,P|122:295|82:290,1,80,0|2,0:0|0:0,0:0:0:0:
88,92,13804,1,0,0:0:0:0:
240,208,13974,1,8,0:0:0:0:
104,188,14143,1,0,0:0:0:0:
264,116,14313,6,0,P|342:103|420:118,1,160,2|2,0:0|0:0,0:0:0:0:
379,287,14821,2,0,P|367:248|369:209,1,80,0|2,0:0|0:0,0:0:0:0:
484,284,15160,1,0,0:0:0:0:
364,372,15330,1,2,0:0:0:0:
252,292,15499,6,0,P|261:252|282:219,1,80,0|2,0:0|0:0,0:0:0:0:
400,112,15838,1,0,0:0:0:0:
288,36,16008,2,0,L|204:40,1,80,2|0,0:0|0:0,0:0:0:0:
72,172,16347,1,2,0:0:0:0:
272,208,16516,1,0,0:0:0:0:
168,116,16686,1,8,0:0:0:0:
168,300,16855,1,0,0:0:0:0:
358,211,17025,6,0,P|327:140|252:123,1,160,2|2,0:0|0:0,0:0:0:0:
84,252,17533,1,0,0:0:0:0:
84,252,17618,1,0,0:0:0:0:
84,252,17703,2,0,L|154:213,1,80,2|0,0:0|0:0,0:0:0:0:
304,308,18042,1,2,0:0:0:0:
144,320,18211,1,0,0:0:0:0:
281,231,18381,6,0,P|356:246|382:318,1,160,2|2,0:0|0:0,0:0:0:0:
383,318,18889,1,0,0:0:0:0:
212,284,19059,2,0,P|196:248|196:208,1,80,2|0,0:0|0:0,0:0:0:0:
360,32,19398,2,0,P|376:68|376:108,1,80,8|0,0:0|0:0,0:0:0:0:
281,231,19737,5,2,0:0:0:0:
381,319,19906,1,0,0:0:0:0:
406,187,20076,1,2,0:0:0:0:
276,328,20245,2,0,L|196:335,1,80,0|2,0:0|0:0,0:0:0:0:
28,232,20584,2,0,L|107:239,1,80,0|2,0:0|0:0,0:0:0:0:
220,88,20923,6,0,P|202:165|195:245,1,160
316,116,21431,1,8,0:0:0:0:
96,156,21601,1,2,0:0:0:0:
96,156,21940,5,2,0:0:0:0:
288,212,22109,1,8,0:0:0:0:
112,256,22279,1,8,0:0:0:0:
112,256,22364,1,8,0:0:0:0:
112,256,22448,2,0,P|177:214|193:137,1,160,4|8,0:0|0:0,0:0:0:0:
63,85,22957,2,0,P|72:124|96:156,1,80,0|2,0:0|0:0,0:0:0:0:
276,180,23296,2,0,P|314:172|354:178,1,80,0|8,0:0|0:0,0:0:0:0:
464,228,23635,1,0,0:0:0:0:
324,348,23804,6,0,L|244:351,1,80,2|0,0:0|0:0,0:0:0:0:
112,256,24143,1,8,0:0:0:0:
276,180,24313,1,0,0:0:0:0:
244,351,24482,2,0,P|224:317|220:277,1,80,2|0,0:0|0:0,0:0:0:0:
339,120,24821,2,0,P|358:154|362:194,1,80,8|0,0:0|0:0,0:0:0:0:
195,143,25160,6,0,P|118:128|39:140,1,160,2|8,0:0|0:0,0:0:0:0:
102,332,25669,2,0,P|116:295|112:256,1,80,0|2,0:0|0:0,0:0:0:0:
38,140,26008,1,0,0:0:0:0:
208,284,26177,2,0,L|288:288,1,80,8|0,0:0|0:0,0:0:0:0:
432,200,26516,5,2,0:0:0:0:
372,344,26686,1,0,0:0:0:0:
332,208,26855,1,8,0:0:0:0:
484,292,27025,1,0,0:0:0:0:
332,208,27194,2,0,L|252:204,1,80,2|0,0:0|0:0,0:0:0:0:
198,360,27533,2,0,P|212:323|208:284,1,80,8|0,0:0|0:0,0:0:0:0:
120,152,27872,5,4,0:0:0:0:
72,316,28042,1,0,0:0:0:0:
204,200,28211,1,8,0:0:0:0:
32,200,28381,1,0,0:0:0:0:
32,200,28550,2,0,L|104:232,1,80,2|0,0:0|0:0,0:0:0:0:
232,208,28889,1,8,0:0:0:0:
100,328,29059,1,0,0:0:0:0:
332,324,29228,6,0,P|333:284|322:246,1,80,2|0,0:0|0:0,0:0:0:0:
188,92,29567,1,8,0:0:0:0:
396,168,29737,1,0,0:0:0:0:
396,168,29906,2,0,L|475:164,1,80,2|0,0:0|0:0,0:0:0:0:
484,36,30245,1,8,0:0:0:0:
306,166,30415,6,0,L|332:324,1,160,4|0,0:0|0:0,0:0:0:0:
240,244,30923,1,0,0:0:0:0:
437,309,31092,1,2,0:0:0:0:
456,314,31431,1,2,0:0:0:0:
476,320,31770,6,0,L|487:240,1,80,4|0,0:0|0:0,0:0:0:0:
306,166,32109,1,8,0:0:0:0:
420,304,32279,1,8,0:0:0:0:
492,160,32448,1,8,0:0:0:0:
492,160,32533,1,8,0:0:0:0:
492,160,32618,1,8,0:0:0:0:
300,264,32787,1,8,0:0:0:0:
300,264,33126,6,0,P|232:229|161:260,1,160,4|0,0:0|0:0,0:0:0:0:
161,261,33635,2,0,L|168:181,1,80,0|2,0:0|0:0,0:0:0:0:
136,24,33974,1,8,0:0:0:0:
300,264,34313,1,0,0:0:0:0:
300,264,34482,6,0,P|368:299|439:268,1,160,2|0,0:0|0:0,0:0:0:0:
379,130,34991,2,0,L|372:210,1,80,2|0,0:0|0:0,0:0:0:0:
480,64,35330,1,8,0:0:0:0:
228,212,35669,1,0,0:0:0:0:
228,212,35838,6,0,L|148:204,1,80,2|0,0:0|0:0,0:0:0:0:
52,192,36177,1,0,0:0:0:0:
188,340,36347,1,0,0:0:0:0:
188,340,36516,2,0,L|268:332,1,80,2|8,0:0|0:0,0:0:0:0:
396,252,36855,2,0,P|378:287|377:327,1,80,2|0,0:0|0:0,0:0:0:0:
460,144,37194,6,0,P|457:104|438:69,1,80,2|0,0:0|0:0,0:0:0:0:
240,40,37533,1,0,0:0:0:0:
328,184,37703,1,2,0:0:0:0:
328,184,37872,2,0,L|324:264,1,80,0|8,0:0|0:0,0:0:0:0:
188,340,38211,1,8,0:0:0:0:
188,340,38296,1,8,0:0:0:0:
188,340,38381,1,2,0:0:0:0:
108,264,38550,6,0,L|29:246,1,80,2|4,0:0|0:0,0:0:0:0:
184,152,38889,1,0,0:0:0:0:
256,296,39059,1,2,0:0:0:0:
406,166,39228,2,0,L|328:184,1,80
256,296,39567,1,2,0:0:0:0:
464,308,39737,1,8,0:0:0:0:
274,218,39906,6,0,L|256:296,1,80,4|0,0:0|0:0,0:0:0:0:
406,166,40245,1,0,0:0:0:0:
184,152,40415,1,8,0:0:0:0:
360,340,40584,2,0,L|378:262,1,80,2|0,0:0|0:0,0:0:0:0:
406,166,40923,1,0,0:0:0:0:
256,296,41092,1,8,0:0:0:0:
105,138,41262,1,2,0:0:0:0:
105,138,41347,1,2,0:0:0:0:
105,138,41431,6,0,L|184:152,1,80,4|0,0:0|0:0,0:0:0:0:
406,166,41770,2,0,P|435:141|451:104,1,80,2|0,0:0|0:0,0:0:0:0:
256,296,42109,2,0,P|263:334|287:366,1,80,2|0,0:0|0:0,0:0:0:0:
296,136,42448,2,0,L|282:57,1,80,2|0,0:0|0:0,0:0:0:0:
152,272,42787,5,2,0:0:0:0:
152,272,42957,1,0,0:0:0:0:
356,204,43126,1,2,0:0:0:0:
356,204,43296,1,0,0:0:0:0:
168,108,43465,1,2,0:0:0:0:
168,108,43635,1,0,0:0:0:0:
256,296,43804,1,2,0:0:0:0:
432,156,43974,6,0,P|443:194|439:233,1,80,0|4,0:0|0:0,0:0:0:0:
248,200,44313,1,0,0:0:0:0:
392,336,44482,1,2,0:0:0:0:
480,164,44652,1,0,0:0:0:0:
280,212,44821,1,2,0:0:0:0:
480,296,44991,1,0,0:0:0:0:
416,108,45160,1,2,0:0:0:0:
300,300,45330,1,8,0:0:0:0:
300,300,45415,1,8,0:0:0:0:
300,300,45499,5,4,0:0:0:0:
480,164,45669,1,2,0:0:0:0:
300,300,46008,1,2,0:0:0:0:
300,300,46177,1,2,0:0:0:0:
136,228,46347,2,0,L|92:224,1,40,8|8,0:0|0:0,0:0:0:0:
208,168,46516,2,0,L|171:142,1,40,8|8,0:0|0:0,0:0:0:0:
303,161,46686,6,0,P|335:231|300:300,1,160,4|2,0:0|0:0,0:0:0:0:
300,300,47194,1,2,0:0:0:0:
480,164,47533,1,2,0:0:0:0:
480,164,47703,1,2,0:0:0:0:
172,76,48042,1,4,0:0:0:0:
256,192,48126,12,0,49228,0:0:0:0:
72,260,49567,5,4,0:0:0:0:
72,260,49906,2,0,P|110:251|149:261,1,80,8|2,0:0|0:0,0:0:0:0:
308,280,50245,1,2,0:0:0:0:
300,296,50330,1,0,0:0:0:0:
292,312,50415,1,2,0:0:0:0:
216,164,50584,1,8,0:0:0:0:
396,232,50754,6,0,P|467:204|480:128,1,160,2|0,0:0|0:0,0:0:0:0:
480,128,51262,1,8,0:0:0:0:
264,176,51431,2,0,P|254:214|263:252,1,80,2|0,0:0|0:0,0:0:0:0:
480,128,51770,2,0,P|489:89|480:51,1,80,2|8,0:0|0:0,0:0:0:0:
264,176,52109,6,0,P|190:200|115:176,1,160,4|0,0:0|0:0,0:0:0:0:
8,116,52618,1,8,0:0:0:0:
152,60,52787,1,2,0:0:0:0:
56,228,52957,2,0,L|48:307,1,80,2|2,0:0|0:0,0:0:0:0:
328,148,53296,1,8,0:0:0:0:
196,324,53465,6,0,P|150:262|182:193,1,160,2|0,0:0|0:0,0:0:0:0:
408,208,53974,1,8,0:0:0:0:
304,268,54143,2,0,L|225:255,1,80,2|0,0:0|0:0,0:0:0:0:
268,96,54482,1,2,0:0:0:0:
405,125,54652,1,8,0:0:0:0:
225,255,54821,1,2,0:0:0:0:
328,148,54991,6,0,L|408:124,1,80,4|0,0:0|0:0,0:0:0:0:
262,362,55330,2,0,P|223:351|196:324,1,80,8|2,0:0|0:0,0:0:0:0:
158,182,55669,1,2,0:0:0:0:
88,352,55838,1,2,0:0:0:0:
272,244,56008,1,8,0:0:0:0:
60,244,56177,1,2,0:0:0:0:
262,362,56347,6,0,P|340:374|415:349,1,160,4|8,0:0|0:0,0:0:0:0:
480,184,56855,2,0,L|473:263,1,80,2|2,0:0|0:0,0:0:0:0:
276,152,57194,1,2,0:0:0:0:
372,280,57364,1,8,0:0:0:0:
412,128,57533,1,2,0:0:0:0:
195,162,57703,6,0,P|198:122|221:90,1,80,4|0,0:0|0:0,0:0:0:0:
412,128,58042,1,2,0:0:0:0:
224,296,58211,1,4,0:0:0:0:
40,52,58550,1,4,0:0:0:0:
412,128,58889,6,0,P|446:66|380:38,1,160,4|0,0:0|0:0,0:0:0:0:
388,240,59398,1,8,0:0:0:0:
228,140,59567,5,0,0:0:0:0:
220,140,59652,1,0,0:0:0:0:
211,140,59737,1,2,0:0:0:0:
188,147,59821,1,0,0:0:0:0:
167,160,59906,1,0,0:0:0:0:
151,179,59991,1,0,0:0:0:0:
141,202,60076,1,2,0:0:0:0:
137,227,60160,1,0,0:0:0:0:
141,251,60245,1,0,0:0:0:0:
151,274,60330,1,0,0:0:0:0:
168,293,60415,5,4,0:0:0:0:
388,239,60754,2,0,P|396:201|385:162,1,80,8|0,0:0|0:0,0:0:0:0:
167,92,61092,2,0,B|138:107|130:135|130:135|178:159|228:140,1,160,2|8,0:0|0:0,0:0:0:0:
468,36,61601,6,0,P|407:87|386:163,1,160,2|0,0:0|0:0,0:0:0:0:
456,344,62109,1,8,0:0:0:0:
303,263,62279,2,0,P|265:255|225:260,1,80,0|2,0:0|0:0,0:0:0:0:
36,324,62618,2,0,P|74:332|114:327,1,80,0|8,0:0|0:0,0:0:0:0:
316,168,62957,1,0,0:0:0:0:
135,56,63126,6,0,P|118:91|115:131,1,80,4|0,0:0|0:0,0:0:0:0:
192,308,63465,1,8,0:0:0:0:
316,168,63635,1,0,0:0:0:0:
92,264,63804,2,0,P|171:271|248:253,1,160,2|8,0:0|0:0,0:0:0:0:
428,96,64313,6,0,L|420:192,1,80,4|0,0:0|0:0,0:0:0:0:
472,348,64652,1,2,0:0:0:0:
352,208,64821,1,8,0:0:0:0:
216,384,64991,2,0,P|253:369|280:341,1,80,2|0,0:0|0:0,0:0:0:0:
96,216,65330,2,0,P|56:212|19:227,1,80,2|8,0:0|0:0,0:0:0:0:
192,280,65669,1,0,0:0:0:0:
192,280,65838,6,0,P|209:202|216:123,1,160,4|8,0:0|0:0,0:0:0:0:
113,292,66347,1,2,0:0:0:0:
113,292,66516,2,0,P|152:282|191:280,1,80,0|2,0:0|0:0,0:0:0:0:
360,316,66855,2,0,P|399:320|437:309,1,80,8|0,0:0|0:0,0:0:0:0:
352,100,67194,6,0,P|333:173|388:226,1,160,2|8,0:0|0:0,0:0:0:0:
480,112,67703,1,2,0:0:0:0:
256,212,67872,2,0,P|216:216|176:210,1,80,0|2,0:0|0:0,0:0:0:0:
40,152,68211,1,8,0:0:0:0:
220,76,68381,1,0,0:0:0:0:
113,292,68550,6,0,L|105:371,1,80,4|0,0:0|0:0,0:0:0:0:
40,152,68889,1,8,0:0:0:0:
220,308,69059,1,2,0:0:0:0:
304,92,69398,1,2,0:0:0:0:
464,260,69737,1,2,0:0:0:0:
256,192,69821,12,0,70923,0:0:0:0:
128,100,71262,5,2,0:0:0:0:
128,129,71347,1,0,0:0:0:0:
129,159,71431,1,0,0:0:0:0:
130,189,71516,1,0,0:0:0:0:
131,219,71601,2,0,L|151:254,3,40,2|0|0|0,0:0|0:0|0:0|0:0,0:0:0:0:
232,256,71940,2,0,L|266:276,3,40,2|0|0|0,0:0|0:0|0:0|0:0,0:0:0:0:
336,231,72279,2,0,P|374:223|413:231,1,80,2|0,0:0|0:0,0:0:0:0:
248,344,72618,5,2,0:0:0:0:
348,184,72787,1,0,0:0:0:0:
424,308,72957,1,2,0:0:0:0:
232,256,73126,1,0,0:0:0:0:
424,220,73296,1,2,0:0:0:0:
332,376,73465,1,0,0:0:0:0:
192,219,73635,2,0,P|183:180|191:141,1,80,2|0,0:0|0:0,0:0:0:0:
424,173,73974,6,0,P|346:191|268:180,1,160,2|2,0:0|0:0,0:0:0:0:
120,60,74482,1,0,0:0:0:0:
120,60,74652,2,0,P|159:52|198:55,1,80,2|0,0:0|0:0,0:0:0:0:
96,208,74991,2,0,P|56:215|17:212,1,80,2|0,0:0|0:0,0:0:0:0:
104,96,75330,5,2,0:0:0:0:
224,272,75499,1,0,0:0:0:0:
240,124,75669,1,2,0:0:0:0:
96,208,75838,1,0,0:0:0:0:
312,372,76008,2,0,P|319:333|316:294,1,80,2|0,0:0|0:0,0:0:0:0:
145,267,76347,2,0,P|184:274|224:272,1,80,2|0,0:0|0:0,0:0:0:0:
444,176,76686,6,0,P|452:137|443:98,1,80,4|0,0:0|0:0,0:0:0:0:
308,208,77025,1,2,0:0:0:0:
456,340,77194,1,0,0:0:0:0:
444,176,77364,1,2,0:0:0:0:
316,320,77533,1,0,0:0:0:0:
484,184,77703,1,2,0:0:0:0:
288,160,77872,1,0,0:0:0:0:
395,338,78042,6,0,P|432:352|471:348,1,80,2|2,0:0|0:0,0:0:0:0:
208,196,78381,2,0,P|168:202|136:225,1,80,2|2,0:0|0:0,0:0:0:0:
297,325,78720,1,2,0:0:0:0:
304,301,78804,1,0,0:0:0:0:
308,277,78889,1,2,0:0:0:0:
306,252,78974,1,0,0:0:0:0:
297,228,79059,1,2,0:0:0:0:
288,205,79143,1,0,0:0:0:0:
284,180,79228,1,2,0:0:0:0:
287,155,79313,1,0,0:0:0:0:
296,131,79398,6,0,P|367:103|430:146,1,160,4|0,0:0|0:0,0:0:0:0:
204,68,79906,2,0,P|165:58|126:65,1,80,2|0,0:0|0:0,0:0:0:0:
224,352,80245,1,0,0:0:0:0:
172,220,80415,1,2,0:0:0:0:
0,292,80584,6,0,P|64:334|137:310,1,160,4|2,0:0|0:0,0:0:0:0:
137,310,81092,1,0,0:0:0:0:
303,168,81262,2,0,P|284:243|327:307,1,160,2|0,0:0|0:0,0:0:0:0:
455,217,81770,2,0,P|416:212|380:227,1,80,8|0,0:0|0:0,0:0:0:0:
496,340,82109,5,4,0:0:0:0:
455,217,82279,1,0,0:0:0:0:
327,307,82448,1,0,0:0:0:0:
264,99,82618,2,0,P|340:97|382:161,1,160,2|2,0:0|0:0,0:0:0:0:
382,161,83042,1,0,3:0:0:0:
382,161,83126,1,0,3:0:0:0:
147,182,83296,6,0,P|227:188|303:168,1,160,4|2,0:0|0:0,0:0:0:0:
416,48,83804,1,2,0:0:0:0:
252,224,83974,2,0,L|248:303,1,80,4|0,0:0|0:0,0:0:0:0:
416,252,84313,1,4,0:0:0:0:
248,303,84482,1,0,0:0:0:0:
416,48,84652,1,4,0:0:0:0:
256,192,84737,12,0,88550,0:0:0:0:
