osu file format v14

[General]
AudioFilename: r.mp3
AudioLeadIn: 2000
PreviewTime: 22641
Countdown: 0
SampleSet: Soft
StackLeniency: 0.6
Mode: 0
LetterboxInBreaks: 0
WidescreenStoryboard: 0

[Editor]
Bookmarks: 5987,12043,18099,24155,29314,34459,39603,44748
DistanceSpacing: 1
BeatDivisor: 4
GridSize: 4
TimelineZoom: 1.2

[Metadata]
Title:Miao Diao Dui You Shun Jian Bao Zha
TitleUnicode:秒掉队友 瞬间爆炸
Artist:NaixLM
ArtistUnicode:瞬间爆炸型NaixLM
Creator:liangv587
Version:Insane
Source:
Tags:若风 ruo feng misaya av1806948 哔哩哔哩 bilibili douga Kirby lol tm1209 T-Mac
BeatmapID:680543
BeatmapSetID:289713

[Difficulty]
HPDrainRate:6
CircleSize:4
OverallDifficulty:7
ApproachRate:8
SliderMultiplier:1.8
SliderTickRate:2

[Events]
//Background and Video events
0,0,"rf.jpg",0,0
//Break Periods
//Storyboard Layer 0 (Background)
//Storyboard Layer 1 (Fail)
//Storyboard Layer 2 (Pass)
//Storyboard Layer 3 (Foreground)
//Storyboard Sound Samples

[TimingPoints]
26,378.501135503406,4,2,0,60,1,0
24250,321.543408360129,4,2,0,60,1,1
34217,-100,4,2,0,60,0,0
34539,-90.9090909090909,4,2,0,70,0,1
44185,-83.3333333333333,4,2,0,60,0,0
44668,-100,4,2,0,40,0,0

[Colours]
Combo1 : 255,128,0
Combo2 : 128,64,64
Combo3 : 255,255,0
Combo4 : 255,0,0

[HitObjects]
189,325,26,6,0,P|282:313|362:267,1,180,4|2,0:3|1:3,0:0:0:0:
388,159,593,1,2,0:0:0:0:
388,159,688,1,2,0:0:0:0:
388,159,783,2,0,P|376:109|356:65,1,90,4|0,0:3|3:0,0:0:0:0:
246,46,1161,2,0,P|258:96|278:140,1,90,2|0,1:2|3:0,0:0:0:0:
209,232,1540,6,0,P|166:243|112:244,2,90,4|2|2,0:3|0:0|1:3,0:0:0:0:
165,123,2107,1,2,0:0:0:0:
29,166,2297,2,0,P|28:214|30:263,1,90,4|0,0:3|3:0,0:0:0:0:
19,299,2580,1,0,3:0:0:0:
9,343,2675,2,0,P|46:337|104:337,1,90,2|0,1:2|3:0,0:0:0:0:
215,332,3054,38,0,P|298:361|407:347,1,180,4|2,0:3|1:3,0:0:0:0:
497,311,3621,1,2,0:0:0:0:
497,311,3716,1,2,0:0:0:0:
497,311,3811,2,0,P|485:261|465:217,1,90,4|0,0:3|3:0,0:0:0:0:
490,110,4189,2,0,P|472:68|462:24,1,90,2|0,1:2|3:0,0:0:0:0:
346,147,4568,6,0,P|303:158|249:159,2,90,4|2|8,0:3|0:0|1:3,0:0:0:0:
350,30,5135,1,2,0:0:0:0:
330,227,5325,2,0,P|276:234|229:231,1,90,4|0,0:3|3:0,0:0:0:0:
208,264,5608,1,0,3:0:0:0:
188,305,5703,2,0,P|234:312|285:312,1,90,6|0,1:2|3:0,0:0:0:0:
181,182,6082,38,0,L|150:82,1,90,4|2,0:3|0:0,0:0:0:0:
39,74,6460,2,0,L|68:166,1,90,2|2,1:3|0:0,0:0:0:0:
188,305,6839,1,4,0:3:0:0:
85,361,7028,1,0,3:0:0:0:
9,271,7217,1,2,1:2:0:0:
106,254,7406,1,0,3:0:0:0:
181,182,7596,6,0,P|195:90|267:37,1,180,4|10,0:3|1:3,0:0:0:0:
376,34,8163,1,2,0:0:0:0:
395,149,8353,2,0,L|384:247,1,90,4|0,0:3|3:0,0:0:0:0:
277,283,8731,2,0,L|287:193,1,90,2|0,1:2|3:0,0:0:0:0:
489,95,9110,38,0,L|467:296,1,180,4|8,0:3|1:3,0:0:0:0:
377,346,9677,1,2,0:0:0:0:
277,283,9867,2,0,P|234:302|193:333,1,90,4|0,0:3|3:0,0:0:0:0:
173,213,10245,2,0,P|141:249|113:295,1,90,2|0,1:2|3:0,0:0:0:0:
31,362,10624,6,0,L|26:261,1,90,4|2,0:3|0:0,0:0:0:0:
26,254,10907,1,2,0:0:0:0:
26,235,11002,1,2,1:3:0:0:
99,144,11191,1,2,0:0:0:0:
20,56,11381,1,4,0:3:0:0:
136,52,11570,1,0,3:0:0:0:
153,50,11664,1,0,3:0:0:0:
170,47,11759,2,0,L|190:143,1,90,6|0,1:2|3:0,0:0:0:0:
299,172,12138,38,0,P|350:106|272:112,1,180,4|2,0:3|1:3,0:0:0:0:
196,167,12705,1,2,0:0:0:0:
196,167,12800,1,2,0:0:0:0:
196,167,12895,2,0,L|216:263,1,90,4|0,0:3|3:0,0:0:0:0:
292,341,13273,1,2,1:2:0:0:
349,239,13462,1,0,3:0:0:0:
407,340,13652,6,0,L|477:262,1,90,4|2,0:3|0:0,0:0:0:0:
467,255,13935,1,2,0:0:0:0:
468,237,14030,1,2,1:3:0:0:
469,120,14219,1,2,0:0:0:0:
362,34,14409,2,0,L|359:132,1,90,4|0,0:3|3:0,0:0:0:0:
265,193,14787,1,2,1:2:0:0:
195,100,14976,1,0,3:0:0:0:
82,135,15166,38,0,L|83:38,1,90,4|2,0:3|0:0,0:0:0:0:
46,19,15449,1,2,0:0:0:0:
12,49,15544,2,0,L|9:143,1,90,2|2,1:3|0:0,0:0:0:0:
28,279,15923,2,0,L|133:276,1,90,4|0,0:3|3:0,0:0:0:0:
133,318,16206,1,0,3:0:0:0:
152,359,16301,2,0,L|52:363,1,90,2|0,1:2|3:0,0:0:0:0:
198,258,16680,5,4,0:3:0:0:
266,352,16869,1,2,0:0:0:0:
266,352,16963,1,2,0:0:0:0:
266,352,17058,2,0,L|358:374,1,90,8|2,1:3|0:0,0:0:0:0:
460,325,17437,2,0,L|373:302,1,90,4|0,0:3|3:0,0:0:0:0:
305,206,17815,2,0,L|400:232,1,90,6|0,1:2|3:0,0:0:0:0:
471,143,18194,38,0,L|504:32,1,90,4|2,0:3|0:0,0:0:0:0:
455,39,18477,1,2,0:0:0:0:
414,20,18572,2,0,L|386:110,1,90,2|2,1:3|0:0,0:0:0:0:
270,40,18951,2,0,L|181:54,1,90,4|0,0:3|3:0,0:0:0:0:
184,98,19234,1,0,3:0:0:0:
191,142,19329,2,0,L|280:127,1,90,2|0,1:2|3:0,0:0:0:0:
275,257,19708,6,0,L|91:289,1,180,4|8,0:3|1:3,0:0:0:0:
5,359,20275,1,2,0:0:0:0:
15,234,20465,2,0,L|21:140,1,90,4|0,0:3|0:0,0:0:0:0:
115,213,20843,2,0,L|123:111,1,90,2|0,1:2|3:0,0:0:0:0:
25,56,21222,37,4,0:3:0:0:
134,14,21411,1,2,0:0:0:0:
231,78,21600,1,8,1:3:0:0:
340,34,21790,1,2,0:0:0:0:
373,145,21979,2,0,P|477:183|450:74,1,270,4|0,0:3|3:0,0:0:0:0:
305,106,22736,5,4,0:3:0:0:
200,158,22925,2,0,L|206:257,1,90,2|2,0:0|1:3,0:0:0:0:
271,343,23303,1,2,0:0:0:0:
328,240,23493,2,0,L|434:233,1,90,4|0,0:3|3:0,0:0:0:0:
428,219,23776,1,0,3:0:0:0:
439,204,23871,2,0,L|483:200,2,45,6|0|0,1:2|3:0|3:0,0:0:0:0:
453,74,24250,6,0,L|263:85,1,180,4|2,0:3|1:3,0:0:0:0:
165,38,24732,1,2,0:0:0:0:
99,134,24893,2,0,L|10:88,1,90,4|0,0:3|3:0,0:0:0:0:
13,137,25134,1,0,3:0:0:0:
12,182,25214,2,0,L|91:223,1,90,8|0,1:3|3:0,0:0:0:0:
111,339,25536,6,0,P|188:294|203:207,1,180,4|2,0:3|1:3,0:0:0:0:
233,96,26018,1,2,0:0:0:0:
350,99,26179,2,0,L|357:195,1,90,4|0,0:3|3:0,0:0:0:0:
371,199,26420,1,0,3:0:0:0:
385,208,26500,2,0,L|298:241,1,90,6|0,1:2|3:0,0:0:0:0:
252,375,26822,38,0,L|422:309,1,180,4|2,0:3|1:3,0:0:0:0:
493,218,27304,1,2,0:0:0:0:
435,118,27465,2,0,L|463:31,1,90,4|0,0:3|3:0,0:0:0:0:
418,23,27706,1,0,3:0:0:0:
374,12,27786,2,0,L|349:101,1,90,8|0,1:3|3:0,0:0:0:0:
231,78,28108,6,0,L|132:81,1,90,4|2,0:3|0:0,0:0:0:0:
131,65,28349,1,2,0:0:0:0:
121,49,28430,2,0,L|31:50,1,90,2|2,1:3|0:0,0:0:0:0:
70,179,28751,2,0,L|167:175,1,90,4|0,0:3|3:0,0:0:0:0:
117,304,29073,2,0,L|26:309,1,90,6|0,1:2|3:0,0:0:0:0:
214,268,29394,38,0,B|234:325|199:374|199:374|270:357,1,180,4|2,0:3|1:3,0:0:0:0:
382,370,29877,1,2,0:0:0:0:
409,256,30037,2,0,P|388:224|339:177,1,90,4|0,0:3|3:0,0:0:0:0:
240,148,30359,1,8,1:3:0:0:
148,221,30520,1,0,3:0:0:0:
34,195,30680,6,0,P|13:149|4:106,1,90,4|2,0:3|0:0,0:0:0:0:
145,47,31002,1,2,1:3:0:0:
27,10,31163,1,2,0:0:0:0:
132,136,31323,2,0,P|226:149|323:126,1,180,4|6,0:3|1:2,0:0:0:0:
380,38,31806,1,0,3:0:0:0:
481,93,31967,38,0,P|486:136|472:193,1,90,4|2,0:3|0:0,0:0:0:0:
374,237,32288,1,2,1:3:0:0:
474,297,32449,1,2,0:0:0:0:
369,349,32610,2,0,P|281:366|191:357,1,180,4|8,0:3|1:3,0:0:0:0:
79,322,33092,1,0,3:0:0:0:
158,197,33253,6,0,P|118:128|60:188,1,180,4|2,0:3|1:3,0:0:0:0:
137,268,33735,1,2,0:0:0:0:
255,266,33896,2,0,L|262:150,1,90,4|0,0:3|3:0,0:0:0:0:
252,160,34137,1,0,3:0:0:0:
243,144,34217,1,6,1:2:0:0:
166,54,34378,1,0,3:0:0:0:
40,24,34539,38,0,L|240:36,1,198.000006042481,4|2,0:3|1:3,0:0:0:0:
355,42,35021,1,2,0:0:0:0:
405,160,35182,2,0,B|444:123|444:123|496:112,1,99.0000030212403,4|0,0:3|3:0,0:0:0:0:
491,163,35423,1,0,3:0:0:0:
489,212,35503,2,0,B|449:249|449:249|401:257,1,99.0000030212403,8|0,1:3|3:0,0:0:0:0:
409,364,35825,6,0,P|320:328|295:236,1,198.000006042481,4|2,0:3|1:3,0:0:0:0:
333,112,36307,1,2,0:0:0:0:
173,109,36468,2,0,L|165:208,1,99.0000030212403,4|0,0:3|3:0,0:0:0:0:
146,212,36709,1,0,3:0:0:0:
126,216,36789,2,0,L|222:256,1,99.0000030212403,6|0,1:2|3:0,0:0:0:0:
196,376,37111,38,0,B|61:323|61:323|24:276,1,198.000006042481,4|2,0:3|1:3,0:0:0:0:
62,157,37593,1,2,0:0:0:0:
173,109,37754,2,0,B|145:53|145:53|145:13,1,99.0000030212403,4|0,0:3|3:0,0:0:0:0:
194,24,37995,1,0,3:0:0:0:
243,29,38076,2,0,B|269:88|269:88|268:123,1,99.0000030212403,8|0,1:3|3:0,0:0:0:0:
217,254,38397,6,0,L|322:257,1,99.0000030212403,4|2,0:3|0:0,0:0:0:0:
313,238,38638,1,2,0:0:0:0:
309,218,38719,2,0,L|409:222,1,99.0000030212403,0|2,1:0|0:0,0:0:0:0:
474,332,39040,2,0,L|374:328,1,99.0000030212403,4|0,0:3|3:0,0:0:0:0:
387,125,39362,2,0,L|495:131,1,99.0000030212403,6|0,1:2|3:0,0:0:0:0:
316,35,39683,38,0,B|268:78|275:150|275:150|199:146,1,198.000006042481,4|2,0:3|1:3,0:0:0:0:
93,79,40166,1,2,0:0:0:0:
95,207,40326,2,0,P|83:255|49:306,1,99.0000030212403,4|0,0:3|3:0,0:0:0:0:
201,247,40648,1,8,1:3:0:0:
252,365,40809,1,0,3:0:0:0:
375,328,40970,6,0,P|403:275|413:225,1,99.0000030212403,4|2,0:3|0:0,0:0:0:0:
413,36,41291,1,2,1:3:0:0:
487,141,41452,1,2,0:0:0:0:
344,148,41612,2,0,P|248:157|146:133,1,198.000006042481,4|6,0:3|1:2,0:0:0:0:
80,25,42095,1,0,3:0:0:0:
29,143,42256,38,0,P|30:186|39:243,1,99.0000030212403,4|0,0:3|1:0,0:0:0:0:
167,235,42577,1,2,0:0:0:0:
58,342,42738,1,0,0:0:0:0:
193,331,42899,2,0,P|283:348|393:331,1,198.000006042481,4|0,1:3|1:0,0:0:0:0:
495,262,43381,1,2,0:0:0:0:
376,172,43542,6,0,P|417:100|500:160,1,198.000006042481,2|2,0:3|1:3,0:0:0:0:
412,245,44024,1,8,0:3:0:0:
256,192,44185,2,0,L|256:76,1,107.999996704102,6|0,0:0|2:0,0:0:0:0:
256,192,44909,12,0,46275,0:0:0:0:
