osu file format v14

[General]
AudioFilename: r.mp3
AudioLeadIn: 2000
PreviewTime: 22641
Countdown: 0
SampleSet: Soft
StackLeniency: 0.6
Mode: 0
LetterboxInBreaks: 0
WidescreenStoryboard: 0

[Editor]
Bookmarks: 5987,12043,18099,24155,29314,34459,39603,44748
DistanceSpacing: 1
BeatDivisor: 4
GridSize: 4
TimelineZoom: 1.1

[Metadata]
Title:Miao Diao Dui You Shun Jian Bao Zha
TitleUnicode:秒掉队友 瞬间爆炸
Artist:NaixLM
ArtistUnicode:瞬间爆炸型NaixLM
Creator:liangv587
Version:Boom
Source:
Tags:若风 ruo feng misaya av1806948 哔哩哔哩 bilibili douga Kirby lol tm1209 T-Mac
BeatmapID:652944
BeatmapSetID:289713

[Difficulty]
HPDrainRate:7
CircleSize:5
OverallDifficulty:8
ApproachRate:9
SliderMultiplier:2
SliderTickRate:4

[Events]
//Background and Video events
0,0,"rf.jpg",0,0
//Break Periods
//Storyboard Layer 0 (Background)
//Storyboard Layer 1 (Fail)
//Storyboard Layer 2 (Pass)
//Storyboard Layer 3 (Foreground)
//Storyboard Sound Samples

[TimingPoints]
26,378.501135503406,4,2,0,60,1,0
24250,321.543408360129,4,2,0,60,1,1
34217,-100,4,2,0,60,0,0
34539,-80,4,2,0,70,0,1
42336,-100,4,2,0,70,0,1
42819,-80,4,2,0,70,0,1
43140,-66.6666666666667,4,2,0,70,0,1
44185,-66.6666666666667,4,2,0,60,0,0
44266,-66.6666666666667,4,2,0,40,0,0

[Colours]
Combo1 : 255,128,0
Combo2 : 128,64,64
Combo3 : 255,255,0
Combo4 : 255,0,0

[HitObjects]
128,144,26,6,0,P|184:148|228:176,1,100,4|2,0:3|0:0,0:0:0:0:
20,224,404,1,2,1:3:0:0:
143,260,593,1,2,0:0:0:0:
131,275,688,1,2,0:0:0:0:
119,290,783,2,0,P|156:321|215:329,1,100,4|0,0:3|3:0,0:0:0:0:
295,250,1161,2,0,L|324:148,1,100,2|0,1:2|3:0,0:0:0:0:
469,61,1540,6,0,L|442:158,2,100,4|2|2,0:3|0:0|1:3,0:0:0:0:
232,78,2107,1,2,0:0:0:0:
188,249,2297,1,4,0:3:0:0:
207,71,2486,1,0,3:0:0:0:
182,65,2580,1,0,3:0:0:0:
156,59,2675,2,0,L|121:106,2,50,2|0|0,1:2|3:0|3:0,0:0:0:0:
14,194,3054,38,0,L|117:182,1,100,4|2,0:3|0:0,0:0:0:0:
88,261,3337,1,2,0:0:0:0:
88,261,3432,2,0,L|191:249,1,100,2|2,1:3|0:0,0:0:0:0:
283,336,3811,1,4,0:3:0:0:
502,289,4000,1,0,3:0:0:0:
384,271,4189,1,2,1:2:0:0:
401,354,4378,1,0,3:0:0:0:
368,181,4568,5,4,0:3:0:0:
480,182,4757,1,2,0:0:0:0:
475,157,4851,1,2,0:0:0:0:
470,132,4946,1,8,1:3:0:0:
362,153,5136,1,2,0:0:0:0:
356,123,5230,1,2,0:0:0:0:
350,92,5325,2,0,B|341:43|341:43|286:19,2,100,4|0|6,0:3|3:0|1:2,0:0:0:0:
254,204,5892,1,0,3:0:0:0:
243,226,5987,1,0,3:0:0:0:
231,247,6082,38,0,P|193:283|136:293,1,100,4|2,0:3|0:0,0:0:0:0:
5,296,6460,2,0,P|43:260|100:250,1,100,2|2,1:3|0:0,0:0:0:0:
269,181,6839,1,4,0:3:0:0:
50,134,7028,1,0,3:0:0:0:
168,116,7217,1,2,1:2:0:0:
151,199,7406,1,0,3:0:0:0:
67,51,7596,5,4,0:3:0:0:
168,116,7785,1,2,0:0:0:0:
50,134,7974,1,10,1:3:0:0:
286,98,8163,1,2,0:0:0:0:
33,217,8353,1,4,0:3:0:0:
185,33,8542,1,0,3:0:0:0:
151,199,8731,1,2,1:2:0:0:
269,181,8920,1,0,3:0:0:0:
168,116,9110,37,4,0:3:0:0:
330,27,9299,1,2,0:0:0:0:
357,38,9393,1,2,0:0:0:0:
384,50,9488,2,0,L|491:94,1,100,8|2,1:3|0:0,0:0:0:0:
388,159,9867,1,4,0:3:0:0:
390,188,9961,1,0,3:0:0:0:
391,218,10056,1,0,3:0:0:0:
395,346,10245,2,0,L|392:247,1,100,2|0,1:2|3:0,0:0:0:0:
300,338,10624,5,4,0:3:0:0:
215,340,10813,1,2,0:0:0:0:
244,333,10906,1,2,0:0:0:0:
273,325,11001,1,2,1:3:0:0:
131,338,11191,1,2,0:0:0:0:
160,331,11285,1,2,0:0:0:0:
189,323,11380,1,4,0:3:0:0:
46,339,11569,1,0,3:0:0:0:
75,332,11663,1,0,3:0:0:0:
104,324,11758,1,6,1:2:0:0:
19,323,11948,1,0,3:0:0:0:
49,116,12138,38,0,P|62:165|52:217,1,100,4|2,0:3|0:0,0:0:0:0:
34,228,12421,1,2,0:0:0:0:
75,199,12516,2,0,P|124:186|176:196,1,100,2|2,1:3|0:0,0:0:0:0:
262,248,12895,2,0,P|275:199|265:147,1,100,4|0,0:3|3:0,0:0:0:0:
247,136,13178,1,0,3:0:0:0:
288,165,13273,2,0,P|337:178|389:168,1,100,2|0,1:2|3:0,0:0:0:0:
419,40,13652,5,4,0:3:0:0:
334,38,13841,1,2,0:0:0:0:
363,45,13934,1,2,0:0:0:0:
392,53,14029,1,2,1:3:0:0:
250,40,14219,1,2,0:0:0:0:
279,47,14313,1,2,0:0:0:0:
308,55,14408,1,4,0:3:0:0:
165,39,14597,1,0,3:0:0:0:
194,46,14691,1,0,3:0:0:0:
223,54,14786,1,2,1:2:0:0:
138,55,14976,1,0,3:0:0:0:
48,115,15166,38,0,P|69:156|26:179,1,100,4|2,0:3|0:0,0:0:0:0:
26,96,15449,1,2,0:0:0:0:
48,115,15544,2,0,P|102:137|157:137,1,100,2|2,1:3|0:0,0:0:0:0:
209,240,15923,2,0,P|245:207|265:152,1,100,4|0,0:3|3:0,0:0:0:0:
180,248,16206,1,0,3:0:0:0:
209,240,16301,2,0,P|250:264|228:307,1,100,2|0,1:2|3:0,0:0:0:0:
140,350,16680,5,4,0:3:0:0:
283,364,16869,1,2,0:0:0:0:
283,364,16963,1,2,0:0:0:0:
283,364,17058,2,0,P|318:325|327:265,1,100,8|2,1:3|0:0,0:0:0:0:
446,302,17437,2,0,P|443:252|419:202,2,100,4|0|6,0:3|3:0|1:2,0:0:0:0:
314,172,18004,1,0,3:0:0:0:
321,145,18099,1,0,3:0:0:0:
336,119,18194,38,0,P|382:91|437:88,1,100,4|2,0:3|0:0,0:0:0:0:
422,207,18572,1,2,1:3:0:0:
260,100,18761,1,2,0:0:0:0:
253,77,18856,1,2,0:0:0:0:
245,54,18951,1,4,0:3:0:0:
150,117,19139,1,0,3:0:0:0:
129,96,19234,1,0,3:0:0:0:
106,75,19329,1,2,1:2:0:0:
86,204,19518,1,0,3:0:0:0:
50,194,19613,1,0,3:0:0:0:
14,184,19708,6,0,B|52:195|52:195|59:311,1,150,4|2,0:3|0:0,0:0:0:0:
61,345,20086,1,8,1:3:0:0:
151,283,20275,1,2,0:0:0:0:
187,293,20370,1,2,0:0:0:0:
223,303,20465,2,0,B|185:292|185:292|178:176,1,150,4|0,0:3|3:0,0:0:0:0:
176,142,20843,1,2,1:2:0:0:
176,142,21032,1,0,3:0:0:0:
256,44,21222,38,0,L|365:33,1,100,4|2,0:3|0:0,0:0:0:0:
326,108,21505,1,2,0:0:0:0:
326,108,21600,2,0,L|435:97,1,100,8|2,1:3|0:0,0:0:0:0:
496,162,21979,2,0,L|387:173,1,100,4|0,0:3|3:0,0:0:0:0:
472,236,22262,1,0,3:0:0:0:
472,236,22357,2,0,L|363:247,1,100,2|0,1:2|3:0,0:0:0:0:
332,359,22736,5,4,0:3:0:0:
264,215,22925,2,0,L|258:314,1,100,2|2,0:0|1:3,0:0:0:0:
178,166,23303,1,2,0:0:0:0:
89,120,23492,2,0,L|83:20,1,100,4|0,0:3|3:0,0:0:0:0:
13,181,23871,2,0,L|9:240,2,50,6|0|0,1:2|3:0|3:0,0:0:0:0:
102,227,24250,6,0,B|98:280|98:280|102:327,1,100,4|2,0:3|0:0,0:0:0:0:
178,166,24571,2,0,B|182:113|182:113|178:66,1,100,2|2,1:3|0:0,0:0:0:0:
191,273,24893,1,4,0:3:0:0:
280,319,25053,1,0,3:0:0:0:
354,261,25214,1,8,1:3:0:0:
265,215,25375,1,0,3:0:0:0:
369,364,25536,6,0,P|419:345|451:284,1,100,4|2,0:3|0:0,0:0:0:0:
447,285,25777,1,2,0:0:0:0:
447,262,25857,2,0,L|443:159,1,100,2|2,1:3|0:0,0:0:0:0:
345,42,26179,2,0,L|349:145,1,100,4|0,0:3|3:0,0:0:0:0:
351,165,26420,1,0,3:0:0:0:
352,188,26500,1,6,1:2:0:0:
230,245,26661,1,0,3:0:0:0:
221,266,26741,1,0,3:0:0:0:
212,287,26822,38,0,L|107:302,1,100,4|2,0:3|0:0,0:0:0:0:
45,238,27063,1,2,0:0:0:0:
45,238,27143,2,0,L|150:223,1,100,2|2,1:3|0:0,0:0:0:0:
220,139,27465,2,0,P|203:88|225:37,1,100,4|0,0:3|3:0,0:0:0:0:
279,32,27706,1,0,3:0:0:0:
279,32,27786,2,0,P|232:45|170:38,1,100,8|0,1:3|3:0,0:0:0:0:
48,165,28108,6,0,P|95:152|157:159,1,100,4|2,0:3|0:0,0:0:0:0:
144,224,28349,1,2,0:0:0:0:
144,224,28430,2,0,P|127:275|149:326,1,100,2|2,1:3|0:0,0:0:0:0:
263,349,28751,1,4,0:3:0:0:
282,320,28831,1,0,0:0:0:0:
292,286,28911,1,0,3:0:0:0:
290,251,28992,1,0,3:0:0:0:
278,219,29072,1,6,1:2:0:0:
263,99,29233,1,0,3:0:0:0:
263,99,29314,1,0,3:0:0:0:
263,99,29394,38,0,P|308:116|364:113,1,100,4|2,0:3|0:0,0:0:0:0:
463,19,29716,1,2,1:3:0:0:
351,209,29877,1,2,0:0:0:0:
351,209,29957,1,2,0:0:0:0:
351,209,30037,2,0,P|401:197|442:155,1,100,4|0,0:3|3:0,0:0:0:0:
377,27,30359,1,8,1:3:0:0:
501,106,30520,1,0,3:0:0:0:
452,249,30680,6,0,P|460:303|488:345,1,100,4|2,0:3|0:0,0:0:0:0:
420,373,30922,1,2,0:0:0:0:
420,373,31002,2,0,P|398:334|384:272,1,100,2|2,1:3|0:0,0:0:0:0:
437,165,31323,1,4,0:3:0:0:
269,162,31484,1,0,3:0:0:0:
359,114,31645,1,6,1:2:0:0:
284,267,31806,1,0,3:0:0:0:
284,267,31886,1,0,3:0:0:0:
284,267,31967,38,0,P|231:265|180:234,1,100,4|2,0:3|0:0,0:0:0:0:
137,78,32288,1,2,1:3:0:0:
137,330,32449,1,2,0:0:0:0:
137,330,32529,1,2,0:0:0:0:
137,330,32610,2,0,P|104:298|90:240,1,100,4|0,0:3|3:0,0:0:0:0:
225,140,32931,1,8,1:3:0:0:
45,143,33092,1,0,3:0:0:0:
89,247,33253,5,4,0:3:0:0:
137,78,33413,1,2,0:0:0:0:
137,78,33494,1,2,0:0:0:0:
137,78,33574,2,0,P|178:42|236:34,1,100,2|2,1:3|0:0,0:0:0:0:
191,244,33896,1,4,0:3:0:0:
225,140,34057,1,0,3:0:0:0:
229,164,34137,1,0,3:0:0:0:
232,188,34217,1,6,1:2:0:0:
356,298,34378,1,0,3:0:0:0:
353,270,34458,1,0,3:0:0:0:
348,241,34539,38,0,B|444:270|444:270|489:259,1,125,4|2,0:3|0:0,0:0:0:0:
476,227,34780,1,2,0:0:0:0:
485,190,34860,2,0,B|493:129|493:129|456:63,1,125,2|2,1:3|0:0,0:0:0:0:
345,23,35182,2,0,B|337:84|337:84|368:139,1,125,4|0,0:3|3:0,0:0:0:0:
362,176,35423,1,0,3:0:0:0:
352,212,35504,2,0,B|327:217|327:217|231:188,1,125,8|0,1:3|3:0,0:0:0:0:
130,86,35825,5,4,0:3:0:0:
144,305,35986,1,2,0:0:0:0:
108,294,36066,1,2,0:0:0:0:
72,281,36147,2,0,P|52:220|55:149,1,125,2|2,1:3|0:0,0:0:0:0:
251,67,36468,2,0,P|251:129|232:189,2,125,4|0|6,0:3|3:0|1:2,0:0:0:0:
8,66,36950,1,0,3:0:0:0:
8,66,37031,1,0,3:0:0:0:
8,66,37111,38,0,P|56:83|130:86,1,125,4|2,0:3|0:0,0:0:0:0:
127,155,37352,1,2,0:0:0:0:
127,155,37433,2,0,P|127:220|161:272,1,125,2|2,1:3|0:0,0:0:0:0:
420,297,37754,2,0,P|372:280|298:277,1,125,4|0,0:3|3:0,0:0:0:0:
230,279,37995,1,0,3:0:0:0:
230,279,38076,2,0,P|230:214|264:162,1,125,8|0,1:3|3:0,0:0:0:0:
445,109,38397,6,0,B|389:137|389:137|316:107,1,125,4|2,0:3|0:0,0:0:0:0:
333,68,38639,1,2,0:0:0:0:
336,24,38719,1,0,1:0:0:0:
262,165,38880,1,2,0:0:0:0:
170,41,39040,2,0,B|112:17|112:17|56:45,1,125,4|0,0:3|3:0,0:0:0:0:
52,89,39282,1,0,3:0:0:0:
50,132,39362,1,6,1:2:0:0:
161,146,39523,1,0,3:0:0:0:
156,190,39604,1,0,3:0:0:0:
154,233,39684,38,0,P|146:301|178:351,1,125,4|2,0:3|0:0,0:0:0:0:
242,359,39925,1,2,0:0:0:0:
302,327,40005,2,0,P|310:259|278:209,1,125,2|2,1:3|0:0,0:0:0:0:
45,173,40327,2,0,P|104:175|166:142,1,125,4|0,0:3|3:0,0:0:0:0:
203,90,40568,1,0,3:0:0:0:
219,23,40648,2,0,P|266:64|260:126,1,125,8|0,1:3|3:0,0:0:0:0:
148,278,40970,5,4,0:3:0:0:
282,213,41131,1,2,0:0:0:0:
317,225,41211,1,2,0:0:0:0:
351,238,41291,1,2,1:3:0:0:
215,188,41452,1,2,0:0:0:0:
373,52,41613,1,4,0:3:0:0:
373,211,41774,1,0,3:0:0:0:
203,90,41934,2,0,L|332:109,1,125,6|0,1:2|3:0,0:0:0:0:
396,22,42256,37,4,0:3:0:0:
276,167,42417,2,0,P|268:224|282:269,1,100,0|2,1:0|0:0,0:0:0:0:
373,211,42738,1,0,0:0:0:0:
195,277,42899,2,0,P|186:217|197:144,1,125,4|2,1:3|0:0,0:0:0:0:
110,139,43221,2,0,P|97:213|105:288,1,150.000005722046,0|2,1:0|0:0,0:0:0:0:
270,302,43542,1,2,0:3:0:0:
466,130,43703,1,4,0:3:0:0:
434,292,43864,1,2,1:3:0:0:
321,49,44025,1,8,0:3:0:0:
194,154,44185,6,0,P|254:188|323:154,1,150.000005722046,6|0,0:0|2:0,0:0:0:0:
256,192,44909,12,0,46275,2:0:0:0:
