osu file format v9

[General]
AudioFilename: Roots of My way!.mp3
AudioLeadIn: 2000
PreviewTime: 15267
Countdown: 0
SampleSet: Soft
StackLeniency: 0.4
Mode: 0
LetterboxInBreaks: 1

[Editor]
Bookmarks: 7799,12356,17293,27546,64002,69888,100647,142989
DistanceSpacing: 0.8
BeatDivisor: 4
GridSize: 8

[Metadata]
Title:Roots of My way!
Artist:Naia
Creator:owl13
Version:Hyper
Source:Beatmania IIDX 17 SIRIUS
Tags:ACTRESS ROOTS26S Konami youngdow Saturio Sharon

[Difficulty]
HPDrainRate:7
CircleSize:5
OverallDifficulty:7
ApproachRate:7
SliderMultiplier:2
SliderTickRate:2

[Events]
//Background and Video events
0,0,"BG.jpg"
//Break Periods
2,50907,57022
2,76350,87402
2,123818,129933
2,138628,142085
2,150780,155756
//Storyboard Layer 0 (Background)
//Storyboard Layer 1 (Fail)
//Storyboard Layer 2 (Pass)
//Storyboard Layer 3 (Foreground)
Sprite,Foreground,Centre,"05x.png",320,240 M,0,59811,,76,63 S,0,59811,59821,0.7568,1.0928 F,0,59811,60001,1,0 F,0,60001,60191,0,1 F,0,60191,60380,1,0 F,0,60380,60570,0,1 F,0,60570,60760,1,0 F,0,60760,60950,0,1 F,0,60950,63988,1 F,0,63988,65507,1,0 F,0,65507,,0
//Storyboard Sound Samples
//Background Colour Transformations
3,100,221,221,221

[TimingPoints]
1720,379.746835443038,4,2,0,0,1,0
8925,-100,4,2,0,62,0,0
12352,-100,4,2,0,89,0,0
21466,-100,4,2,0,89,0,1
26023,-100,4,1,0,50,0,1
26783,-100,4,2,0,19,0,1
27542,-100,4,2,0,50,0,0
38175,-100,4,1,0,50,0,0
39694,-100,4,1,0,49,0,0
40074,-100,4,2,0,49,0,0
42732,-100,4,1,0,49,0,0
43112,-100,4,2,0,49,0,0
44061,-100,4,1,0,49,0,0
45390,-100,4,2,0,49,0,0
46245,-100,4,1,0,49,0,0
46435,-100,4,2,0,49,0,0
47004,-100,4,1,0,49,0,0
47194,-100,4,2,0,49,0,0
47764,-100,4,1,0,49,0,0
47954,-100,4,1,0,49,0,0
57542,-100,4,2,0,21,0,0
58302,-100,4,2,0,25,0,0
58682,-100,4,2,0,30,0,0
59061,-100,4,2,0,36,0,0
59441,-100,4,2,0,40,0,0
59821,-100,4,2,0,45,0,0
60201,-100,4,2,0,50,0,0
60580,-100,4,2,0,56,0,0
60960,-100,4,2,0,50,0,0
63998,-100,4,2,0,49,0,0
74631,-100,4,1,0,46,0,0
88492,-100,4,2,0,49,0,0
89726,-100,4,1,0,45,0,0
89916,-100,4,2,0,49,0,0
91150,-100,4,1,0,41,0,0
94188,-100,4,2,0,40,0,0
94852,-100,4,1,0,49,0,0
95137,-100,4,1,0,40,0,0
95707,-100,4,2,0,50,0,0
96371,-100,4,1,0,60,0,0
96561,-100,4,1,0,51,0,0
97226,-100,4,2,0,50,0,0
99504,-100,4,2,0,50,0,0
100074,-100,4,2,0,61,0,0
100833,-100,4,2,0,49,0,1
106720,-100,4,2,0,56,0,1
111087,-100,4,2,0,40,0,1
111846,-100,4,2,0,50,0,1
112606,-100,4,1,0,50,0,1
112795,-100,4,1,0,36,0,1
113080,-100,4,2,0,57,0,1
115549,-100,4,1,0,41,0,1
115738,-100,4,2,0,57,0,1
116878,-100,4,1,0,52,0,1
118492,-100,4,2,0,40,0,1
123808,-100,4,2,0,57,0,0
130454,-100,4,2,0,30,0,0
131593,-100,4,2,0,40,0,0
132352,-100,4,2,0,50,0,0
133112,-100,4,2,0,59,0,0
133871,-100,4,2,0,55,0,0
136909,-100,4,2,0,0,0,0
138428,-100,4,1,0,45,0,0
142606,-100,4,2,0,45,0,0
149061,-100,4,1,0,22,0,0
156656,-100,4,2,0,60,0,1
161118,-100,4,2,0,51,0,1
162352,-100,4,2,0,0,0,0
168808,-100,4,2,0,0,0,0

[Colours]
Combo1 : 0,181,181
Combo2 : 255,45,255
Combo3 : 83,83,255
Combo4 : 255,255,0

[HitObjects]
408,64,9125,5,0
328,64,9314,1,0
168,64,9694,1,2
168,64,9789,1,2
168,64,9884,1,2
168,64,9979,1,2
168,64,10074,1,2
128,304,10644,5,0
208,304,10833,1,0
368,304,11213,1,2
368,304,11308,1,2
368,304,11403,1,2
368,304,11498,1,2
368,304,11593,1,2
48,48,12352,5,2
112,104,12542,1,0
168,48,12732,1,2
232,104,12922,1,0
296,48,13112,1,2
352,104,13302,1,0
408,48,13492,1,2
464,104,13682,1,2
464,184,13871,5,2
408,248,14061,1,0
352,184,14251,1,2
296,240,14441,1,0
232,192,14631,1,2
168,240,14821,1,0
104,192,15011,2,0,B|48:240,2,50
64,120,15390,6,0,B|112:88|160:128,1,100,2|0
104,192,15770,2,0,B|152:232|200:184,1,100,2|0
240,112,16150,1,2
264,80,16245,1,0
304,72,16340,2,0,B|344:40|344:40|392:80,2,100,2|0|2
312,152,16909,6,0,B|326:210|388:192,1,100,2|0
392,112,17289,2,0,B|453:93|468:152,1,100,2|0
464,232,17669,1,2
424,232,17764,1,0
400,264,17859,1,0
464,312,18049,2,0,B|452:384|385:351,1,100
312,360,18428,6,0,B|184:360,1,100,2|0
152,304,18808,2,0,B|272:304,1,100,2|0
232,224,19188,1,2
200,248,19283,1,0
168,224,19378,1,0
88,224,19568,2,0,B|96:160|176:152|176:152,1,100,0|2
232,168,19947,5,0
256,200,20042,1,0
288,224,20137,1,0
328,240,20232,1,0
368,240,20327,1,0
408,232,20422,1,0
440,208,20517,1,0
464,176,20612,1,0
480,136,20707,5,0
480,96,20802,1,0
456,64,20897,1,0
424,40,20992,1,0
384,24,21087,1,0
344,24,21182,1,0
304,32,21276,1,0
224,40,21466,6,0,B|248:16|269:43,2,50,2|0|0
144,40,21846,2,0,B|104:24|88:88,2,50,2|0|0
176,112,22226,1,2
144,136,22321,1,0
104,128,22416,1,0
40,176,22606,2,0,B|0:224|40:280,1,100,0|2
104,320,22985,6,0,B|24:320,2,50,2|0|0
136,272,23365,2,0,B|88:224,2,50,2|0|0
192,256,23745,2,0,B|192:184,2,50,2|0|0
248,272,24125,1,0
392,344,24504,6,0,B|440:344|464:320,2,50,2|0|0
392,264,24884,2,0,B|440:264|464:288,2,50,2|0|0
312,280,25264,2,0,B|288:312|328:344,2,50,2|0|0
232,264,25644,1,0
232,344,25833,1,2
152,344,26023,5,4
32,344,26308,1,0
88,240,26593,1,4
256,192,26783,12,4,27542
448,208,27922,6,0,B|408:96,1,100
368,48,28302,1,2
320,112,28492,1,0
272,48,28682,1,2
224,112,28871,1,0
176,48,29061,1,2
128,112,29251,1,0
80,48,29441,1,2
32,112,29631,2,0,B|32:224,1,100
32,296,30011,5,2
112,296,30201,1,0
112,216,30390,1,2
184,256,30580,1,0
232,192,30770,1,2
296,240,30960,1,0
336,168,31150,1,2
400,216,31340,1,0
432,144,31530,1,2
496,192,31719,1,0
432,144,31909,5,2
400,216,32099,1,0
264,136,32479,1,2
224,208,32669,1,0
80,136,33049,1,2
32,200,33238,1,0
40,280,33428,1,0
112,320,33618,6,0,B|200:368|312:320,1,200,4|0
256,256,34188,2,0,B|208:224|152:256,1,100,4|0
96,208,34568,5,0
48,144,34757,1,0
96,80,34947,1,2
160,32,35137,1,6
320,40,35517,2,0,B|248:120,1,100,4|4
96,112,36087,5,0
48,176,36276,1,0
48,256,36466,1,0
88,320,36656,2,0,B|184:376|280:320,2,200,2|0|2
88,160,37795,1,2
248,192,38175,6,0,B|200:216,3,50
280,216,38555,2,0,B|256:280,3,50
320,216,38935,2,0,B|352:280,3,50
336,184,39314,2,0,B|400:208,2,50
392,136,39694,6,0,B|311:101|274:103,1,100,6|0
264,176,40074,2,0,B|192:160|159:139,1,100,0|0
200,72,40454,2,0,B|119:37|82:39,1,100,0|0
48,96,40833,1,0
24,176,41023,1,0
40,256,41213,1,0
96,312,41403,2,0,B|262:390|386:306,1,300
384,232,42163,5,0
328,176,42352,1,0
272,232,42542,1,0
216,176,42732,2,0,B|224:96|280:72,1,100,6|0
336,88,43112,2,0,B|367:97|375:177,1,100,4|0
344,248,43492,2,0,B|302:268|246:244,2,100
384,176,44061,2,0,B|296:88|200:176,3,200,6|4|4|4
144,56,45770,5,6
144,136,45960,2,0,B|44:136,2,100,0|0|4
144,296,46720,2,0,B|144:168,2,100,0|0|4
304,296,47479,2,0,B|168:296,2,100,0|0|4
256,192,48238,12,0,49947
256,192,50327,5,4
256,192,50517,1,4
256,192,50707,1,4
256,160,57922,6,0,B|256:104,3,50
232,168,58302,2,0,B|192:128,3,50
224,192,58682,2,0,B|168:192,3,50
232,216,59061,2,0,B|200:256,3,50
256,224,59441,2,0,B|256:280,3,50
280,216,59821,2,0,B|328:264,3,50
288,192,60201,2,0,B|344:192,3,50
280,168,60580,2,0,B|312:128,3,50
256,160,60960,2,0,B|256:104,6,50
280,72,61720,1,0
240,72,61909,1,0
160,72,62289,5,0
120,88,62479,1,0
96,120,62669,1,0
96,160,62859,1,0
120,192,63049,1,0
160,200,63238,1,0
192,224,63428,1,0
216,256,63618,1,0
208,296,63808,1,0
256,192,63998,12,0,68175
344,176,68555,6,0,B|256:88|168:176,3,200
48,280,70074,5,2
96,344,70264,1,0
160,296,70454,1,2
184,328,70549,1,0
240,272,70738,1,2
296,328,70928,1,2
328,352,71023,1,0
408,328,71213,1,0
472,272,71403,1,2
432,168,71593,5,2
368,216,71783,1,0
320,152,71973,1,2
296,184,72068,1,0
240,128,72257,1,2
168,152,72447,1,2
144,184,72542,1,0
64,192,72732,1,0
32,32,73112,5,2
72,96,73302,1,0
136,48,73492,1,2
160,80,73587,1,0
232,56,73776,1,2
304,80,73966,1,2
328,112,74061,1,0
408,112,74251,1,0
464,56,74441,1,2
472,136,74631,6,2,B|367:249|367:249|467:271|467:271|423:328,1,300,6|2
256,192,75390,12,4,76150
400,56,88302,5,6
480,192,88682,1,0
400,208,88871,1,0
336,152,89061,2,0,B|224:72|104:160,1,200,2|0
40,248,89821,5,2
160,352,90201,1,0
160,272,90390,1,0
104,216,90580,2,0,B|128:152|176:136|224:152|256:208,1,200,2|0
128,344,91340,6,2,B|428:344,1,300,6|0
376,280,92099,2,0,B|176:280,1,200,0|0
184,120,92859,2,0,B|270:41|368:120,3,200,2|0|2|0
224,200,94378,6,0,B|352:200,2,100,2|0|0
272,136,94947,1,6
312,288,95327,1,0
232,288,95517,1,6
328,160,95897,2,0,B|224:160,2,100,0|0|0
280,224,96466,1,6
240,72,96846,1,0
320,72,97036,1,6
280,224,97416,6,0,B|208:160|136:232,1,150,6|6
160,312,97985,2,0,B|224:344|280:296,1,100,4|6
368,272,98460,2,0,B|363:275|422:235|422:235|385:183|385:183|329:211,1,150
160,312,99314,5,6
320,312,99694,1,0
328,312,99789,1,0
336,312,99884,1,0
344,312,99979,1,0
352,312,100074,1,0
360,312,100169,1,0
368,312,100264,1,0
376,312,100359,1,0
376,312,100454,1,4
280,184,100833,6,0,B|280:72,1,100,2|0
216,64,101213,1,2
296,64,101403,1,0
296,144,101593,1,2
216,144,101783,1,0
216,224,101973,1,0
296,224,102163,1,0
296,304,102352,1,2
40,288,102922,5,0
96,352,103112,1,0
176,352,103302,1,2
344,352,103682,5,0
424,352,103871,1,0
472,288,104061,1,0
408,240,104251,1,2
344,192,104441,1,0
400,136,104631,1,2
456,80,104821,1,0
392,32,105011,1,0
232,32,105390,6,0,B|88:32,1,100,2|2
136,192,105960,1,0
136,112,106150,1,0
216,112,106340,1,0
216,192,106530,1,4
120,64,106909,6,0,B|72:88,3,50
72,24,107289,1,8
224,64,107669,6,0,B|288:64,3,50
248,120,108049,1,8
400,72,108428,6,0,B|448:104,3,50
448,40,108808,1,8
400,192,109188,6,0,B|360:224,3,50
416,248,109568,1,8
264,224,109947,6,0,B|224:184,3,50
208,240,110327,1,8
104,128,110707,5,8
56,280,111087,5,0
80,304,111182,1,0
112,320,111276,1,0
144,328,111371,1,0
176,320,111466,1,0
208,304,111561,1,0
232,280,111656,1,0
248,248,111751,1,0
256,208,111846,5,0
240,176,111941,1,0
240,136,112036,1,0
264,104,112131,1,0
296,88,112226,1,0
336,88,112321,1,0
368,96,112416,1,0
400,112,112511,1,0
432,136,112606,1,6
432,296,112985,5,2
352,296,113175,1,0
352,216,113365,1,2
432,216,113555,1,0
432,136,113745,2,0,B|256:240,2,200,2|0|2
376,80,114694,5,0
304,40,114884,1,2
224,40,115074,1,0
152,80,115264,1,2
96,136,115454,1,0
88,216,115644,2,0,B|264:320,3,200,2|0|2|0
344,320,116973,5,6
464,216,117352,1,4
344,112,117732,1,6
216,216,118112,1,4
128,40,118682,6,0,B|56:48|48:136,2,100,6|0|0
136,120,119251,1,6
272,208,119631,2,0,B|224:208|240:176|264:152|328:160|328:216|312:256|264:264|216:240,1,200,0|6
344,120,120390,2,0,B|408:120|424:200,2,100,0|0|6
336,280,121150,2,0,B|264:176|264:52|264:52|48:52|48:52|48:220|48:220|80:220|80:220|200:220|200:220|200:112|200:112|120:112|120:112|120:168,1,1000,0|0
119,154,123238,5,6
119,154,123428,1,6
119,154,123618,1,6
256,192,130833,6,0,B|256:136,3,50
256,192,131213,2,0,B|224:152,3,50
256,192,131593,2,0,B|200:192,3,50
256,192,131973,2,0,B|224:232,3,50
256,192,132352,2,0,B|256:248,3,50
256,192,132732,2,0,B|304:240,3,50
256,192,133112,2,0,B|312:192,3,50
256,192,133492,2,0,B|288:152,3,50
256,192,133871,1,4
56,176,134631,6,0,B|24:232|64:280|64:280,1,100
152,272,135011,1,0
152,176,135201,2,0,B|288:72|432:176,1,300,4|0
408,328,136150,5,4
328,328,136340,1,0
248,328,136530,1,4
168,328,136719,1,0
256,192,136909,12,4,138428
168,64,142985,5,0
208,80,143080,1,0
240,112,143175,1,0
256,152,143270,1,0
256,192,143365,1,0
344,64,143745,5,0
304,80,143840,1,0
272,112,143935,1,0
256,152,144030,1,0
256,192,144125,1,0
336,288,144504,6,0,B|240:360|136:288,1,200,0|8
56,160,145264,1,0
80,128,145359,1,0
112,104,145454,1,0
152,88,145549,1,0
192,80,145644,1,8
152,232,146023,6,0,B|256:280|376:224,1,200,0|8
312,80,146783,1,0
352,88,146878,1,0
384,104,146973,1,0
416,128,147068,1,0
440,160,147163,1,8
424,320,147542,5,0
344,320,147732,1,0
384,256,147922,1,8
240,192,148302,1,0
197,200,148397,1,0
159,215,148492,1,0
130,243,148587,1,0
112,274,148682,1,8
256,192,149061,12,4,150580
64,88,156656,6,0,B|112:40|152:96,1,100
148,91,157036,2,0,B|195:44|232:96,1,100
304,56,157416,1,0
344,64,157511,1,0
384,80,157606,1,0
432,144,157795,1,0
432,224,157985,1,2
360,192,158175,6,0,B|264:128,1,100
208,176,158555,2,0,B|304:240,1,100
232,288,158935,1,2
192,304,159030,1,0
160,288,159125,1,0
80,280,159314,2,0,B|48:224|104:184,1,100
176,192,159694,6,0,B|240:192|240:120,1,100
160,120,160074,2,0,B|159:58|223:58,1,100
304,56,160454,1,0
344,72,160549,1,0
360,112,160644,1,0
416,168,160833,1,2
472,112,161023,1,2
472,192,161213,5,6
392,288,161498,1,6
312,192,161783,1,6
232,192,161973,2,0,B|232:193|232:129|232:129|320:129,1,150,4|0
256,192,162352,12,0,168808
