osu file format v9

[General]
AudioFilename: Roots of My way!.mp3
AudioLeadIn: 0
PreviewTime: 15267
Countdown: 0
SampleSet: Normal
StackLeniency: 0.4
Mode: 0
LetterboxInBreaks: 1

[Editor]
Bookmarks: 9318,12356,27546,64002,87926,100647,125141,129698,142989,144508,156660
DistanceSpacing: 0.8
BeatDivisor: 4
GridSize: 8

[Metadata]
Title:Roots of My way!
Artist:Naia
Creator:owl13
Version:Beginner
Source:Beatmania IIDX 17 SIRIUS
Tags:ACTRESS ROOTS26S Konami youngdow Saturio Sharon

[Difficulty]
HPDrainRate:2
CircleSize:3
OverallDifficulty:2
ApproachRate:2
SliderMultiplier:0.999999999999999
SliderTickRate:1

[Events]
//Background and Video events
0,0,"BG.jpg"
//Break Periods
2,52046,56362
2,76350,86742
2,124957,129273
2,140147,142944
2,150780,155096
//Storyboard Layer 0 (Background)
//Storyboard Layer 1 (Fail)
//Storyboard Layer 2 (Pass)
//Storyboard Layer 3 (Foreground)
//Storyboard Sound Samples
//Background Colour Transformations
3,100,221,221,221

[TimingPoints]
1720,379.746835443038,4,1,0,23,1,0
12153,-100,4,1,0,25,0,0
12722,-100,4,1,0,30,0,0
13482,-100,4,1,0,35,0,0
14241,-100,4,1,0,40,0,0
15299,-100,4,1,0,41,0,0
21466,-100,4,1,0,47,0,1
27912,-100,4,2,0,62,0,0
100454,-100,4,2,0,62,0,1
123808,-100,4,2,0,62,0,0
136899,-100,4,2,0,0,0,0
144115,-100,4,2,0,60,0,0
156656,-100,4,2,0,62,0,1
162542,-100,4,2,0,0,0,0
168808,-100,4,2,0,0,0,0

[Colours]
Combo1 : 0,181,181
Combo2 : 255,45,255
Combo3 : 83,83,255
Combo4 : 255,255,0

[HitObjects]
208,80,9694,2,2,B|368:120,1,150
352,320,11213,2,2,B|200:280,1,150
120,192,12352,5,8
256,104,13112,1,8
392,192,13871,1,8
256,280,14631,2,0,B|256:180,1,99.9999999999999,8|0
256,104,15390,5,4
304,248,16150,2,2,B|192:248,1,99.9999999999999,4|2
200,168,16909,1,4
80,280,17669,6,2,B|192:320,1,99.9999999999999
240,336,18428,1,4
400,328,19188,6,2,B|352:232,1,99.9999999999999,0|6
280,224,19947,2,0,B|352:144,1,99.9999999999999,0|4
408,104,20707,2,0,B|328:32,1,99.9999999999999,0|4
256,40,21466,6,0,B|256:152,1,99.9999999999999,8|0
256,224,22226,2,0,B|256:288,2,50,8|0|8
336,216,22985,2,0,B|336:116,1,99.9999999999999,8|0
400,72,23745,2,0,B|400:22,2,50,8|0|0
472,112,24504,6,0,B|472:212,1,99.9999999999999,8|0
440,280,25264,2,0,B|496:280,2,50,8|0|8
440,360,26023,2,4,B|184:360|40:288,1,400,4|4
56,136,28302,6,0,B|264:136,1,200,2|0
392,216,29821,2,0,B|184:216,1,200,2|0
48,144,31340,5,2
144,272,32099,2,0,B|200:360|200:360|256:280|256:280|320:360|320:360|368:264|368:264,1,400,2|4
256,160,34378,5,8
408,128,35137,2,8,B|408:72|336:72,2,99.9999999999999,0|8|8
408,288,36656,5,2
408,128,37416,1,2
256,192,38175,2,0,B|256:296,3,99.9999999999999,8|8|8|8
184,328,39694,5,4
184,168,40454,1,0
48,256,41213,2,0,B|24:152|56:48,1,200,2|2
216,56,42732,5,4
136,192,43492,1,0
296,192,44251,1,2
296,336,45011,1,0
136,328,45770,5,2
288,280,46530,1,0
424,200,47289,1,2
480,48,48049,1,0
256,192,48618,12,4,51846
80,336,57922,5,2
208,240,58682,1,2
320,128,59441,1,2
448,32,60201,1,2
320,128,60960,5,2
208,240,61720,1,2
80,336,62479,1,2
240,336,63238,2,2,B|352:336,1,99.9999999999999,0|2
256,192,63998,12,0,68175
184,272,69314,6,2,B|186:269|114:349|114:349|50:277,1,200,0|2
184,192,70833,6,2,B|264:128,1,99.9999999999999,0|2
296,72,71593,1,8
408,192,72352,2,2,B|328:128,1,99.9999999999999,0|2
296,72,73112,1,2
296,232,73871,6,2,B|296:120,1,99.9999999999999,2|0
336,64,74631,2,0,B|296:48|256:64,2,74.9999999999999,2|2|2
256,192,76150,5,4
112,192,88302,6,0,B|256:336,1,200,2|8
224,184,89821,2,8,B|264:128|304:184,3,99.9999999999999
384,184,91340,6,0,B|384:72|256:56,1,200,2|8
304,216,92859,2,0,B|200:216,3,99.9999999999999,8|10|8|10
256,152,94378,5,0
96,152,95137,1,8
96,312,95897,1,0
256,312,96656,1,8
256,160,97416,6,0,B|304:192|272:248|352:288|352:288|392:320,2,200,4|4|0
208,96,99314,2,0,B|48:96|48:232|224:232,1,300,4|2
288,232,100833,5,0
288,152,101213,1,10
440,192,101973,1,0
304,280,102732,1,10
144,280,103492,5,0
144,120,104251,1,10
304,120,105011,1,0
304,280,105770,1,8
376,248,106150,1,8
432,192,106530,5,4
272,192,107289,1,8
112,192,108049,1,2
256,264,108808,1,8
400,192,109568,5,2
256,120,110327,1,8
256,192,110897,12,4,112606
256,104,113365,5,0
96,104,114125,2,0,B|152:200,3,99.9999999999999,2|0|2|0
64,192,115644,5,2
64,352,116403,1,0
160,280,116973,2,0,B|264:280,2,99.9999999999999,4|4|4
304,80,118682,6,0,B|454:80,1,150,4|4
456,160,119631,2,0,B|371:213,1,99.9999999999999,0|4
312,160,120390,2,0,B|224:224,1,99.9999999999999,0|4
152,192,121150,1,4
256,192,121719,12,4,124757
120,56,130833,6,0,B|232:56,1,99.9999999999999,2|0
296,64,131593,2,0,B|296:176,1,99.9999999999999,2|0
216,163,132352,2,0,B|189:157|104:159,1,99.9999999999999,2|0
38,155,133112,2,0,B|25:266,1,99.9999999999999,2|0
104,265,133871,6,0,B|216:277,1,99.9999999999999,2|0
281,279,134631,2,0,B|293:169,1,99.9999999999999,2|0
292,103,135390,2,0,B|404:91,1,99.9999999999999,2|0
406,168,136150,2,0,B|424:272,1,99.9999999999999,2|0
256,192,136909,12,0,139947
416,80,144504,6,0,B|416:192,1,99.9999999999999,4|8
416,264,145264,2,0,B|316:264,1,99.9999999999999,0|8
312,179,146023,2,0,B|312:79,1,99.9999999999999,0|8
231,79,146783,2,0,B|131:79,1,99.9999999999999,0|8
48,80,147542,6,0,B|49:192,1,99.9999999999999,0|8
128,184,148302,2,0,B|228:184,1,99.9999999999999,0|8
232,264,149061,2,0,B|232:330,3,66.6666666666666,2|2|2|2
232,168,150580,1,4
104,192,156656,6,0,B|168:192,2,50,2|0|2
176,264,157416,2,0,B|143:308,2,50,2|0|2
256,328,158175,2,0,B|256:278,2,50,2|0|2
336,264,158935,2,0,B|369:308,2,50,2|0|2
408,192,159694,6,0,B|344:192,2,50,2|0|2
344,112,160454,2,0,B|296:64,2,50,2|0|2
288,192,161213,2,0,B|248:176|208:192,2,74.9999999999999
256,192,162542,12,0,168808
