osu file format v5

[General]
AudioFilename: Nagisa Cosmetic - Cosmetic Happy.mp3
AudioLeadIn: 3000
PreviewTime: -1
Countdown: 1
SampleSet: Normal
StackLeniency: 0.7
Mode: 0
LetterboxInBreaks: 1

[Metadata]
Title:Cosmetic Happy
Artist:Nagisa Cosmetic
Creator:silasw
Version:Insane
Source:
Tags:

[Difficulty]
HPDrainRate:7
CircleSize:6
OverallDifficulty:8
SliderMultiplier:2
SliderTickRate:2

[Events]
//Background and Video events
0,0,"Nagisa Cosmetic.jpg"
//Break Periods
2,62429,65980
2,88263,91646
2,118762,129313
2,140096,141979
//Storyboard Layer 0 (Background)
//Storyboard Layer 1 (Failing)
//Storyboard Layer 2 (Passing)
//Storyboard Layer 3 (Foreground)
//Storyboard Sound Samples
//Background Colour Transformations
3,100,163,162,255

[TimingPoints]
160,315.789473684211,4,1,0,100
2730,333.333333333333,4,1,0,100

[Colours]
Combo1 : 255,0,255
Combo2 : 255,74,74
Combo3 : 255,157,206
Combo4 : 255,255,0

[HitObjects]
96,120,160,1,0
256,120,475,1,0
416,120,791,1,0
416,280,1107,1,0
256,280,1423,1,0
96,280,1738,1,0
96,120,2054,1,0
256,120,2370,5,0
424,120,2730,1,0
344,256,3063,1,0
304,184,3230,1,0
384,184,3396,1,0
256,280,3730,5,0
216,208,3896,1,0
176,280,4063,1,0
208,120,4396,1,0
248,48,4563,1,0
168,48,4730,1,0
328,48,5063,5,0
368,120,5229,1,0
288,120,5396,1,0
432,192,5729,1,0
472,256,5896,1,0
392,256,6063,1,0
256,288,6396,5,0
296,216,6563,1,0
216,216,6729,1,0
344,128,7063,1,0
384,56,7229,1,0
304,56,7396,1,0
224,56,7563,1,0
144,56,7729,1,0
136,216,8063,5,0
248,96,8396,1,0
328,96,8563,1,0
408,96,8729,1,0
408,256,9063,5,0
328,256,9229,1,0
248,256,9396,1,0
88,256,9729,1,0
88,176,9896,1,0
88,96,10063,1,0
320,104,10396,5,0
320,184,10563,1,0
320,264,10730,1,0
160,264,11063,1,0
160,184,11230,1,0
160,104,11396,1,0
160,24,11563,1,0
320,24,11896,5,0
320,184,12230,1,0
400,184,12396,1,0
400,24,12730,1,4
400,344,13396,5,0
400,184,13730,1,0
400,24,14063,1,0
400,104,14230,1,0
400,264,14563,1,0
72,48,15563,5,0
72,128,15730,1,0
72,208,15896,1,0
72,288,16063,1,0
72,128,16396,1,0
232,128,16730,1,0
152,128,16896,1,0
312,128,17230,1,0
432,24,18730,5,2
432,184,19063,1,2
432,344,19396,1,2
432,264,19563,1,2
432,104,19896,1,2
72,336,20896,5,0
72,256,21063,1,0
72,176,21229,1,0
72,96,21396,1,0
72,256,21729,1,0
232,256,22063,1,0
152,256,22229,1,0
312,256,22563,1,0
64,136,24396,5,0
224,136,24729,1,0
144,136,24896,1,0
64,136,25063,1,0
144,136,25229,1,0
144,296,25563,1,0
304,296,25896,1,0
440,56,27063,5,0
400,128,27229,1,0
480,128,27396,1,0
480,288,27729,1,0
400,288,27896,1,0
240,288,28229,1,0
400,288,28563,1,0
400,128,28896,1,0
240,128,29229,6,0,C|298:328|120:92|136:312,1,700
208,304,30563,2,0,C|417:349|402:206|174:158,1,600
184,240,31729,5,0
264,240,31896,2,0,C|361:130|153:258|193:120|32:72,1,700
120,40,33229,2,0,C|377:89|338:322|82:253|208:184,1,900
344,128,35063,5,0
304,200,35229,1,0
264,128,35396,1,0
104,128,35729,1,0
184,128,35896,1,0
184,288,36229,1,0
184,128,36563,1,0
464,288,37729,5,0
384,288,37896,1,0
424,216,38063,1,0
264,216,38396,1,0
344,216,38563,2,0,C|326:116|208:176,3,200
400,152,39896,6,2,C|320:180|249:150|328:298|56:48,1,700
56,200,41230,2,2,B|161:-25|538:108|176:184,1,500
152,248,42230,1,0
232,248,42396,1,0
232,168,42563,2,0,C|143:71|265:62|328:240|406:261|352:40|480:80,1,900
280,184,44730,5,0
440,184,45063,1,0
280,184,45396,2,0,C|359:289|105:269|40:184,1,500
128,192,46396,1,0
128,272,46563,2,0,B|248:384|472:296|527:2|106:12|80:232,1,700
400,128,48396,5,2
240,128,48730,1,2
240,208,48896,1,2
240,128,49063,1,2
240,208,49230,1,2
240,48,49563,1,2
240,208,49896,1,2
240,48,50230,1,2
240,208,50563,1,2
488,312,51563,5,2
488,152,51896,1,2
328,152,52230,1,2
488,152,52563,1,2
328,152,52896,1,2
488,152,53230,2,2,B|486:6|208:34|4:32|36:319|440:328,1,800
208,112,55396,5,0
288,112,55563,1,0
368,112,55730,1,0
288,112,55896,1,0
208,112,56063,2,0,C|344:228|140:231|160:104,1,500
152,48,57063,1,0
232,48,57230,2,0,C|59:297|329:98|445:168|488:48,1,900
400,160,59063,5,0
240,160,59396,1,0
320,160,59563,1,0
400,160,59730,1,0
320,160,59896,1,0
480,160,60230,1,0
320,160,60563,1,0
160,160,60896,1,0
240,296,61230,2,0,B|49:211|40:24|310:27|408:104|416:232,1,600
72,56,66730,5,0
72,328,67063,1,0
440,328,67396,1,0
440,56,67730,1,0
72,56,68063,5,0
72,328,68396,1,0
440,328,68730,1,0
440,56,69063,1,0
72,56,69396,5,0
72,328,69730,1,0
440,328,70063,1,0
440,56,70396,1,0
72,56,70730,5,0
72,328,71063,1,0
440,328,71396,1,0
440,56,71730,1,0
440,216,72063,5,0
280,216,72396,1,0
360,216,72563,1,0
200,216,72896,1,0
40,216,73230,1,4
80,56,74396,5,0
240,56,74730,1,0
400,56,75063,1,0
320,56,75230,1,0
160,56,75563,1,0
160,216,75896,1,4
256,192,77396,12,0,79396
256,192,80063,12,0,82063
464,328,82729,5,0
464,168,83063,1,0
464,248,83229,1,0
464,88,83563,1,0
464,248,83896,1,4
224,352,85063,5,0
64,352,85396,1,0
64,192,85729,1,0
64,272,85896,1,0
64,112,86229,1,0
64,272,86563,2,0,B|212:206|443:404|352:16,1,500
200,40,87729,1,0
360,40,88063,1,0
304,184,92396,6,0,B|254:131|200:208,6,100
256,336,93729,1,4
440,80,95063,5,0
440,160,95229,1,0
360,160,95396,1,0
360,80,95563,1,0
360,240,95896,1,0
120,248,96396,1,0
472,64,97229,6,0,C|415:328|160:88,1,600
432,312,99063,5,0
352,312,99229,1,0
352,232,99396,1,0
272,232,99563,1,0
272,312,99729,1,0
192,312,99896,1,0
192,152,100229,1,0
352,152,100563,1,0
80,72,101729,5,0
160,72,101896,1,0
240,72,102063,1,0
240,152,102229,1,0
240,232,102396,1,0
160,232,102563,1,0
320,232,102896,1,0
320,72,103229,1,0
320,232,103563,1,0
480,216,103896,6,0,C|71:274|288:56,1,700
200,120,105229,2,0,C|296:32|496:368,1,500
312,336,106396,5,2
368,280,106563,2,2,C|454:224|103:66|80:288,1,700
112,160,107896,2,2,C|279:33|470:109|240:296,1,700
48,40,109729,5,0
128,40,109896,1,0
128,120,110063,1,0
208,120,110229,1,0
208,40,110396,1,0
288,40,110563,1,0
288,200,110896,1,0
128,200,111229,1,0
136,144,112396,5,0
216,144,112563,1,0
296,144,112729,1,0
296,224,112896,1,0
216,224,113063,1,0
136,224,113229,1,0
136,64,113563,1,0
296,64,113896,1,0
296,224,114229,1,0
416,328,114563,6,0,C|468:194|177:76|88:320,1,700
152,216,115896,2,0,C|158:148|65:220|125:357|400:288,1,600
344,216,117063,1,0
416,248,117229,2,0,C|422:29|148:296|16:168,1,800
80,64,130063,5,0
240,64,130396,1,0
248,224,130729,2,0,C|337:65|24:120,1,500
48,200,131729,1,0
128,200,131896,2,0,C|156:330|476:336|432:96,1,700
120,48,133729,5,0
280,48,134063,1,0
280,128,134229,1,0
360,128,134396,1,0
360,48,134563,1,0
360,208,134896,1,0
200,208,135229,1,0
200,48,135563,1,0
40,48,135896,2,0,C|52:220|416:232,1,500
360,152,136896,5,0
200,160,137229,2,0,C|260:105|168:16,1,200
24,64,137896,2,0,C|107:105|24:176,1,200
176,240,138563,2,0,C|416:344|488:174|96:64,1,800
256,192,142729,5,0
176,192,142896,1,0
96,192,143063,1,0
136,120,143229,1,0
216,120,143396,5,0
296,120,143563,1,0
376,120,143729,1,0
416,192,143896,1,0
336,192,144063,5,0
376,256,144229,1,0
296,256,144396,1,0
216,256,144563,1,0
136,256,144729,5,0
96,320,144896,1,0
176,320,145063,1,0
256,320,145229,1,0
336,320,145396,5,0
416,320,145563,1,0
464,256,145729,1,0
464,176,145896,1,0
464,96,146063,5,0
416,32,146229,1,0
336,32,146396,1,0
256,32,146563,1,0
176,32,146729,5,0
96,32,146896,1,0
48,96,147063,1,0
48,176,147229,1,0
48,256,147396,2,0,C|288:256,1,200
392,192,148063,5,0
232,192,148396,1,0
232,192,148563,1,0
392,192,148896,1,0
232,192,149229,1,0
56,296,150396,5,0
56,216,150563,1,0
56,136,150729,1,0
216,136,151063,1,0
216,216,151229,1,0
56,216,151563,1,0
56,56,151896,1,0
256,192,153396,12,0,158063
112,192,158730,5,0
272,192,159063,1,0
272,192,159230,1,0
112,192,159563,1,0
272,192,159896,1,0
96,304,161063,5,0
176,304,161230,1,0
256,304,161396,1,0
416,304,161730,1,0
336,304,161896,1,0
176,304,162230,1,0
176,144,162563,6,0,C|256:144|368:368,1,300
432,192,163396,1,0
296,112,163730,1,0
296,272,164063,1,4
