osu file format v13

[General]
AudioFilename: Locodol01.mp3
AudioLeadIn: 1500
PreviewTime: 57488
Countdown: 0
SampleSet: Soft
StackLeniency: 0.7
Mode: 0
LetterboxInBreaks: 0
WidescreenStoryboard: 0

[Editor]
Bookmarks: 17828,29257,40686,69257
DistanceSpacing: 1.4
BeatDivisor: 4
GridSize: 16
TimelineZoom: 1.3

[Metadata]
Title:Mirai Shoujotachi
TitleUnicode:未来少女たち
Artist:Nagarekawa Girls
ArtistUnicode:流川ガールズ
Creator:kamisamaaa
Version:Normal
Source:普通の女子校生が【ろこどる】やってみた
Tags:fycho 三澤 紗千香 Misawa Sachika 宇佐美奈々子 伊藤 美来 Ito Miku 小日向縁 futsuu no joshikousei ga [locodol] yattemita ending みさわ さちか いとう みく Mio Aoyama 松浦勇气 宮崎誠
BeatmapID:463278
BeatmapSetID:194742

[Difficulty]
HPDrainRate:4
CircleSize:3
OverallDifficulty:4
ApproachRate:5
SliderMultiplier:1.2
SliderTickRate:1

[Events]
//Background and Video events
0,0,"03.jpg",0,0
Video,0,"shipin.avi"
//Break Periods
//Storyboard Layer 0 (Background)
//Storyboard Layer 1 (Fail)
//Storyboard Layer 2 (Pass)
//Storyboard Layer 3 (Foreground)
//Storyboard Sound Samples
//Background Colour Transformations
3,100,163,162,255

[TimingPoints]
702,357.142857142857,4,2,1,50,1,0
702,-200,4,2,1,50,0,0
11948,-100,4,2,1,60,0,0
57845,-100,4,2,1,80,0,1
68916,-100,4,2,1,60,0,0
69273,-100,4,2,1,80,0,1
80702,-100,4,2,1,60,0,0

[Colours]
Combo1 : 170,170,213
Combo2 : 255,128,255
Combo3 : 255,128,128
Combo4 : 255,255,26

[HitObjects]
146,127,702,5,2,0:0:0:0:
303,69,1416,1,2,0:0:0:0:
456,138,2131,2,0,L|471:217,1,60,2|0,0:0|0:0,0:0:0:0:
466,280,2845,2,0,P|436:302|404:312,1,60,2|0,0:0|0:0,0:0:0:0:
333,332,3559,5,2,0:0:0:0:
249,336,3916,1,0,0:0:0:0:
166,320,4273,1,2,0:0:0:0:
88,287,4631,1,0,0:0:0:0:
75,204,4988,2,0,P|102:177|127:168,1,60,2|0,0:0|0:0,0:0:0:0:
161,183,5523,2,0,P|208:197|262:188,1,90,2|0,0:0|0:0,0:0:0:0:
218,114,6416,6,0,L|269:74,1,60,2|0,0:0|0:0,0:0:0:0:
307,72,6952,2,0,P|359:66|408:80,1,90,2|0,0:0|0:0,0:0:0:0:
431,94,7666,1,2,0:0:0:0:
104,166,9273,6,0,P|132:168|172:162,1,60,2|0,0:0|0:0,0:0:0:0:
192,194,9809,2,0,P|201:231|215:254,1,60,2|0,0:0|0:0,0:0:0:0:
285,292,10523,1,2,0:0:0:0:
241,363,10881,1,2,0:0:0:0:
159,342,11238,2,0,P|116:341|89:349,1,60,2|0,0:0|0:0,0:0:0:0:
40,285,11951,6,0,P|53:229|86:167,1,120,6|8,0:0|0:0,0:0:0:0:
133,107,12488,1,2,1:0:0:0:
298,80,12845,2,0,L|361:67,2,60,2|8|0,0:0|0:0|1:0,0:0:0:0:
133,107,13559,1,6,0:0:0:0:
153,273,13916,2,0,L|161:338,1,60,10|0,0:0|1:0,0:0:0:0:
311,258,14452,2,0,L|381:306,1,60,10|0,0:0|1:0,0:0:0:0:
422,135,14988,1,6,0:0:0:0:
256,192,15166,12,2,17130,0:0:0:0:
84,212,17844,5,12,0:0:0:0:
188,79,18202,1,10,0:0:0:0:
355,79,18559,1,10,0:0:0:0:
465,205,18916,1,10,0:0:0:0:
304,246,19273,2,0,P|326:309|378:348,1,120,10|8,0:0|0:0,0:0:0:0:
200,307,19988,2,0,P|128:294|76:302,1,120,10|8,0:0|0:0,0:0:0:0:
142,143,20702,6,0,P|105:85|59:67,2,120,10|8|10,0:0|0:0|0:0,0:0:0:0:
288,61,21773,1,8,0:0:0:0:
438,136,22131,2,0,P|465:198|471:259,1,120,10|8,0:0|0:0,0:0:0:0:
303,243,22845,2,0,P|263:298|213:333,1,120,10|8,0:0|0:0,0:0:0:0:
102,211,23559,6,0,P|116:159|180:157,1,120,2|8,0:0|0:0,0:0:0:0:
258,153,24095,2,0,P|315:150|331:96,1,120,2|0,0:0|0:0,0:0:0:0:
402,50,24631,2,0,L|454:86,2,60,8|0|10,0:0|0:0|0:0,0:0:0:0:
408,217,25345,1,10,0:0:0:0:
495,360,25702,1,10,0:0:0:0:
411,353,25881,2,0,L|345:348,1,60,2|8,0:0|0:0,0:0:0:0:
183,337,26416,6,0,P|122:331|75:284,1,120,2|8,0:0|0:0,0:0:0:0:
155,256,26952,2,0,P|174:190|149:136,1,120,2|0,0:0|0:0,0:0:0:0:
82,105,27488,2,0,L|50:160,1,60,10|4,0:0|0:0,0:0:0:0:
178,47,28023,2,0,L|243:22,2,60,2|0|0,1:0|1:0|1:0,0:0:0:0:
223,118,28559,2,0,L|280:149,2,60,2|0|0,1:0|1:0|1:0,0:0:0:0:
208,200,29095,2,0,L|213:268,1,60,2|4,1:0|1:0,0:0:0:0:
380,247,29631,5,2,1:0:0:0:
501,131,29988,1,10,0:0:0:0:
339,83,30345,1,2,1:0:0:0:
380,247,30702,2,0,P|430:272|505:277,1,120,10|0,0:0|1:0,0:0:0:0:
336,339,31416,2,0,P|286:364|211:369,1,120,10|0,0:0|1:0,0:0:0:0:
83,278,32131,5,10,0:0:0:0:
246,238,32488,1,2,1:0:0:0:
291,76,32845,1,10,0:0:0:0:
405,198,33202,1,2,1:0:0:0:
246,238,33559,2,0,P|185:237|126:211,1,120,10|0,0:0|1:0,0:0:0:0:
57,64,34273,2,0,P|118:65|177:91,1,120,10|0,0:0|1:0,0:0:0:0:
338,111,34988,6,0,P|397:82|423:33,1,120,6|0,0:0|1:0,0:0:0:0:
453,109,35523,2,0,P|458:178|471:235,1,120,6|0,0:0|0:0,0:0:0:0:
460,309,36059,2,0,L|405:355,1,60,2|4,1:0|0:0,0:0:0:0:
302,224,36595,2,0,L|284:282,1,60,2|0,0:0|1:0,0:0:0:0:
216,330,36952,2,0,P|175:348|142:352,2,60,10|4|0,0:3|0:3|1:0,0:0:0:0:
161,266,37488,2,0,P|138:246|103:229,1,60,2|0,1:0|0:0,0:0:0:0:
50,175,37845,6,0,P|48:115|94:85,1,120,6|0,0:0|1:0,0:0:0:0:
177,71,38381,2,0,P|232:86|274:47,1,120,6|0,0:0|0:0,0:0:0:0:
340,98,38916,2,0,L|374:159,1,60,2|4,1:0|0:0,0:0:0:0:
341,316,39452,2,0,L|404:320,2,60,10|4|0,0:3|0:3|1:0,0:0:0:0:
258,331,39988,2,0,L|191:369,2,60,10|4|0,0:3|0:3|1:0,0:0:0:0:
148,204,40702,5,14,0:0:0:0:
176,39,41059,1,10,0:0:0:0:
336,86,41416,1,10,0:0:0:0:
499,43,41773,1,10,0:0:0:0:
456,205,42131,2,0,L|489:269,2,60,10|0|8,0:0|0:0|0:0,0:0:0:0:
309,286,42845,2,0,P|238:300|190:296,1,120,10|8,0:0|0:0,0:0:0:0:
236,134,43559,5,10,0:0:0:0:
79,73,43916,2,0,L|103:137,1,60,10|0,0:0|0:0,0:0:0:0:
41,189,44273,2,0,P|22:259|17:319,1,120,10|8,0:0|0:0,0:0:0:0:
184,281,44988,2,0,L|225:327,1,60,2|0,0:0|0:0,0:0:0:0:
390,301,45523,2,0,P|443:261|472:207,1,120,6|0,0:0|0:0,0:0:0:0:
402,164,46059,2,0,L|334:152,1,60,2|0,0:0|0:0,0:0:0:0:
271,110,46416,6,0,L|220:154,1,60,14|8,0:0|0:0,0:0:0:0:
162,92,46773,2,0,L|111:136,1,60,2|0,1:0|1:0,0:0:0:0:
153,208,47131,2,0,L|151:269,2,60,10|8|0,0:0|0:0|1:0,0:0:0:0:
299,289,47845,2,0,L|342:354,1,60,10|8,0:0|0:0,0:0:0:0:
394,282,48202,2,0,L|436:347,1,60,2|0,1:0|0:0,0:0:0:0:
491,278,48559,2,0,L|512:213,2,60,10|8|0,0:0|0:0|1:0,0:0:0:0:
366,165,49273,6,0,P|306:136|288:87,1,120,10|0,0:0|1:0,0:0:0:0:
372,83,49809,1,2,1:0:0:0:
261,208,50166,2,0,L|269:276,1,60,10|0,0:0|1:0,0:0:0:0:
116,341,50702,1,10,0:0:0:0:
46,188,51059,1,2,1:0:0:0:
144,51,51416,1,10,0:0:0:0:
312,38,51773,1,2,1:0:0:0:
386,189,52131,6,0,P|384:265|398:323,1,120,6|0,0:0|0:0,0:0:0:0:
475,327,52666,1,2,1:0:0:0:
307,319,53023,2,0,P|237:327|181:314,1,120,2|0,1:0|1:0,0:0:0:0:
122,265,53559,2,0,P|135:186|128:135,1,120,8|0,0:3|0:0,0:0:0:0:
285,82,54273,2,0,P|272:161|279:212,1,120,8|0,0:3|0:0,0:0:0:0:
439,158,54988,5,6,0:0:0:0:
458,323,55345,1,6,0:0:0:0:
293,343,55702,1,6,0:0:0:0:
273,177,56059,1,6,0:0:0:0:
162,50,56416,2,0,L|103:80,1,60,6|0,1:0|1:0,0:0:0:0:
140,155,56773,2,0,L|81:185,1,60,2|0,1:0|1:0,0:0:0:0:
117,261,57131,1,6,1:0:0:0:
427,134,57845,6,0,P|412:205|381:246,1,120,6|0,1:0|1:0,0:0:0:0:
216,161,58559,2,0,P|278:150|343:162,1,120,2|0,1:0|1:0,0:0:0:0:
208,270,59273,2,0,L|96:197,1,120,6|0,1:0|1:0,0:0:0:0:
21,59,59988,1,2,1:0:0:0:
189,54,60345,1,2,1:0:0:0:
357,53,60702,6,0,P|421:51|479:28,1,120,6|0,1:0|1:0,0:0:0:0:
457,198,61416,2,0,P|481:266|512:309,1,120,2|0,1:0|1:0,0:0:0:0:
354,235,62131,2,0,P|236:266|117:237,1,240,6|0,1:0|1:0,0:0:0:0:
62,182,63023,2,0,L|29:235,2,60,2|0|0,0:0|1:0|0:0,0:0:0:0:
97,105,63559,6,0,P|153:62|211:57,1,120,6|0,1:0|1:0,0:0:0:0:
254,121,64095,2,0,L|257:184,1,60,2|0,0:0|1:0,0:0:0:0:
425,175,64631,1,2,1:0:0:0:
385,332,64988,2,0,L|335:384,1,60,6|0,1:0|0:0,0:0:0:0:
285,315,65345,2,0,L|210:300,1,60,2|0,1:0|0:0,0:0:0:0:
151,263,65702,2,0,P|86:227|63:177,1,120,2|0,1:0|1:0,0:0:0:0:
205,94,66416,6,0,P|267:77|321:42,1,120,6|0,1:0|1:0,0:0:0:0:
420,178,67131,2,0,P|441:248|470:290,1,120,2|0,1:0|1:0,0:0:0:0:
413,350,67666,1,6,0:0:0:0:
251,302,68023,2,0,L|188:342,2,60,2|0|4,0:0|0:0|0:0,0:0:0:0:
151,165,68738,2,0,L|122:224,1,60,2|8,1:0|0:3,0:0:0:0:
135,51,69273,6,0,P|209:44|264:58,1,120,6|0,1:0|1:0,0:0:0:0:
339,198,69988,2,0,P|338:140|366:71,1,120,2|0,1:0|1:0,0:0:0:0:
470,208,70702,2,0,L|505:331,1,120,6|0,1:0|1:0,0:0:0:0:
334,318,71416,1,2,1:0:0:0:
193,226,71773,1,2,1:0:0:0:
111,78,72131,6,0,P|89:136|81:202,1,120,6|0,1:0|1:0,0:0:0:0:
240,141,72845,2,0,P|262:83|270:17,1,120,2|0,1:0|1:0,0:0:0:0:
423,96,73559,2,0,P|425:160|452:224,1,120,6|0,1:0|1:0,0:0:0:0:
408,287,74095,2,0,P|358:339|301:348,1,120,2|0,0:0|0:0,0:0:0:0:
244,304,74631,1,2,1:0:0:0:
124,181,74988,6,0,P|143:122|185:79,1,120,6|0,1:0|1:0,0:0:0:0:
251,127,75523,2,0,P|232:186|190:229,1,120,2|0,0:0|0:0,0:0:0:0:
116,262,76059,2,0,L|155:329,1,60,2|0,1:0|0:0,0:0:0:0:
223,347,76416,1,6,1:0:0:0:
368,263,76773,1,2,1:0:0:0:
443,112,77131,1,2,1:0:0:0:
381,55,77309,2,0,L|334:19,2,60,2|0|0,0:0|1:0|0:0,0:0:0:0:
327,120,77845,6,0,P|251:149|200:147,1,120,6|0,1:0|1:0,0:0:0:0:
134,118,78381,1,10,0:0:0:0:
39,256,78738,2,0,L|103:252,1,60,2|0,1:0|0:0,0:0:0:0:
183,255,79095,1,10,0:0:0:0:
39,343,79451,1,2,1:0:0:0:
34,175,79809,1,10,0:0:0:0:
183,255,80166,1,2,1:0:0:0:
349,271,80523,6,0,P|415:269|473:251,1,120,6|0,0:0|0:0,0:0:0:0:
495,175,81059,1,2,1:0:0:0:
382,51,81416,2,0,L|323:31,2,60,10|0|0,0:0|0:0|1:0,0:0:0:0:
229,123,82131,2,0,P|157:137|101:124,1,120,14|0,0:0|0:0,0:0:0:0:
48,182,82666,2,0,L|20:313,1,120,10|0,0:0|0:0,0:0:0:0:
91,350,83202,1,2,1:0:0:0:
235,263,83559,5,6,0:0:0:0:
256,192,83737,12,0,85344,0:0:0:0:
300,189,86059,6,0,L|308:260,1,60,6|4,0:0|0:0,0:0:0:0:
