osu file format v13

[General]
AudioFilename: Locodol01.mp3
AudioLeadIn: 1500
PreviewTime: 57488
Countdown: 0
SampleSet: Soft
StackLeniency: 0.7
Mode: 0
LetterboxInBreaks: 0
WidescreenStoryboard: 0

[Editor]
Bookmarks: 17828,29257,40686,64898,69257,83202
DistanceSpacing: 1.4
BeatDivisor: 4
GridSize: 4
TimelineZoom: 2.1

[Metadata]
Title:Mirai Shoujotachi
TitleUnicode:未来少女たち
Artist:Nagarekawa Girls
ArtistUnicode:流川ガールズ
Creator:kamisamaaa
Version:Locodol
Source:普通の女子校生が【ろこどる】やってみた
Tags:fycho 三澤 紗千香 Misawa Sachika 宇佐美奈々子 伊藤 美来 Ito Miku 小日向縁 futsuu no joshikousei ga [locodol] yattemita ending みさわ さちか いとう みく Mio Aoyama 松浦勇气 宮崎誠
BeatmapID:462355
BeatmapSetID:194742

[Difficulty]
HPDrainRate:7
CircleSize:4
OverallDifficulty:8
ApproachRate:9
SliderMultiplier:1.8
SliderTickRate:1

[Events]
//Background and Video events
0,0,"03.jpg",0,0
Video,0,"shipin.avi"
//Break Periods
//Storyboard Layer 0 (Background)
//Storyboard Layer 1 (Fail)
//Storyboard Layer 2 (Pass)
//Storyboard Layer 3 (Foreground)
//Storyboard Sound Samples
//Background Colour Transformations
3,100,163,162,255

[TimingPoints]
702,357.142857142857,4,2,1,50,1,0
702,-200,4,2,1,50,0,0
5430,-200,4,2,1,5,0,0
5519,-200,4,2,1,50,0,0
6859,-200,4,2,1,5,0,0
6948,-200,4,2,1,50,0,0
11948,-100,4,2,1,70,0,0
18202,-100,4,2,1,60,0,0
45341,-100,4,2,1,40,0,0
45698,-100,4,2,1,50,0,0
46055,-100,4,2,1,60,0,0
48377,-80,4,2,1,60,0,0
50698,-76.9230769230769,4,2,1,60,0,0
54984,-66.6666666666667,4,2,1,60,0,0
55252,-66.6666666666667,4,2,1,5,0,0
55341,-66.6666666666667,4,2,1,60,0,0
55609,-66.6666666666667,4,2,1,5,0,0
55698,-66.6666666666667,4,2,1,60,0,0
55966,-66.6666666666667,4,2,1,5,0,0
56055,-66.6666666666667,4,2,1,60,0,0
56323,-66.6666666666667,4,2,1,5,0,0
56412,-66.6666666666667,4,2,1,60,0,0
57845,-76.9230769230769,4,2,1,80,0,1
68916,-76.9230769230769,4,2,1,60,0,0
69273,-76.9230769230769,4,2,1,80,0,1
80702,-76.9230769230769,4,2,1,60,0,0

[Colours]
Combo1 : 170,170,213
Combo2 : 255,128,255
Combo3 : 255,128,128
Combo4 : 255,255,26

[HitObjects]
120,156,702,6,0,P|164:157|216:124,1,90,0|0,0:0|0:0,0:0:0:0:
292,85,1416,2,0,P|313:123|368:152,1,90,2|0,0:0|0:0,0:0:0:0:
259,197,2131,1,2,0:0:0:0:
259,197,2845,6,0,P|244:252|213:274,1,90,0|2,0:0|0:0,0:0:0:0:
105,151,3559,1,2,0:0:0:0:
179,198,3916,1,0,0:0:0:0:
225,124,4273,1,2,0:0:0:0:
151,78,4631,1,0,0:0:0:0:
267,139,4988,6,0,P|318:155|380:140,1,112.5,2|0,0:0|0:0,0:0:0:0:
411,125,5523,2,0,L|431:178,1,45,2|0,0:0|0:0,0:0:0:0:
453,262,6059,1,0,0:0:0:0:
281,344,6416,6,0,P|314:298|373:292,1,112.5,0|0,0:0|0:0,0:0:0:0:
363,253,6952,2,0,L|285:188,1,90
213,150,7488,2,0,L|160:182,1,45,0|0,0:0|0:0,0:0:0:0:
79,225,7845,1,2,0:0:0:0:
52,47,8738,5,0,0:0:0:0:
131,59,8916,1,2,0:0:0:0:
212,47,9095,1,0,0:0:0:0:
54,87,9273,2,0,P|49:142|65:193,1,90,0|2,0:0|0:0,0:0:0:0:
142,217,9809,2,0,P|147:162|131:111,1,90,0|2,0:0|0:0,0:0:0:0:
70,281,10523,5,2,0:0:0:0:
153,317,10881,1,0,0:0:0:0:
242,328,11238,1,2,0:0:0:0:
333,314,11595,6,0,P|361:293|382:253,1,67.5
457,178,11952,6,0,B|449:271|471:333|471:333|448:331,1,180,6|8,0:0|0:0,0:0:0:0:
332,315,12488,1,0,1:0:0:0:
242,152,12666,1,8,0:3:0:0:
247,173,12756,1,8,0:3:0:0:
252,194,12845,1,4,0:3:0:0:
326,44,13023,1,0,0:0:0:0:
147,192,13202,2,0,P|110:221|63:231,1,90,2|0,1:0|0:0,0:0:0:0:
114,89,13559,5,8,0:0:0:0:
235,126,13738,1,0,0:0:0:0:
111,289,13916,1,2,1:0:0:0:
147,192,14095,1,0,0:0:0:0:
335,227,14273,5,0,0:0:0:0:
147,192,14452,1,8,0:0:0:0:
315,315,14631,1,0,1:0:0:0:
357,111,14809,5,0,0:0:0:0:
366,90,14898,1,0,0:0:0:0:
380,72,14988,2,0,P|409:107|435:145,1,90,14|0,0:0|0:0,0:0:0:0:
315,315,15345,2,0,P|327:254|337:223,1,90
172,310,15702,5,0,0:0:0:0:
335,227,15881,1,2,0:0:0:0:
219,87,16059,1,0,0:0:0:0:
235,236,16238,1,2,0:0:0:0:
389,36,16416,5,0,0:0:0:0:
199,57,16595,1,2,0:0:0:0:
327,193,16773,1,0,0:0:0:0:
416,29,16952,1,2,0:0:0:0:
219,87,17131,5,0,0:0:0:0:
441,183,17309,1,2,0:0:0:0:
446,212,17398,1,0,0:0:0:0:
448,242,17487,1,2,0:0:0:0:
447,272,17576,1,0,0:0:0:0:
443,301,17666,1,2,0:0:0:0:
435,330,17755,1,0,0:0:0:0:
424,358,17844,1,14,0:0:0:0:
172,310,18202,6,0,P|118:315|75:309,1,90,10|0,0:0|0:0,0:0:0:0:
215,214,18559,2,0,L|305:215,1,90,10|0,0:0|0:0,0:0:0:0:
454,121,18916,2,0,P|400:116|357:122,1,90,10|0,0:0|0:0,0:0:0:0:
213,40,19273,5,8,0:0:0:0:
213,40,19452,1,0,0:0:0:0:
364,120,19631,1,8,0:0:0:0:
267,320,19809,2,0,P|201:259|205:166,1,180,2|0,0:0|0:0,0:0:0:0:
305,215,20345,1,8,0:0:0:0:
141,328,20523,1,0,0:0:0:0:
380,303,20702,6,0,P|431:306|480:301,1,90,10|0,0:0|0:0,0:0:0:0:
183,140,21059,2,0,P|132:137|83:142,1,90,8|0,0:0|0:0,0:0:0:0:
305,215,21416,1,8,0:0:0:0:
311,62,21595,1,0,0:0:0:0:
163,242,21773,2,0,P|154:296|137:336,1,90,10|0,0:0|0:0,0:0:0:0:
305,215,22131,5,8,0:0:0:0:
305,215,22309,1,0,0:0:0:0:
211,106,22488,1,8,0:0:0:0:
163,242,22666,1,0,0:0:0:0:
438,194,22845,1,8,0:0:0:0:
346,84,23023,1,2,0:0:0:0:
252,352,23202,1,8,0:0:0:0:
305,215,23381,1,0,0:0:0:0:
466,81,23559,6,0,P|482:137|428:197,1,135,10|0,0:0|0:0,0:0:0:0:
463,250,23916,2,0,L|522:340,1,90,8|2,0:0|0:0,0:0:0:0:
346,84,24273,2,0,L|294:0,1,90,8|0,0:0|0:0,0:0:0:0:
226,188,24631,1,8,0:0:0:0:
346,84,24809,1,2,0:0:0:0:
123,61,24988,5,8,0:0:0:0:
278,111,25166,1,0,0:0:0:0:
88,144,25345,1,8,0:0:0:0:
262,103,25523,1,0,0:0:0:0:
91,234,25702,1,8,0:0:0:0:
245,94,25881,1,2,0:0:0:0:
361,286,26059,1,8,0:0:0:0:
226,188,26238,1,0,0:0:0:0:
408,93,26416,6,0,P|426:137|431:180,2,90,10|0|8,0:0|0:0|0:0,0:0:0:0:
263,233,26952,1,2,1:0:0:0:
245,274,27041,1,0,1:0:0:0:
227,311,27131,1,0,1:0:0:0:
173,158,27309,1,4,0:3:0:0:
361,286,27488,1,8,0:3:0:0:
233,49,27666,1,6,0:0:0:0:
233,49,28023,5,8,0:0:0:0:
344,71,28202,1,8,0:0:0:0:
407,166,28381,1,8,0:0:0:0:
385,278,28559,1,8,0:0:0:0:
289,341,28738,1,8,0:0:0:0:
178,319,28916,1,8,0:0:0:0:
115,223,29095,1,8,0:0:0:0:
137,112,29273,1,12,0:0:0:0:
434,162,29631,6,0,P|457:222|485:263,1,90,2|0,1:0|0:0,0:0:0:0:
321,228,29988,2,0,L|321:338,1,90,10|0,0:0|0:0,0:0:0:0:
209,162,30345,2,0,P|185:222|157:263,1,90,2|0,1:0|0:0,0:0:0:0:
137,112,30613,1,0,0:0:0:0:
137,112,30702,6,0,P|171:82|227:75,1,90,8|0,0:0|0:0,0:0:0:0:
255,240,31059,2,0,L|199:147,1,90,0|2,1:0|0:0,0:0:0:0:
412,86,31416,2,0,P|360:125|306:132,1,90,8|0,0:0|0:0,0:0:0:0:
399,236,31773,2,0,L|453:326,1,90,2|0,1:0|0:0,0:0:0:0:
243,336,32131,6,0,P|126:352|37:308,1,180,10|0,0:0|1:0,0:0:0:0:
78,95,32666,1,0,0:0:0:0:
78,95,32756,1,0,0:0:0:0:
78,95,32845,2,0,L|95:220,1,90,8|0,0:0|0:0,0:0:0:0:
326,167,33202,2,0,P|272:135|223:122,1,90,2|0,1:0|0:0,0:0:0:0:
393,104,33559,5,8,0:0:0:0:
246,127,33738,1,0,0:0:0:0:
485,153,33916,1,0,1:0:0:0:
326,261,34095,1,0,0:0:0:0:
332,282,34184,1,0,0:0:0:0:
339,303,34273,2,0,L|428:345,1,90,8|0,0:0|0:0,0:0:0:0:
221,360,34631,1,2,1:0:0:0:
326,167,34809,1,0,0:0:0:0:
179,61,34988,6,0,P|151:123|169:190,1,135,14|0,0:0|0:0,0:0:0:0:
251,214,35345,2,0,L|303:201,1,45,0|0,1:0|0:0,0:0:0:0:
380,187,35523,2,0,P|311:120|232:136,1,180,14|0,0:0|0:0,0:0:0:0:
473,59,36059,2,0,L|429:63,1,45,8|0,0:0|0:0,0:0:0:0:
457,140,36238,6,0,B|479:235|442:235|467:322,1,180,6|8,1:0|0:0,0:0:0:0:
252,359,36773,1,0,1:0:0:0:
465,318,36952,1,8,0:3:0:0:
252,359,37131,1,8,0:3:0:0:
320,154,37309,1,10,0:0:0:0:
348,273,37488,1,0,1:0:0:0:
100,368,37666,1,8,0:3:0:0:
64,360,37756,1,8,0:3:0:0:
33,342,37845,6,0,P|61:282|126:251,1,135,14|0,0:0|0:0,0:0:0:0:
201,240,38202,2,0,L|185:298,1,45,0|0,1:0|0:0,0:0:0:0:
128,201,38381,2,0,P|99:120|162:63,1,180,14|0,0:0|1:0,0:0:0:0:
392,50,38916,2,0,L|359:91,1,45,0|0,1:0|0:0,0:0:0:0:
320,154,39095,6,0,B|415:192|413:143|513:170,1,180,14|8,0:0|0:0,0:0:0:0:
336,345,39631,1,0,1:0:0:0:
233,269,39809,1,0,0:0:0:0:
336,345,39988,1,8,0:3:0:0:
248,138,40166,1,4,0:0:0:0:
115,322,40345,1,4,0:0:0:0:
14,193,40702,6,0,P|51:257|125:269,1,135,14|0,0:0|0:0,0:0:0:0:
186,188,41059,2,0,L|91:195,1,90,10|0,0:0|0:0,0:0:0:0:
135,31,41416,2,0,P|143:75|134:119,1,90,10|0,0:0|0:0,0:0:0:0:
54,76,41773,1,8,0:0:0:0:
228,76,41952,1,0,0:0:0:0:
288,237,42131,5,10,0:0:0:0:
216,47,42309,1,0,0:0:0:0:
374,258,42488,1,8,0:0:0:0:
240,108,42666,1,2,0:0:0:0:
438,89,42845,1,8,0:0:0:0:
201,232,43023,1,0,0:0:0:0:
176,258,43113,1,0,0:0:0:0:
153,279,43202,2,0,L|50:286,1,90,8|0,0:0|0:0,0:0:0:0:
276,351,43559,5,10,0:0:0:0:
276,351,43916,2,0,P|282:297|275:252,1,90,8|0,0:0|0:0,0:0:0:0:
191,158,44273,1,4,0:3:0:0:
277,261,44452,1,4,0:3:0:0:
264,44,44631,1,8,0:3:0:0:
264,44,44988,6,0,P|322:53|363:43,1,90,4|0,0:0|0:0,0:0:0:0:
416,160,45345,1,8,0:3:0:0:
375,159,45434,1,8,0:3:0:0:
339,178,45523,1,8,0:3:0:0:
309,205,45612,1,8,0:3:0:0:
286,239,45702,5,10,0:3:0:0:
264,273,45791,1,8,0:3:0:0:
225,284,45880,1,8,0:3:0:0:
186,270,45970,1,8,0:3:0:0:
157,241,46059,5,8,0:3:0:0:
129,211,46148,1,8,0:3:0:0:
108,176,46237,1,8,0:3:0:0:
70,160,46327,1,8,0:3:0:0:
29,164,46416,6,0,L|13:212,1,45,8|0,0:0|0:0,0:0:0:0:
114,285,46594,2,0,L|98:333,1,45,8|0,0:0|0:0,0:0:0:0:
233,366,46773,2,0,L|247:323,1,45,0|0,1:0|0:0,0:0:0:0:
386,331,46951,2,0,L|400:288,1,45,0|0,1:0|0:0,0:0:0:0:
466,166,47131,5,10,0:0:0:0:
400,289,47309,1,8,0:0:0:0:
374,39,47488,1,2,1:0:0:0:
374,39,47845,5,10,0:0:0:0:
223,65,48023,1,8,0:0:0:0:
316,186,48202,1,0,1:0:0:0:
199,35,48381,6,0,B|150:24|120:48|120:48|64:32,1,112.5,2|0,1:0|0:0,0:0:0:0:
188,162,48738,1,8,0:0:0:0:
14,201,48916,1,0,1:0:0:0:
68,34,49095,1,0,0:0:0:0:
36,242,49273,5,10,0:0:0:0:
167,122,49451,1,8,0:0:0:0:
16,155,49631,1,2,1:0:0:0:
186,208,49809,1,2,1:0:0:0:
314,88,49988,5,8,0:0:0:0:
431,183,50166,1,8,0:0:0:0:
399,328,50345,1,2,1:0:0:0:
399,328,50702,6,0,L|512:358,1,116.999994644165,8|8,0:0|0:0,0:0:0:0:
317,213,51059,2,0,L|431:183,1,116.999994644165,2|0,1:0|1:0,0:0:0:0:
188,288,51416,1,8,0:0:0:0:
314,88,51595,1,8,0:0:0:0:
64,42,51773,2,0,P|83:122|181:135,1,175.499991966248,2|0,1:0|0:0,0:0:0:0:
256,71,52131,6,0,L|139:68,1,116.999994644165,6|0,0:0|0:0,0:0:0:0:
270,202,52488,1,0,1:0:0:0:
396,100,52666,1,0,1:0:0:0:
235,203,52845,1,0,1:0:0:0:
443,202,53023,1,0,1:0:0:0:
200,204,53202,1,0,1:0:0:0:
417,309,53381,1,0,1:0:0:0:
396,100,53559,5,4,1:0:0:0:
270,202,53738,1,8,0:3:0:0:
272,242,53827,1,8,0:3:0:0:
274,282,53916,1,8,0:3:0:0:
396,100,54095,5,0,1:0:0:0:
171,138,54273,1,8,0:3:0:0:
140,163,54362,1,8,0:3:0:0:
109,189,54451,1,8,0:3:0:0:
71,74,54631,1,0,1:0:0:0:
157,298,54809,1,8,0:3:0:0:
248,80,54988,6,0,B|308:69|362:85|362:85|394:120|399:166,1,202.500007724762,4|0,0:0|0:0,0:0:0:0:
248,80,55345,6,0,B|298:114|325:164|325:164|322:211|293:247,1,202.500007724762,4|0,0:0|0:0,0:0:0:0:
248,81,55702,6,0,B|259:141|243:195|243:195|208:227|162:232,1,202.500007724762,4|0,0:0|0:0,0:0:0:0:
248,81,56059,6,0,B|213:131|163:158|163:158|116:155|80:126,1,202.500007724762,4|0,0:0|0:0,0:0:0:0:
248,81,56416,5,6,1:0:0:0:
330,203,56595,1,2,1:0:0:0:
476,192,56773,1,2,1:0:0:0:
248,81,56952,1,2,1:0:0:0:
266,334,57131,1,6,1:0:0:0:
125,142,57845,5,6,1:0:0:0:
252,225,58023,1,0,0:0:0:0:
126,252,58202,2,0,P|68:276|30:321,1,116.999994644165,0|0,1:0|0:0,0:0:0:0:
174,357,58559,5,2,1:0:0:0:
29,203,58738,1,0,0:0:0:0:
40,169,58827,1,0,0:0:0:0:
71,153,58916,2,0,P|111:194|126:251,1,116.999994644165,0|0,1:0|0:0,0:0:0:0:
164,98,59273,6,0,B|220:109|280:91|280:91|319:138|383:151,1,233.999989288331,6|0,1:0|1:0,0:0:0:0:
382,36,59809,1,0,0:0:0:0:
279,233,59988,2,0,P|263:298|275:358,1,116.999994644165,2|0,1:0|0:0,0:0:0:0:
486,296,60345,2,0,P|431:282|366:301,1,116.999994644165,2|0,1:0|0:0,0:0:0:0:
459,110,60702,5,6,1:0:0:0:
365,214,60881,1,0,0:0:0:0:
382,36,61059,1,0,1:0:0:0:
352,195,61238,1,0,0:0:0:0:
275,33,61416,5,0,1:0:0:0:
182,182,61595,1,0,0:0:0:0:
151,164,61684,1,0,0:0:0:0:
123,144,61773,1,2,1:0:0:0:
249,46,61952,1,0,0:0:0:0:
208,259,62131,6,0,P|166:311|115:333,1,116.999994644165,6|0,1:0|0:0,0:0:0:0:
302,362,62488,1,0,1:0:0:0:
197,147,62666,1,0,0:0:0:0:
121,331,62845,1,0,1:0:0:0:
397,77,63023,6,0,L|454:98,1,58.4999973220826,0|0,0:0|0:0,0:0:0:0:
395,171,63202,2,0,L|433:217,1,58.4999973220826,0|0,1:0|0:0,0:0:0:0:
345,251,63381,2,0,L|355:311,1,58.4999973220826
126,225,63559,6,0,P|180:163|271:165,1,175.499991966248,6|0,1:0|0:0,0:0:0:0:
290,177,63916,1,0,1:0:0:0:
157,329,64095,1,0,0:0:0:0:
122,330,64184,1,0,0:0:0:0:
87,325,64273,1,0,1:0:0:0:
217,237,64452,1,0,0:0:0:0:
37,147,64631,1,0,1:0:0:0:
208,49,64809,6,0,L|199:117,1,58.4999973220826
281,96,64987,2,0,P|372:103|423:23,1,175.499991966248,6|0,1:0|0:0,0:0:0:0:
486,94,65345,2,0,L|507:150,1,58.4999973220826,0|0,1:0|0:0,0:0:0:0:
440,196,65523,2,0,L|422:266,1,58.4999973220826
290,177,65702,5,0,1:0:0:0:
414,289,65881,1,0,0:0:0:0:
237,311,66059,1,0,1:0:0:0:
96,95,66238,5,0,0:0:0:0:
96,95,66327,1,0,0:0:0:0:
96,95,66416,2,0,B|104:146|80:191|80:191|88:238|117:275,1,175.499991966248,6|0,1:0|0:0,0:0:0:0:
159,332,66773,2,0,L|126:390,1,58.4999973220826,0|0,1:0|0:0,0:0:0:0:
292,255,66952,2,0,L|320:204,1,58.4999973220826
261,111,67131,5,0,1:0:0:0:
290,255,67309,1,2,0:0:0:0:
217,104,67488,1,0,1:0:0:0:
414,289,67666,1,6,0:0:0:0:
414,289,68023,5,0,1:0:0:0:
261,111,68202,1,4,0:3:0:0:
474,83,68381,1,4,0:0:0:0:
260,168,68559,6,0,L|207:217,1,58.4999973220826,0|0,1:0|0:0,0:0:0:0:
327,327,68738,2,0,L|370:287,1,58.4999973220826,0|0,1:0|0:0,0:0:0:0:
290,255,68916,1,8,0:3:0:0:
254,280,69005,1,8,0:3:0:0:
212,292,69094,1,8,0:3:0:0:
168,290,69183,1,8,0:3:0:0:
128,274,69273,6,0,P|76:249|46:199,1,116.999994644165,6|0,1:0|0:0,0:0:0:0:
226,104,69631,2,0,P|190:155|136:184,1,116.999994644165,0|0,1:0|0:0,0:0:0:0:
112,64,69988,1,2,1:0:0:0:
334,47,70166,5,0,0:0:0:0:
356,74,70256,1,0,0:0:0:0:
376,102,70345,2,0,L|386:225,1,116.999994644165,0|0,1:0|0:0,0:0:0:0:
299,139,70702,5,6,1:0:0:0:
475,172,70881,1,0,0:0:0:0:
391,312,71059,1,0,1:0:0:0:
207,200,71238,5,0,0:0:0:0:
172,198,71327,1,0,0:0:0:0:
137,205,71416,2,0,P|114:273|114:329,1,116.999994644165,2|0,1:0|0:0,0:0:0:0:
59,165,71773,2,0,P|32:98|-3:55,1,116.999994644165,2|0,1:0|0:0,0:0:0:0:
185,73,72131,5,6,1:0:0:0:
248,236,72309,1,0,0:0:0:0:
269,53,72488,1,0,1:0:0:0:
306,235,72666,1,0,0:0:0:0:
355,69,72845,1,0,1:0:0:0:
166,178,73023,5,0,0:0:0:0:
147,208,73113,1,0,0:0:0:0:
137,241,73202,1,2,1:0:0:0:
306,235,73381,1,0,0:0:0:0:
166,178,73559,6,0,P|95:162|53:175,1,116.999994644165,6|0,1:0|0:0,0:0:0:0:
299,144,73916,2,0,P|370:160|412:147,1,116.999994644165,0|2,1:0|0:0,0:0:0:0:
445,233,74184,1,0,0:0:0:0:
445,233,74273,2,0,L|434:358,1,116.999994644165,0|0,1:0|0:0,0:0:0:0:
299,144,74631,2,0,L|343:266,1,116.999994644165,2|0,1:0|0:0,0:0:0:0:
193,241,74988,6,0,P|116:266|68:350,1,175.499991966248,6|0,1:0|0:0,0:0:0:0:
48,268,75345,2,0,L|40:209,1,58.4999973220826,0|0,1:0|0:0,0:0:0:0:
114,167,75523,2,0,L|148:109,1,58.4999973220826
227,136,75702,2,0,P|287:114|345:124,1,116.999994644165,0|0,1:0|0:0,0:0:0:0:
299,232,76059,1,0,1:0:0:0:
434,43,76238,1,0,0:0:0:0:
441,212,76416,6,0,P|434:275|410:331,1,116.999994644165,6|0,1:0|0:0,0:0:0:0:
189,270,76773,2,0,L|299:232,1,116.999994644165,0|0,1:0|0:0,0:0:0:0:
114,167,77131,1,0,1:0:0:0:
316,69,77309,6,0,L|376:53,1,58.4999973220826
283,151,77488,2,0,L|227:136,1,58.4999973220826,0|0,1:0|0:0,0:0:0:0:
155,68,77666,2,0,L|211:52,1,58.4999973220826,0|0,0:0|0:0,0:0:0:0:
317,68,77845,6,0,P|366:166|329:225,1,175.499991966248,6|0,1:0|0:0,0:0:0:0:
315,242,78202,1,0,1:0:0:0:
100,216,78381,2,0,L|66:343,1,116.999994644165,10|0,0:0|0:0,0:0:0:0:
194,169,78738,2,0,L|160:296,1,116.999994644165,8|0,0:3|0:0,0:0:0:0:
55,76,79095,5,6,0:0:0:0:
336,125,79452,1,10,0:0:0:0:
246,201,79631,1,8,0:0:0:0:
153,271,79809,1,6,1:0:0:0:
387,65,80166,6,0,P|445:73|516:60,1,116.999994644165,2|0,0:0|0:0,0:0:0:0:
389,263,80523,1,14,0:0:0:0:
389,263,80881,5,8,0:0:0:0:
250,306,81059,2,0,P|182:324|128:322,1,116.999994644165,0|0,1:0|0:0,0:0:0:0:
173,197,81416,1,8,0:0:0:0:
250,306,81595,1,8,0:0:0:0:
277,78,81773,2,0,P|208:39|151:32,1,116.999994644165,6|0,1:0|0:0,0:0:0:0:
419,127,82131,1,8,0:0:0:0:
419,127,82488,5,0,1:0:0:0:
395,280,82666,2,0,P|336:286|276:319,1,116.999994644165,8|0,0:0|0:0,0:0:0:0:
150,189,83023,2,0,P|214:193|274:225,2,116.999994644165,8|0|0,0:0|1:0|0:0,0:0:0:0:
33,258,83559,1,6,0:0:0:0:
256,192,83648,12,0,85702,0:0:0:0:
282,147,86059,5,4,0:0:0:0:
282,147,86238,1,4,0:0:0:0:
