osu file format v9

[General]
AudioFilename: NYC-Yuuki+100%.MP3
AudioLeadIn: 0
PreviewTime: 46607
Countdown: 1
SampleSet: Soft
StackLeniency: 0.7
Mode: 1
LetterboxInBreaks: 1

[Editor]
DistanceSpacing: 0.8
BeatDivisor: 4
GridSize: 8

[Metadata]
Title:Yuuki 100%
Artist:NYC
Creator:HeatKai
Version:Taiko
Source:Nintama Rantarou
Tags:Rantarou Inadera Kirimaru Settsuno Shinbei Fukutomi Beuchi-chan Pieguy1372

[Difficulty]
HPDrainRate:5
CircleSize:5
OverallDifficulty:5
ApproachRate:5
SliderMultiplier:1.4
SliderTickRate:1

[Events]
//Background and Video events
0,0,"BG3.jpg"
//Break Periods
//Storyboard Layer 0 (Background)
//Storyboard Layer 1 (Fail)
//Storyboard Layer 2 (Pass)
//Storyboard Layer 3 (Foreground)
//Storyboard Sound Samples
//Background Colour Transformations
3,100,163,162,255

[TimingPoints]
4653,419.58041958042,4,2,0,100,1,0
32761,-133.333333333333,4,2,0,100,0,0
38845,-100,4,2,0,100,0,0
46607,-100,4,2,0,100,0,1
76820,-100,4,2,0,100,0,0

[HitObjects]
256,192,6331,1,0
256,192,6541,1,8
256,192,6750,1,0
256,192,6960,1,8
256,192,7170,1,0
256,192,7380,1,8
256,192,7590,1,0
256,192,7799,1,0
256,192,7904,1,0
256,192,8009,1,8
256,192,8219,1,0
256,192,8429,1,8
256,192,8639,1,0
256,192,8848,1,8
256,192,8953,1,0
256,192,9058,1,0
208,216,9268,1,8
256,192,9687,1,0
256,192,9897,1,0
256,192,10107,1,8
256,192,10317,1,0
256,192,10527,1,0
256,192,10736,1,0
256,192,10946,1,8
256,192,11156,1,8
256,192,11261,1,0
256,192,11366,1,0
256,192,11576,1,0
256,192,11680,1,0
256,192,11785,1,8
256,192,11995,1,0
256,192,12205,1,0
256,192,12415,1,8
256,192,12625,1,0
256,192,12834,1,0
256,192,13044,1,0
256,192,13149,1,0
256,192,13254,1,8
256,192,13464,1,0
256,192,13569,1,0
256,192,13673,1,8
256,192,13883,1,0
256,192,14093,1,8
256,192,14198,1,0
256,192,14303,1,0
256,192,14513,1,0
256,192,14932,1,0
256,192,15142,1,0
256,192,15352,1,0
256,192,15457,1,0
256,192,15562,1,8
256,192,15771,1,0
256,192,15876,1,0
256,192,15981,1,0
256,192,16191,1,0
256,192,16401,1,0
256,192,16611,1,0
256,192,16820,1,0
256,192,16925,1,0
256,192,17030,1,8
256,192,17240,1,0
256,192,17450,1,0
256,192,17659,1,8
256,192,17869,1,0
256,192,18289,1,0
256,192,18499,1,0
256,192,18708,1,8
256,192,18813,1,8
256,192,18918,1,8
256,192,19128,1,0
256,192,19338,1,8
256,192,19443,1,8
256,192,19548,1,8
256,192,19757,1,0
256,192,19967,1,0
256,192,20177,1,8
256,192,20387,1,0
256,192,20492,1,0
256,192,20597,1,8
256,192,20806,1,0
256,192,21016,1,0
256,192,21226,1,8
256,192,21331,1,0
256,192,21436,1,0
256,192,21646,1,0
256,192,21855,1,8
256,192,22065,1,0
256,192,22170,1,0
256,192,22275,1,0
256,192,22485,1,0
256,192,22694,1,8
256,192,23114,1,0
256,192,23324,1,0
256,192,23534,1,8
256,192,23743,1,0
256,192,23953,1,8
256,192,24058,1,0
256,192,24163,1,0
256,192,24373,1,8
256,192,24583,1,0
256,192,24687,1,0
256,192,24792,1,0
256,192,25002,1,0
256,192,25212,1,8
256,192,25422,1,0
256,192,25632,1,8
256,192,25736,1,0
256,192,25841,1,0
256,192,26051,1,8
256,192,26261,1,0
256,192,26471,1,0
256,192,26576,1,0
256,192,26680,1,0
256,192,26890,1,8
256,192,27100,1,0
256,192,27310,1,8
256,192,27415,1,0
256,192,27520,1,0
256,192,27729,1,8
256,192,27939,1,8
256,192,28044,1,0
256,192,28149,1,0
256,192,28359,1,0
256,192,28464,1,0
256,192,28569,1,0
256,192,28778,1,4
256,192,28988,1,0
256,192,29198,1,0
256,192,29408,1,8
256,192,29618,1,8
256,192,29827,1,0
256,192,29932,1,0
256,192,30037,1,0
256,192,30247,1,0
256,192,30457,1,8
256,192,30666,1,8
256,192,30876,1,0
256,192,31086,1,8
256,192,31191,1,0
256,192,31296,1,0
256,192,31401,1,0
256,192,31506,1,8
256,192,31611,1,0
256,192,31715,1,0
256,192,31820,1,0
256,192,31925,1,0
256,192,32030,1,0
256,192,32135,1,8
256,192,32240,1,0
256,192,32345,1,8
256,192,32764,1,8
256,192,32974,1,8
256,192,33184,1,0
256,192,33289,1,0
256,192,33394,1,0
256,192,33499,1,0
256,192,33604,1,8
256,192,33813,1,8
256,192,34023,1,8
256,192,34233,1,8
256,192,34443,1,0
256,192,34548,1,0
256,192,34653,1,0
256,192,34862,1,8
256,192,35072,1,8
256,192,35282,1,8
256,192,35492,1,0
256,192,35597,1,0
256,192,35701,1,0
256,192,35911,1,8
256,192,36121,1,8
256,192,36541,1,4
256,192,36960,1,8
256,192,37170,1,0
256,192,37380,1,8
256,192,37590,1,0
256,192,37799,1,8
256,192,38009,1,0
256,192,38219,1,8
256,192,38429,1,0
256,192,38639,1,0
256,192,38848,1,8
256,192,38953,1,8
256,192,39058,1,8
256,192,39268,1,0
256,192,39478,1,0
256,192,39583,1,0
256,192,39687,1,0
256,192,39792,1,0
256,192,39897,1,8
256,192,40107,1,0
256,192,40317,1,8
256,192,40527,1,0
256,192,40736,1,8
256,192,40946,1,0
256,192,41156,1,8
256,192,41366,1,8
256,192,41576,1,0
256,192,41995,1,8
256,192,42415,1,8
256,192,42834,1,8
256,192,43254,1,8
256,192,43464,1,0
256,192,43673,1,0
256,192,43883,1,8
256,192,44093,1,0
256,192,44198,1,0
256,192,44303,1,0
256,192,44408,1,0
256,192,44513,1,8
256,192,44618,1,8
256,192,44722,1,8
256,192,44932,1,12
256,192,45352,1,12
256,192,45771,1,8
256,192,46191,1,8
256,192,46611,1,0
256,192,46715,1,0
256,192,46820,1,8
256,192,47030,1,0
256,192,47240,1,8
256,192,47345,1,0
256,192,47450,1,0
256,192,47659,1,0
256,192,47869,1,8
256,192,48079,1,0
256,192,48184,1,0
256,192,48289,1,0
256,192,48499,1,8
256,192,48708,1,0
256,192,48813,1,0
256,192,48918,1,8
256,192,49128,1,0
256,192,49338,1,0
256,192,49548,1,8
256,192,49653,1,0
256,192,49757,1,0
256,192,49967,1,0
256,192,50177,1,8
256,192,50387,1,0
256,192,50492,1,0
256,192,50597,1,8
256,192,50806,1,0
256,192,51016,1,0
256,192,51226,1,0
256,192,51436,1,8
256,192,51646,1,0
256,192,51855,1,0
256,192,52065,1,8
256,192,52170,1,0
256,192,52275,1,0
256,192,52485,1,8
256,192,52904,1,0
256,192,53114,1,8
256,192,53324,1,0
256,192,53429,1,0
256,192,53534,1,0
256,192,53743,1,8
256,192,53848,1,0
256,192,53953,1,0
256,192,54163,1,8
256,192,54373,1,0
256,192,54583,1,8
256,192,54792,1,0
256,192,54897,1,0
256,192,55002,1,0
256,192,55212,1,8
256,192,55422,1,0
256,192,55527,1,0
256,192,55632,1,8
256,192,55841,1,0
256,192,56051,1,0
256,192,56261,1,8
256,192,56471,1,8
256,192,56680,1,0
256,192,56785,1,0
256,192,56890,1,0
256,192,57100,1,8
256,192,57310,1,0
256,192,57520,1,0
256,192,57729,1,8
256,192,57939,1,0
256,192,58044,1,0
256,192,58149,1,8
256,192,58359,1,4
256,192,58778,1,4
256,192,59198,1,8
256,192,59408,1,0
256,192,59618,1,8
256,192,59827,1,0
256,192,60037,1,8
256,192,60142,1,0
256,192,60247,1,0
256,192,60457,1,0
256,192,60666,1,8
256,192,60876,1,0
256,192,60981,1,0
256,192,61086,1,0
256,192,61296,1,8
256,192,61506,1,0
256,192,61611,1,0
256,192,61715,1,0
256,192,61925,1,0
256,192,62135,1,8
256,192,62345,1,0
256,192,62555,1,0
256,192,62974,1,8
256,192,63184,1,0
256,192,63394,1,0
256,192,63604,1,0
256,192,63813,1,8
256,192,64023,1,0
256,192,64128,1,0
256,192,64233,1,0
256,192,64443,1,8
256,192,64653,1,0
256,192,64862,1,0
256,192,65072,1,0
256,192,65282,1,0
256,192,65387,1,0
256,192,65492,1,8
256,192,65701,1,0
256,192,65911,1,0
256,192,66331,1,8
256,192,66541,1,0
256,192,66750,1,8
256,192,66855,1,0
256,192,66960,1,0
256,192,67170,1,0
256,192,67380,1,8
256,192,67485,1,0
256,192,67590,1,8
256,192,67799,1,0
256,192,68009,1,0
256,192,68219,1,0
256,192,68429,1,8
256,192,68639,1,0
256,192,68743,1,0
256,192,68848,1,8
256,192,69058,1,0
256,192,69268,1,0
256,192,69687,1,8
256,192,69897,1,8
256,192,70107,1,0
256,192,70212,1,0
256,192,70317,1,8
256,192,70422,1,0
256,192,70527,1,0
256,192,70736,1,0
256,192,70946,1,8
256,192,71051,1,0
256,192,71156,1,0
256,192,71261,1,0
256,192,71366,1,8
256,192,71785,1,4
256,192,72205,1,4
256,192,72625,1,8
256,192,73044,1,0
256,192,73464,1,8
256,192,73883,1,0
256,192,74093,1,8
256,192,74198,1,8
256,192,74303,1,0
256,192,74408,1,0
256,192,74513,1,0
256,192,74722,1,0
256,192,75142,1,4
256,192,75771,1,4
256,192,75981,1,8
256,192,76820,1,12
256,192,77450,1,8
256,192,78079,1,4
