osu file format v9

[General]
AudioFilename: H.M. - THIS ILLUSION.mp3
AudioLeadIn: 0
PreviewTime: 62493
Countdown: 0
SampleSet: Soft
StackLeniency: 0.7
Mode: 0
LetterboxInBreaks: 1

[Editor]
DistanceSpacing: 1
BeatDivisor: 4
GridSize: 4

[Metadata]
Title:THIS ILLUSION (Fate ver.)
Artist:NUMBER 201 feat. M.H.
Creator:Ch1ka
Version:Sakura
Source:Fate/Stay Night
Tags:visual novel unlimited blade works heavens feel type-moon reiji-rj

[Difficulty]
HPDrainRate:6
CircleSize:4
OverallDifficulty:6
ApproachRate:7
SliderMultiplier:1.4
SliderTickRate:2

[Events]
//Background and Video events
0,0,"bg sakura.jpg"
Video,0,"Fate-stay night visual novel Opening 1.avi"
//Break Periods
//Storyboard Layer 0 (Background)
//Storyboard Layer 1 (Fail)
//Storyboard Layer 2 (Pass)
//Storyboard Layer 3 (Foreground)
//Storyboard Sound Samples
//Background Colour Transformations
3,100,213,60,208

[TimingPoints]
10184,357.142857142857,4,2,0,60,1,0
16612,-100,4,1,0,25,0,0
17326,-133.333333333333,4,2,0,60,0,0
20183,-100,4,2,0,60,0,0
37326,-100,4,2,0,70,0,0
63041,-100,4,2,0,70,0,1
83041,-100,4,2,0,80,0,1
83398,-100,4,2,0,70,0,1
83755,-100,4,2,0,60,0,1
84112,-100,4,2,0,50,0,1
84469,-100,4,2,0,40,0,1
84826,-100,4,2,0,30,0,1
85184,-100,4,2,0,20,0,1
85541,-100,4,2,0,10,0,1
85898,-100,4,2,0,5,0,0

[Colours]
Combo1 : 153,46,156
Combo2 : 248,243,86
Combo3 : 198,0,0
Combo4 : 232,238,240
Combo5 : 16,11,202

[HitObjects]
120,48,11076,6,0,B|88:120,1,70,2|0
160,88,11434,2,0,B|192:160,1,70
120,144,11791,2,0,B|88:216,1,70,2|0
160,192,12148,1,2
272,104,12505,2,2,B|319:150|345:187|322:245|264:286,1,210,0|2
160,192,13398,1,0
160,192,13576,1,2
176,296,13933,22,2,B|222:343|259:369|317:346|358:288,1,210,2|0
304,240,14648,1,2
352,192,14826,1,2
400,240,15005,1,0
440,104,15362,2,2,B|408:56|352:32|299:54|264:104,1,210,0|2
256,240,16255,1,0
200,280,16433,1,2
96,192,16791,1,8
96,192,16880,1,8
96,192,16969,1,8
168,192,17148,1,8
168,192,17326,6,0,B|160:134|192:82|257:54|327:84|359:133|344:197,1,314.999990612269,6|0
256,224,18755,2,0,B|256:400,2,157.499995306134,2|0|2
216,88,20183,1,0
120,192,20541,5,2
48,192,20719,1,2
48,328,21076,2,2,B|136:328,2,70,2|0|2
47,260,21612,1,0
48,191,21791,1,2
264,88,22505,37,2
320,128,22683,1,6
376,88,22862,1,0
448,88,23041,2,2,B|448:168,2,70,2|0|0
412,28,23576,1,2
384,164,23933,5,2
344,220,24112,1,0
208,160,24469,1,0
256,112,24648,1,0
304,160,24826,1,0
256,208,25005,1,0
315,78,25362,38,0,B|291:47|259:31|219:47|195:79,1,140,2|0
197,77,25898,1,2
146,28,26076,1,2
98,76,26255,1,2
98,148,26433,2,0,B|98:300,1,140,0|2
162,316,26969,1,2
300,316,27326,5,2
432,260,27683,1,2
368,224,27862,1,0
400,96,28219,1,0
344,56,28398,2,0,B|304:112,1,70,2|2
257,165,28755,38,2,B|167:68|76:165,1,210,4|0
48,304,29648,1,0
120,304,29826,1,8
256,336,30183,1,8
224,272,30362,2,0,B|184:192,1,70,0|8
288,272,30719,2,0,B|328:192,1,70
256,176,31076,2,0,B|256:80,1,70,0|4
136,32,31612,6,2,B|208:32,2,70,2|0|0
64,32,32148,1,2
32,96,32326,2,0,B|0:128|32:192,1,70
88,176,32683,2,0,B|120:208|88:272,1,70,2|0
48,288,33041,1,2
256,192,33219,12,4,34469
256,192,34648,6,0,B|312:192|312:192|352:216|352:216|416:216,1,140,2|0
384,288,35183,2,0,B|328:288|328:288|288:264|288:264|224:264,1,140,0|2
192,224,35719,1,2
104,112,36076,2,0,B|16:112,2,70,2|0|0
376,192,37326,53,6
424,144,37505,1,0
472,192,37684,1,8
424,240,37862,1,0
256,112,38398,1,8
120,160,38755,5,2
72,112,38934,1,0
24,160,39112,1,8
72,208,39291,2,2,B|163:304|253:207,1,210,0|8
216,72,40184,21,2
256,16,40362,1,2
296,72,40541,1,8
256,128,40719,2,2,B|256:336,1,210,2|8
328,216,41612,5,2
376,168,41791,1,0
424,216,41969,1,8
464,272,42148,2,2,B|373:368|283:271,1,210,0|8
192,160,43041,38,2,B|257:111|328:166,1,140,4|8
326,229,43576,1,0
256,32,44112,1,8
349,96,44469,1,0
389,40,44648,1,2
429,96,44826,1,8
389,153,45005,1,2
388,288,45362,1,2
446,327,45541,2,2,B|421:371|355:370|330:345|321:295,1,140,8|0
320,248,46076,1,2
264,144,46434,5,0
320,104,46612,1,8
360,160,46791,1,0
248,232,47148,1,0
192,272,47326,1,8
152,216,47505,1,0
144,48,47862,5,0
216,48,48041,1,8
288,48,48219,2,8,B|360:48,1,70,0|0
344,184,48755,38,2,B|256:280|163:183,1,210,4|0
219,55,49648,1,0
291,55,49826,1,8
195,157,50184,2,0,B|235:181|219:245,2,70,0|0|8
147,205,50719,2,0,B|147:277,1,70,0|0
99,325,51076,2,0,B|59:301|75:237,1,70,0|8
12,136,51612,6,4,B|-15:114|-14:70|-3:24|43:12|85:11|106:42,1,210,8|8
256,72,52505,1,0
327,72,52684,1,8
327,141,52862,1,0
397,139,53041,1,8
400,280,53398,1,0
328,280,53576,1,8
216,192,53934,1,0
146,192,54112,1,8
184,328,54469,38,4,B|256:336|316:275|364:192|316:108|257:49|173:64,1,420,4|2
168,128,55719,1,2
216,176,55898,1,8
344,128,56255,1,2
296,176,56434,1,8
256,312,56791,1,2
256,312,56969,1,8
256,240,57148,1,0
316,276,57326,2,4,B|392:300|464:256|480:176,1,210,4|2
256,192,58041,12,0,60184
144,159,60541,2,2,B|192:108,1,70
256,232,61076,2,2,B|256:312|256:304,2,70,2|2|0
320,108,61791,2,2,B|380:172,2,70,2|2|0
112,120,62684,37,0
112,120,62862,1,0
112,192,63041,2,4,B|98:266|158:325|241:373|324:325|385:265|376:189,1,420,6|2
376,193,64291,1,2
376,193,64469,1,2
220,84,64826,6,2,B|140:84,2,70,2|0|0
292,84,65362,2,2,B|372:84,2,70,0|2|0
256,24,65898,1,0
256,192,66076,12,2,67684
220,137,68041,37,0
292,137,68219,1,0
256,197,68398,1,0
293,255,68576,1,0
221,255,68755,1,6
141,139,69112,1,2
142,209,69291,1,0
141,278,69469,1,0
256,356,69826,5,2
256,284,70005,2,4,B|256:66,1,210,6|2
392,40,70898,5,2
396,108,71076,1,0
448,156,71255,1,2
396,204,71434,1,6
360,340,71791,2,0,B|148:340,1,210,6|0
96,224,72684,6,0,B|160:160|160:160,2,70,2|0|6
64,160,73219,1,2
120,116,73398,2,2,B|120:44,1,70,0|2
256,76,73934,6,0,B|292:48|348:96,1,70
356,140,74291,2,0,B|320:168|264:120,1,70,0|6
353,265,74826,1,2
293,301,75005,1,0
160,264,75362,1,2
217,301,75541,1,0
156,183,75898,5,4
112,128,76076,1,0
148,68,76255,1,0
216,80,76434,1,0
228,148,76612,1,2
296,32,76969,21,0
344,80,77148,1,6
480,80,77505,2,0,B|480:296,1,210,6|0
336,259,78398,5,0
336,187,78576,1,6
275,220,78755,1,0
207,220,78934,2,4,B|171:224|141:193|117:152|141:110|170:80|212:88,1,210,6|0
336,32,79826,37,0
264,32,80005,1,0
300,91,80184,2,4,B|368:77|427:136|475:220|432:312|368:376|295:356,1,420,6|2
256,304,81434,1,2
256,232,81612,5,6
152,136,81969,1,0
256,48,82326,1,2
360,136,82684,1,0
256,192,83041,12,0,85898
