osu file format v9

[General]
AudioFilename: H.M. - THIS ILLUSION.mp3
AudioLeadIn: 0
PreviewTime: 62493
Countdown: 0
SampleSet: Soft
StackLeniency: 0.7
Mode: 0
LetterboxInBreaks: 1

[Editor]
DistanceSpacing: 1.1
BeatDivisor: 4
GridSize: 8

[Metadata]
Title:THIS ILLUSION (Fate ver.)
Artist:NUMBER 201 feat. M.H.
Creator:Ch1ka
Version:Ilya
Source:Fate/Stay Night
Tags:visual novel unlimited blade works heavens feel type-moon reiji-rj

[Difficulty]
HPDrainRate:6
CircleSize:4
OverallDifficulty:7
ApproachRate:8
SliderMultiplier:1.8
SliderTickRate:2

[Events]
//Background and Video events
0,0,"bg ilya.jpg"
Video,0,"Fate-stay night visual novel Opening 1.avi"
//Break Periods
//Storyboard Layer 0 (Background)
//Storyboard Layer 1 (Fail)
//Storyboard Layer 2 (Pass)
//Storyboard Layer 3 (Foreground)
//Storyboard Sound Samples
//Background Colour Transformations
3,100,244,244,255

[TimingPoints]
10184,357.142857142857,4,2,0,60,1,0
12505,-100,4,2,0,50,0,0
13933,-100,4,2,0,40,0,0
15362,-100,4,2,0,50,0,0
16612,-100,4,1,0,15,0,0
17237,-200,4,2,0,40,0,0
18130,-100,4,2,0,40,0,0
21612,-100,4,2,0,50,0,0
21701,-100,4,2,0,80,0,0
21881,-100,4,2,0,40,0,0
28666,-200,4,2,0,40,0,0
30987,-100,4,2,0,40,0,0
33219,-100,4,2,0,0,0,0
36612,-100,4,2,0,31,0,0
37326,-100,4,2,0,100,0,0
37416,-100,4,2,0,60,0,0
43041,-200,4,2,0,60,0,0
45005,-100,4,2,0,60,0,0
47862,-100,4,1,0,30,0,0
48755,-200,4,2,0,60,0,0
49291,-100,4,2,0,60,0,0
54469,-100,4,2,0,0,0,0
55541,-100,4,2,0,60,0,0
57951,-100,4,2,0,0,0,0
60183,-100,4,2,0,40,0,0
63041,-100,4,2,0,60,0,1
83755,-100,4,2,0,50,0,1
84112,-100,4,2,0,40,0,1
84469,-100,4,2,0,30,0,1
84828,-100,4,2,0,20,0,1
85185,-100,4,2,0,10,0,1
85541,-100,4,2,0,5,0,1
85898,-100,4,2,0,5,0,0

[Colours]
Combo1 : 153,46,156
Combo2 : 248,243,86
Combo3 : 198,0,0
Combo4 : 232,238,240
Combo5 : 16,11,202

[HitObjects]
80,168,11076,1,0
120,80,11255,1,0
200,136,11434,1,2
256,56,11612,1,0
312,136,11791,1,0
392,80,11969,1,0
432,168,12148,1,0
256,320,12505,5,2
256,320,12683,1,2
256,120,13041,1,2
256,320,13398,1,2
256,320,13576,1,2
440,248,13933,5,0
440,248,14112,1,0
384,168,14291,1,0
296,120,14469,2,0,B|200:120,1,90,2|0
120,168,14826,1,0
64,248,15005,1,0
256,296,15362,5,2
256,296,15541,1,2
256,96,15898,1,2
256,296,16255,1,2
256,296,16433,1,2
256,96,16791,5,8
256,104,16880,1,8
256,112,16969,1,8
256,120,17058,1,8
256,128,17148,1,8
184,168,17326,6,0,B|216:232|296:232|328:168,1,180,4|0
256,296,18398,1,0
184,112,18755,1,2
256,48,18933,1,0
328,112,19112,1,0
256,176,19291,1,0
256,176,19826,1,2
112,312,20183,5,0
208,336,20362,1,2
304,336,20541,1,0
400,312,20719,1,0
208,240,21076,5,0
304,240,21255,1,0
256,152,21433,1,0
160,64,21612,5,2
352,64,21791,1,2
256,152,22505,6,0,B|256:64,2,90,0|0|2
184,224,23041,1,4
256,288,23219,1,0
328,224,23398,1,0
256,152,23576,1,0
256,352,23933,5,0
256,336,24023,1,0
256,320,24112,1,0
160,280,24291,1,0
160,280,24469,1,2
352,280,24826,1,0
352,280,25005,1,2
368,80,25362,5,0
336,176,25541,1,0
256,120,25719,1,0
176,176,25898,1,2
144,80,26076,1,0
256,48,26255,1,0
256,144,26433,2,0,B|256:336,1,180
352,320,26969,1,0
160,320,27326,5,0
160,320,27505,1,2
256,320,27683,1,0
256,320,27862,1,0
256,48,28219,1,0
256,48,28398,1,0
256,144,28576,1,0
176,208,28755,6,0,B|256:288|336:208,1,180,4|0
256,144,29826,1,0
336,80,30183,2,0,B|256:0|176:80,1,180,2|0
104,328,31612,5,0
64,240,31791,1,2
152,200,31969,1,0
192,288,32148,1,0
464,104,32505,1,0
376,64,32683,1,2
336,152,32862,1,0
424,192,33041,1,0
256,192,33219,12,0,34291
256,192,34469,12,2,36612
112,40,37326,5,4
184,112,37505,1,0
112,184,37684,1,2
40,112,37862,1,2
256,192,38219,1,0
256,192,38398,1,2
384,344,38755,5,0
312,272,38934,1,0
384,200,39112,1,2
456,272,39291,1,2
256,192,39648,1,0
256,192,39826,1,2
256,192,40184,5,2
184,128,40362,1,0
256,64,40541,1,2
328,128,40719,1,2
256,192,40898,1,0
256,288,41076,1,0
168,336,41255,1,2
344,336,41612,1,0
288,160,41969,5,0
256,160,42059,1,0
224,160,42148,1,2
208,304,42505,1,0
304,304,42684,1,2
192,104,43041,6,0,B|256:56|336:112,1,135,4|0
256,160,44112,1,2
320,216,44469,2,0,B|256:264|176:208,1,135,2|0
152,64,45541,1,2
352,64,45898,1,2
256,240,46255,5,0
256,240,46344,1,0
256,240,46434,1,0
88,184,46791,1,2
168,120,46969,1,2
256,160,47148,1,2
344,120,47326,1,2
416,184,47505,1,2
256,304,47862,5,0
256,56,48219,1,0
256,56,48398,1,0
192,208,48755,6,0,B|256:248|336:200,1,135,4|0
256,304,49826,1,2
256,72,50184,5,2
184,144,50362,1,0
256,216,50541,1,2
328,144,50719,1,2
256,304,51076,1,0
256,304,51255,1,2
56,136,51612,5,2
56,136,51791,1,0
40,232,51969,1,2
120,288,52148,1,2
208,248,52326,1,2
304,248,52505,1,2
392,288,52684,1,2
472,232,52862,1,2
392,152,53041,5,2
304,104,53219,1,0
208,104,53398,1,2
120,152,53576,1,0
256,296,53934,1,0
256,296,54112,1,2
256,296,54291,1,0
256,192,54469,12,0,55541
256,72,55898,5,2
72,304,56434,1,2
440,304,56969,1,2
256,232,57326,5,2
208,64,57684,1,2
304,64,57862,1,0
256,192,57951,12,0,60184
256,48,62684,5,0
256,248,63041,1,4
72,176,63398,1,8
72,144,63487,1,0
96,128,63576,1,8
304,112,63934,1,8
208,112,64112,1,8
256,304,64469,5,4
448,176,64826,1,8
440,144,64916,1,0
416,128,65005,1,8
208,112,65362,1,8
304,112,65541,1,8
208,280,65898,5,4
208,184,66076,1,0
304,184,66255,1,8
304,280,66434,1,8
256,64,66791,1,8
256,64,66969,1,8
256,264,67326,5,4
256,240,67416,1,0
256,216,67505,1,0
208,128,67684,1,8
304,128,67862,1,8
304,328,68219,1,8
208,328,68398,1,8
392,256,68755,5,4
424,240,68844,1,0
424,200,68934,1,0
384,112,69112,1,8
304,56,69291,2,0,B|200:56,2,90,8|0|8
256,144,69826,1,8
256,240,70005,1,0
112,256,70184,5,4
80,240,70273,1,0
80,200,70362,1,0
136,120,70541,1,8
208,56,70719,2,0,B|312:56,2,90,8|0|8
256,144,71255,1,8
256,240,71434,1,0
256,240,71612,1,4
256,144,71791,1,0
256,40,71969,5,8
256,40,72148,1,8
88,144,72505,1,8
88,240,72684,1,8
160,304,72862,1,0
256,336,73041,1,4
352,304,73219,1,0
424,240,73398,1,8
424,144,73576,1,8
256,40,73934,5,8
256,72,74023,1,0
256,104,74112,1,8
112,232,74469,1,4
208,256,74648,1,0
304,232,74826,1,8
400,256,75005,1,8
208,312,75362,1,8
256,336,75451,1,0
304,312,75541,1,8
256,224,75719,5,0
256,128,75898,1,4
64,184,76255,2,0,B|112:88,2,90,8|8|0
160,160,76791,1,8
256,192,76969,1,8
352,160,77148,1,0
448,192,77326,2,0,B|400:288,1,90,4|0
304,328,77684,5,8
208,328,77862,1,8
256,136,78219,1,8
256,232,78398,1,8
256,136,78576,1,0
168,88,78755,5,4
256,40,78934,1,0
344,88,79112,1,8
256,136,79291,1,8
208,328,79648,1,8
256,344,79737,1,0
304,328,79826,1,8
432,176,80184,5,4
360,112,80362,1,0
288,176,80541,1,8
360,240,80719,1,8
256,80,81076,1,8
256,80,81255,1,8
80,176,81612,5,4
152,248,81791,1,0
224,176,81969,1,8
152,104,82148,1,8
256,272,82505,1,8
256,272,82684,1,8
256,192,83041,12,0,85898
