osu file format v14

[General]
AudioFilename: pochiko.mp3
AudioLeadIn: 0
PreviewTime: 42230
Countdown: 0
SampleSet: Normal
StackLeniency: 0.4
Mode: 0
LetterboxInBreaks: 0
WidescreenStoryboard: 0

[Editor]
Bookmarks: 62855,72698,84730,85667
DistanceSpacing: 1
BeatDivisor: 1
GridSize: 4
TimelineZoom: 2.1

[Metadata]
Title:Pochiko no Shiawase na Nichijou
TitleUnicode:ポチコの幸せな日常
Artist:NU-KO
ArtistUnicode:NU-KO
Creator:Yauxo
Version:oko's Normal
Source:pop'n music Sunny Park
Tags:Kinshara Chewin Okoratu Priti captin1 わんわんコア PUPCORE PON Daichi Watanabe jubeat saucer fulfill REFLEC BEAT groovin'!! Upper
BeatmapID:652793
BeatmapSetID:232273

[Difficulty]
HPDrainRate:4
CircleSize:3.4
OverallDifficulty:4
ApproachRate:5
SliderMultiplier:1
SliderTickRate:1

[Events]
//Background and Video events
0,0,"pochikobg.jpg",0,0
//Break Periods
2,63054,69155
//Storyboard Layer 0 (Background)
//Storyboard Layer 1 (Fail)
//Storyboard Layer 2 (Pass)
//Storyboard Layer 3 (Foreground)
//Storyboard Sound Samples

[TimingPoints]
355,312.5,4,1,1,65,1,0
355,-100,4,1,1,65,0,1
7855,-100,4,2,1,65,0,0
12230,-100,4,1,1,65,0,0
42230,-100,4,1,1,65,0,0
43167,-100,4,1,1,65,0,1
46448,-100,4,1,1,65,0,0
48167,-100,4,1,1,65,0,1
52855,-100,4,1,1,65,0,0
55355,-100,4,1,1,65,0,1
62855,-100,4,2,1,65,0,0
71605,-100,4,2,1,65,0,0
72698,-100,4,1,1,65,0,0
85667,-100,4,1,1,65,0,0
94105,-100,4,1,1,65,0,1
97698,-100,4,1,1,65,0,0
99417,-100,4,1,1,65,0,1
107542,-100,4,1,1,65,0,0
107855,-100,4,1,1,65,0,1
115823,-100,4,1,1,65,0,0

[Colours]
Combo1 : 190,241,120
Combo2 : 251,164,234
Combo3 : 255,210,128
Combo4 : 255,128,131
Combo5 : 154,239,190
Combo6 : 199,171,243
Combo7 : 244,199,179
Combo8 : 152,208,250

[HitObjects]
74,131,355,6,0,B|96:103|96:103|177:97,1,100,4|2,3:0|3:0,0:0:0:0:
168,198,980,2,0,B|190:226|190:226|254:230,1,100,4|2,3:0|3:0,0:0:0:0:
354,223,1605,2,0,L|336:168,1,50,4|0,3:0|0:0,0:0:0:0:
372,139,1917,2,0,L|355:86,1,50,2|0,3:0|0:0,0:0:0:0:
374,44,2230,2,0,P|414:33|474:58,1,100,4|2,3:0|3:0,0:0:0:0:
498,149,2855,6,0,P|507:183|484:257,1,100,4|2,3:0|3:0,0:0:0:0:
444,256,3323,1,0,0:0:0:0:
394,245,3480,2,0,P|357:250|313:308,1,100,4|2,3:0|3:0,0:0:0:0:
304,342,3948,1,4,3:0:0:0:
243,262,4261,2,0,P|251:238|253:213,2,50,2|4|4,3:0|3:0|3:0,0:0:0:0:
210,300,4730,2,0,P|185:311|149:315,1,50,4|4,3:0|3:0,0:0:0:0:
128,279,5042,2,0,P|81:276|59:286,1,50,4|4,3:0|3:0,0:0:0:0:
45,314,5355,5,4,3:0:0:0:
24,216,5667,2,0,P|27:160|64:122,1,100,4|4,3:0|3:0,0:0:0:0:
98,104,6136,1,2,3:0:0:0:
147,108,6292,2,0,P|185:110|217:98,1,50,4|0,3:0|0:0,0:0:0:0:
246,101,6605,2,0,P|261:72|266:47,2,50,4|4|4,3:0|3:0|3:0,0:0:0:0:
224,145,7073,2,0,P|216:193|362:181,1,250,4|4,3:0|3:0,0:0:0:0:
374,98,8167,5,0,0:0:0:0:
298,32,8480,2,0,P|251:26|196:40,1,100,0|0,0:0|0:0,0:0:0:0:
126,106,9105,2,0,B|127:217|127:217|143:272,2,150,2|0|0,0:0|0:0|0:0,0:0:0:0:
36,62,10355,6,0,L|33:180,1,100,2|0,0:0|0:0,0:0:0:0:
49,261,10980,2,0,P|70:310|113:335,1,100,2|0,0:0|0:0,0:0:0:0:
200,293,11605,2,0,P|246:283|311:294,1,100,2|0,0:0|0:0,0:0:0:0:
385,335,12230,2,0,L|399:281,1,50,4|0,3:0|0:0,0:0:0:0:
443,267,12542,2,0,L|457:213,1,50,4|0,3:0|0:0,0:0:0:0:
437,171,12855,6,0,B|402:152|340:157|340:157|318:130|281:126,1,150,4|0,3:0|0:0,0:0:0:0:
248,128,13480,2,0,B|201:142|201:142|142:143,1,100,4|2,3:0|3:0,0:0:0:0:
96,57,14105,2,0,L|207:56,1,100,4|2,3:0|3:0,0:0:0:0:
244,47,14573,2,0,P|302:68|318:163,1,150,0|2,0:0|3:0,0:0:0:0:
300,245,15355,6,0,P|215:250|146:262,1,150,4|0,3:0|0:0,0:0:0:0:
106,238,15980,2,0,P|91:199|96:130,1,100,4|2,3:0|3:0,0:0:0:0:
144,53,16605,2,0,P|154:33|158:3,2,50,4|4|4,3:0|3:0|3:0,0:0:0:0:
167,97,17073,2,0,P|214:114|270:117,1,100,4|4,3:0|3:0,0:0:0:0:
312,104,17542,1,4,3:0:0:0:
397,156,17855,6,0,P|407:190|397:258,2,100,4|2|4,3:0|3:0|3:0,0:0:0:0:
378,57,18792,1,2,3:0:0:0:
279,37,19105,2,0,B|229:51|181:31|181:31|166:77|116:104,1,200,4|4,3:0|3:0,0:0:0:0:
70,122,19886,2,0,P|45:100|33:73,1,50,0|2,0:0|3:0,0:0:0:0:
12,182,20355,6,0,P|18:223|64:260,1,100,4|2,3:0|3:0,0:0:0:0:
159,239,20980,2,0,P|205:233|277:242,1,100,4|2,3:0|3:0,0:0:0:0:
335,174,21605,2,0,L|327:120,2,50,4|4|4,3:0|3:0|3:0,0:0:0:0:
349,273,22230,2,0,L|341:327,2,50,4|4|4,3:0|3:0|3:0,0:0:0:0:
422,205,22855,6,0,P|437:162|396:69,1,150,4|0,3:0|0:0,0:0:0:0:
347,70,23480,2,0,P|300:80|240:66,1,100,4|2,3:0|3:0,0:0:0:0:
150,53,24105,2,0,P|139:85|144:156,1,100,4|2,3:0|3:0,0:0:0:0:
151,199,24573,2,0,B|166:266|125:268|150:348,1,150,0|2,0:0|3:0,0:0:0:0:
246,320,25355,5,4,3:0:0:0:
315,248,25667,1,2,3:0:0:0:
374,328,25980,2,0,P|413:308|438:256,1,100,4|2,3:0|3:0,0:0:0:0:
386,172,26605,2,0,L|272:138,1,100,4|2,3:0|3:0,0:0:0:0:
201,189,27230,2,0,L|87:155,1,100,4|2,3:0|3:0,0:0:0:0:
68,67,27855,6,0,P|94:47|170:47,1,100,4|2,3:0|3:0,0:0:0:0:
249,85,28480,1,4,3:0:0:0:
307,166,28792,1,2,3:0:0:0:
350,75,29105,6,0,P|383:66|449:88,1,100,4|2,3:0|3:0,0:0:0:0:
485,175,29730,2,0,P|452:183|386:161,1,100,4|2,3:0|3:0,0:0:0:0:
294,136,30355,2,0,P|254:141|205:175,1,100,4|2,3:0|3:0,0:0:0:0:
221,273,30980,2,0,L|277:295,1,50,4|0,3:0|0:0,0:0:0:0:
272,340,31292,2,0,L|328:362,1,50,2|0,3:0|0:0,0:0:0:0:
367,348,31605,6,0,P|379:311|369:233,1,100,4|2,3:0|3:0,0:0:0:0:
293,193,32230,2,0,P|281:156|291:78,1,100,4|2,3:0|3:0,0:0:0:0:
381,72,32855,2,0,P|393:109|383:187,1,100,4|2,3:0|3:0,0:0:0:0:
347,260,33480,2,0,P|321:273|300:276,1,50,4|0,3:0|0:0,0:0:0:0:
265,312,33792,2,0,P|235:305|219:292,1,50,2|0,3:0|0:0,0:0:0:0:
190,253,34105,6,0,P|143:248|91:254,1,100,4|2,3:0|3:0,0:0:0:0:
54,160,34730,2,0,P|101:165|153:159,1,100,4|2,3:0|3:0,0:0:0:0:
249,129,35355,2,0,P|296:124|348:130,1,100,4|2,3:0|3:0,0:0:0:0:
432,184,35980,2,0,L|413:242,1,50,4|0,3:0|0:0,0:0:0:0:
437,276,36292,2,0,L|418:334,1,50,2|0,3:0|0:0,0:0:0:0:
378,349,36605,6,0,B|335:337|290:352|290:352|233:369|198:336|192:296,1,200,4|0,3:0|3:0,0:0:0:0:
192,214,37542,2,0,P|159:221|130:237,1,50,0|0,3:0|3:0,0:0:0:0:
102,255,37855,2,0,P|83:221|87:146,1,100,4|2,3:0|3:0,0:0:0:0:
128,72,38480,2,0,P|166:76|239:59,1,100,4|2,3:0|3:0,0:0:0:0:
319,27,39105,6,0,L|314:141,1,100,4|2,3:0|3:0,0:0:0:0:
302,226,39730,2,0,P|348:236|416:210,1,100,4|2,3:0|3:0,0:0:0:0:
491,186,40355,2,0,B|505:232|495:270|473:289|473:289|480:329|480:329|428:328|409:366|333:354,1,300,4|2,3:0|3:0,0:0:0:0:
235,340,41605,6,0,P|212:343|182:354,2,50,4|4|4,3:0|3:0|3:0,0:0:0:0:
240,240,42230,2,0,L|276:204,2,50,4|4|4,3:0|3:0|0:0,0:0:0:0:
194,220,42698,2,0,P|156:196|144:140,1,100,4|0,3:0|0:0,0:0:0:0:
155,96,43167,6,0,L|268:101,1,100,4|4,3:0|3:0,0:0:0:0:
327,31,43792,1,2,3:0:0:0:
369,121,44105,2,0,P|376:156|364:237,1,100,4|2,3:0|3:0,0:0:0:0:
309,298,44730,2,0,P|272:286|250:286,1,50,4|0,3:0|0:0,0:0:0:0:
212,296,45042,1,2,3:0:0:0:
121,338,45355,6,0,B|112:305|112:305|121:230,1,100,4|2,3:0|3:0,0:0:0:0:
137,141,45980,2,0,P|172:147|240:144,1,100,4|2,3:0|3:0,0:0:0:0:
284,133,46448,1,4,3:0:0:0:
347,55,46761,1,4,3:0:0:0:
377,149,47073,1,4,3:0:0:0:
441,72,47386,1,4,3:0:0:0:
470,167,47698,2,0,B|476:204|476:204|467:281,1,100,4|0,3:0|0:0,0:0:0:0:
444,310,48167,6,0,P|404:302|342:316,1,100,4|4,3:0|3:0,0:0:0:0:
247,325,48792,1,2,3:0:0:0:
148,307,49105,2,0,P|127:275|128:213,1,100,4|2,3:0|3:0,0:0:0:0:
158,119,49730,2,0,P|179:127|201:150,1,50,4|0,3:0|0:0,0:0:0:0:
223,189,50042,1,2,3:0:0:0:
278,105,50355,6,0,P|317:79|377:90,1,100,4|2,3:0|3:0,0:0:0:0:
417,173,50980,2,0,B|410:212|410:212|420:280,1,100,4|2,3:0|3:0,0:0:0:0:
451,366,51605,1,4,3:0:0:0:
353,345,51917,1,2,3:0:0:0:
254,325,52230,2,0,B|218:319|218:319|150:337,1,100,4|2,3:0|3:0,0:0:0:0:
56,345,52855,6,0,L|60:288,1,50,4|4,3:0|3:0,0:0:0:0:
149,171,53480,2,0,L|153:114,1,50,4|4,3:0|3:0,0:0:0:0:
156,71,53792,1,0,0:0:0:0:
244,24,54105,2,0,P|304:33|346:70,1,100,4|0,3:0|0:0,0:0:0:0:
363,96,54573,2,0,B|401:160|338:176|381:254,1,150,0|0,0:0|0:0,0:0:0:0:
420,330,55355,6,0,B|394:348|394:348|316:354,1,100,4|2,3:0|3:0,0:0:0:0:
295,257,55980,2,0,B|269:239|269:239|191:233,1,100,4|2,3:0|3:0,0:0:0:0:
99,245,56605,2,0,P|83:210|79:185,1,50,4|0,3:0|0:0,0:0:0:0:
35,177,56917,2,0,P|40:139|52:116,1,50,2|0,3:0|0:0,0:0:0:0:
68,83,57230,2,0,P|117:105|167:109,1,100,4|2,3:0|3:0,0:0:0:0:
197,73,57698,6,0,P|258:40|321:101,1,150,4|2,3:0|3:0,0:0:0:0:
322,132,58323,1,0,0:0:0:0:
312,181,58480,2,0,P|305:217|313:283,1,100,4|2,3:0|3:0,0:0:0:0:
324,327,58948,1,4,3:0:0:0:
419,317,59261,2,0,P|447:309|474:313,2,50,4|0|0,3:0|0:0|0:0,0:0:0:0:
392,274,59730,2,0,P|379:240|383:210,1,50,4|4,3:0|3:0,0:0:0:0:
428,212,60042,2,0,P|433:187|429:162,1,50,4|4,3:0|3:0,0:0:0:0:
411,116,60355,5,4,3:0:0:0:
320,73,60667,2,0,P|270:65|211:86,1,100,4|4,3:0|3:0,0:0:0:0:
184,109,61136,1,2,3:0:0:0:
165,155,61292,2,0,P|161:174|148:206,1,50,4|0,3:0|0:0,0:0:0:0:
110,233,61605,2,0,P|87:222|71:203,2,50,4|4|4,3:0|3:0|3:0,0:0:0:0:
104,282,62073,2,0,P|122:349|259:301,1,250,4|4,3:0|3:0,0:0:0:0:
180,79,70355,5,0,0:0:0:0:
171,278,70980,1,0,0:0:0:0:
12,156,71605,2,0,B|29:123|29:123|92:79,1,100
180,79,72230,6,0,L|251:61,2,50,4|4|4,3:0|3:0|3:0,0:0:0:0:
151,119,72698,2,0,P|146:170|172:221,1,100,4|0,3:0|0:0,0:0:0:0:
197,252,73167,2,0,P|251:243|299:253,1,100,4|2,3:0|3:0,0:0:0:0:
364,323,73792,1,4,3:0:0:0:
432,249,74105,2,0,P|437:197|416:141,1,100,2|4,3:0|3:0,0:0:0:0:
384,120,74573,2,0,B|327:131|322:93|249:99|244:157,1,150,0|4,0:0|3:0,0:0:0:0:
244,191,75198,6,0,P|252:233|231:304,1,100,4|4,3:0|3:0,0:0:0:0:
211,329,75667,2,0,P|171:322|97:333,1,100,4|4,3:0|3:0,0:0:0:0:
16,357,76292,1,2,3:0:0:0:
9,257,76605,2,0,P|14:221|26:194,1,50,4|0,3:0|0:0,0:0:0:0:
53,172,76917,1,2,3:0:0:0:
147,205,77230,2,0,P|179:194|202:178,1,50,4|0,3:0|0:0,0:0:0:0:
216,141,77542,2,0,P|237:128|261:122,1,50,2|0,3:0|0:0,0:0:0:0:
311,119,77855,6,0,P|335:162|325:223,1,100,4|2,3:0|3:0,0:0:0:0:
265,286,78480,2,0,P|295:306|359:306,1,100,4|2,3:0|3:0,0:0:0:0:
449,268,79105,2,0,P|457:220|442:156,1,100,4|2,3:0|3:0,0:0:0:0:
413,76,79730,2,0,L|393:25,1,50,4|0,3:0|0:0,0:0:0:0:
345,28,80042,2,0,L|319:82,1,50,2|0,3:0|0:0,0:0:0:0:
292,113,80355,6,0,P|245:117|177:102,1,100,4|2,3:0|3:0,0:0:0:0:
97,77,80980,2,0,L|68:185,1,100,4|2,3:0|3:0,0:0:0:0:
49,271,81605,2,0,P|101:275|145:312,1,100,4|2,3:0|3:0,0:0:0:0:
204,377,82230,1,4,3:0:0:0:
250,288,82542,1,2,3:0:0:0:
199,201,82855,6,0,B|220:182|230:138|212:108|212:108|251:116|283:102|297:71|297:71|320:108|345:127|395:114,1,300,4|4,3:0|3:0,0:0:0:0:
472,87,84105,2,0,L|498:25,2,50,4|4|4,3:0|3:0|3:0,0:0:0:0:
133,292,85667,6,0,P|94:233|96:169,1,100,4|4,3:0|3:0,0:0:0:0:
108,106,86292,1,0,0:0:0:0:
190,47,86605,2,0,B|325:40|325:40|415:53,1,200,4|4,3:0|3:0,0:0:0:0:
431,139,87542,1,0,0:0:0:0:
386,228,87855,2,0,B|346:255|346:255|298:251|298:251|276:300|196:305,1,200,4|4,3:0|3:0,0:0:0:0:
116,281,88792,1,0,0:0:0:0:
59,198,89105,6,0,P|40:153|53:87,1,100,4|0,3:0|0:0,0:0:0:0:
128,41,89730,2,0,B|178:27|178:27|228:41,1,100,8|8,3:0|3:0,0:0:0:0:
295,110,90355,2,0,B|305:181|305:181|336:208|336:208|357:317,1,200,4|2,3:0|3:0,0:0:0:0:
449,269,91292,1,0,0:0:0:0:
433,169,91605,6,0,P|434:115|457:65,2,100,4|0|2,3:0|0:0|3:0,0:0:0:0:
449,269,92542,1,0,0:0:0:0:
396,354,92855,1,4,3:0:0:0:
317,171,93480,2,0,B|305:134|305:134|278:123|278:123|269:74|211:57,1,150,8|8,3:0|3:0,0:0:0:0:
178,54,94105,6,0,P|131:66|94:110,1,100,4|2,3:0|3:0,0:0:0:0:
92,202,94730,2,0,P|143:203|199:223,1,100,4|2,3:0|3:0,0:0:0:0:
279,263,95355,2,0,L|324:154,1,100,4|2,3:0|3:0,0:0:0:0:
351,76,95980,2,0,P|386:91|405:118,1,50,4|0,3:0|0:0,0:0:0:0:
421,140,96292,1,2,3:0:0:0:
443,237,96605,6,0,P|394:248|349:291,1,100,4|2,3:0|3:0,0:0:0:0:
284,349,97230,2,0,P|254:337|218:337,2,50,4|4|0,3:0|3:0|0:0,0:0:0:0:
331,365,97698,1,4,3:0:0:0:
420,320,98011,1,4,3:0:0:0:
498,381,98323,1,4,3:0:0:0:
505,281,98636,1,4,3:0:0:0:
509,181,98948,2,0,B|485:159|485:159|403:160,1,100,4|4,3:0|3:0,0:0:0:0:
370,177,99417,6,0,L|253:157,1,100,4|4,3:0|3:0,0:0:0:0:
172,143,100042,1,2,3:0:0:0:
79,180,100355,2,0,P|56:230|57:287,1,100,4|2,3:0|3:0,0:0:0:0:
135,332,100980,2,0,P|185:326|254:347,1,100,4|2,3:0|3:0,0:0:0:0:
281,349,101448,6,0,B|295:307|295:307|300:304|300:304|297:299|297:299|313:254,1,100,4|0,3:0|0:0,0:0:0:0:
333,212,101917,1,2,3:0:0:0:
337,111,102230,2,0,P|295:77|238:74,1,100,4|2,3:0|3:0,0:0:0:0:
202,82,102698,2,0,B|188:124|188:124|183:127|183:127|185:132|185:132|171:173,1,100,4|0,3:0|0:0,0:0:0:0:
152,220,103167,1,2,3:0:0:0:
103,307,103480,2,0,P|63:269|48:205,1,100,4|2,3:0|3:0,0:0:0:0:
38,178,103948,6,0,B|68:146|68:146|74:147|74:147|75:141|75:141|106:110,1,100,4|4,3:0|3:0,0:0:0:0:
151,130,104417,2,0,P|212:138|266:109,1,100,2|4,3:0|3:0,0:0:0:0:
331,71,105042,1,2,3:0:0:0:
412,12,105355,6,0,B|444:45|444:103|406:143|406:143|447:175|469:225|450:299,1,300,4|4,3:0|3:0,0:0:0:0:
382,352,106605,2,0,P|250:296|325:157,1,300,4|4,3:0|3:0,0:0:0:0:
197,129,107855,6,0,P|144:111|98:120,1,100,4|2,3:0|3:0,0:0:0:0:
40,197,108480,2,0,P|93:215|139:206,1,100,4|2,3:0|3:0,0:0:0:0:
230,238,109105,2,0,P|268:282|270:283,1,50,4|0,3:0|0:0,0:0:0:0:
242,324,109417,2,0,P|292:353|294:353,1,50,2|0,3:0|0:0,0:0:0:0:
331,349,109730,2,0,P|355:305|341:231,1,100,4|2,3:0|3:0,0:0:0:0:
328,212,110198,6,0,P|307:156|356:67,1,150,4|2,3:0|3:0,0:0:0:0:
432,34,110980,2,0,L|497:27,2,50,2|0|2,3:0|0:0|3:0,0:0:0:0:
437,83,111448,6,0,B|442:180|442:180|407:149|366:150,1,150,4|2,3:0|3:0,0:0:0:0:
302,118,112230,2,0,L|310:62,2,50,2|0|2,3:0|0:0|3:0,0:0:0:0:
286,165,112698,6,0,P|250:222|151:201,1,150,4|2,3:0|3:0,0:0:0:0:
97,157,113480,2,0,P|104:133|132:102,2,50,4|4|4,3:0|3:0|3:0,0:0:0:0:
78,203,113948,6,0,B|65:237|65:237|101:321,1,100,4|4,3:0|3:1,0:0:0:0:
74,343,114417,6,0,B|104:362|104:362|194:345,1,100,4|4,3:1|3:1,0:0:0:0:
208,379,114886,6,0,B|241:364|241:364|276:280,1,100,4|4,3:1|3:1,0:0:0:0:
314,291,115355,6,0,B|320:255|320:255|270:178,1,100,4|4,3:1|3:1,0:0:0:0:
250,166,115823,5,4,3:1:0:0:
